<?xml version="1.0" standalone="no"?> <!DOCTYPE svg PUBLIC "-//W3C//DTD SVG 1.0//EN" "http://www.w3.org/TR/2001/REC-SVG-20010904/DTD/svg10.dtd" > <svg xmlns="http://www.w3.org/2000/svg" width="100%" height="100%">
<defs >
<font id="TerminalDosis-SemiBold" horiz-adv-x="469" ><font-face
    font-family="Terminal Dosis"
    units-per-em="1000"
    panose-1="2 1 7 3 2 2 2 6 0 3"
    ascent="1027"
    descent="-237"
    alphabetic="0" />
<missing-glyph horiz-adv-x="370" d="M43 68T43 83T50 106L136 236L50 366Q43 375 43 389Q43 405 56 416T86 428Q106 428 118 411L185 301L252 411Q264 428 284 428Q301 428 314 417T328 389Q328 377 320 366L234 236L320 106Q327 98 327 83Q327 67 314 56T283
45Q263 45 252 62L185 170L118 62Q107 45 86 45Q69 45 56 56Z" />
<glyph unicode=" " glyph-name="space" horiz-adv-x="200" />
<glyph unicode="!" glyph-name="exclam" horiz-adv-x="210" d="M46 54Q46 79 63 96T106 114Q130 114 147 97T165 54Q165 30 148 12T106 -6Q81 -6 64 12T46 54ZM52 690Q52 713 67 725T105 738T143 725T158 690Q158 618 152 455T145 220Q145 205 132 197T105 188Q64
188 64 220Q64 292 58 455T52 690Z" />
<glyph unicode="&quot;" glyph-name="quotedbl" horiz-adv-x="291" d="M32 739Q32 751 44 759T73 768T102 760T116 739L106 598Q106 586 98 577T73 568Q42 568 42 598L32 739ZM175 739Q175 751 188 759T217 768T246 760T259 739L249 598Q249 586 241 577T217 568Q185
568 185 598L175 739Z" />
<glyph unicode="#" glyph-name="numbersign" horiz-adv-x="642" d="M24 254T24 271T32 300T54 312H156L179 449H94Q62 449 62 488Q62 505 70 516T92 528H195L222 690Q223 700 236 706T265 713Q286 713 300 703T314 671L290 528H406L434 690Q435 700 448 706T477
713Q497 713 511 703T526 671L501 528H586Q599 528 609 517T619 489T610 461T588 449H487L463 312H548Q561 312 571 301T582 272T572 244T550 232H448L418 57Q416 46 403 39T376 31Q355 31 340 42T325 72L352 232H237L207 58Q205 47 192 39T166 31Q145 31 130 42T115
72L140 232H56Q41 232 33 243ZM252 312H367L391 449H275L252 312Z" />
<glyph unicode="$" glyph-name="dollar" horiz-adv-x="515" d="M31 120Q31 139 45 158T77 177Q89 177 108 160T161 122T239 99V334Q209 345 193 351T151 370T110 396T79 429T56 473T49 530Q49 617 103 662T239 716V745Q239 754 247 761T268 768Q279 768 288 761T298
745V718Q359 716 410 698T462 646Q462 628 450 609T418 589Q410 589 374 606T298 626V423Q338 408 364 395T420 357T465 297T480 211Q480 122 431 70T298 5V-29Q298 -38 289 -45T268 -52Q256 -52 248 -45T239 -29V2Q152 3 92 41T31 120ZM149 540Q149 501 173 481T245
442V624Q149 612 149 540ZM292 101Q380 117 380 200Q380 244 357 269T292 312V101Z" />
<glyph unicode="%" glyph-name="percent" horiz-adv-x="774" d="M31 460V608Q31 731 166 731Q227 731 264 702T301 608V460Q301 396 264 367T166 337Q31 337 31 460ZM104 460Q104 401 166 401Q229 401 229 460V608Q229 667 166 667Q104 667 104 608V460ZM168 2Q168
10 172 17L539 752Q547 770 569 770Q585 770 598 759T611 732Q611 724 608 716L241 -16Q232 -35 207 -35Q190 -35 179 -24T168 2ZM473 120V268Q473 391 608 391Q669 391 706 362T743 268V120Q743 56 706 27T608 -3Q473 -3 473 120ZM546 120Q546 61 608 61Q671 61
671 120V268Q671 327 608 327Q546 327 546 268V120Z" />
<glyph unicode="&amp;" glyph-name="ampersand" horiz-adv-x="629" d="M26 207Q26 275 63 327T155 409Q119 450 100 487T81 571Q81 653 138 700T280 748Q360 748 412 711T464 639Q464 620 449 605T414 590Q399 590 384 608T344 644T282 662Q237 662 210 637T183
566Q183 544 191 523T217 477T247 440L282 401L459 211Q480 260 485 363Q487 381 497 389T533 398T568 386T577 347Q577 238 524 144L609 54Q616 46 616 35Q616 19 601 6T567 -8Q553 -8 540 5L471 77Q391 -10 269 -10Q160 -10 93 53T26 207ZM133 216Q133 159 172
121T282 83Q364 83 408 142L215 346Q133 290 133 216Z" />
<glyph unicode="&apos;" glyph-name="quotesingle" horiz-adv-x="148" d="M32 739Q32 751 44 759T73 768T102 760T116 739L106 598Q106 586 98 577T73 568Q42 568 42 598L32 739Z" />
<glyph unicode="(" glyph-name="parenleft" horiz-adv-x="325" d="M53 160V574Q53 656 115 712T256 768Q308 768 308 722Q308 701 298 688T273 675Q221 675 190 645T158 574V160Q158 112 192 93T273 73Q308 73 308 26Q308 -20 253 -20Q170 -20 112 26T53 160Z" />
<glyph unicode=")" glyph-name="parenright" horiz-adv-x="326" d="M18 26Q18 73 52 73Q99 73 133 92T167 160V574Q167 614 136 644T52 675Q37 675 28 688T18 722Q18 768 69 768Q148 768 210 712T273 574V160Q273 73 214 27T72 -20Q41 -20 30 -8T18 26Z" />
<glyph unicode="*" glyph-name="asterisk" horiz-adv-x="451" d="M25 579Q25 595 36 607T64 620Q70 620 75 618L192 578L187 696Q188 713 199 722T226 731T252 722T264 696L260 576L377 618Q385 620 388 620Q404 620 415 606T426 575Q426 549 401 543L286 513L362
407Q368 400 368 386Q368 369 355 358T324 347Q306 347 297 361L226 467L154 360Q146 347 129 347Q114 347 99 357T84 385Q84 398 92 408L166 509L49 543Q25 549 25 579Z" />
<glyph unicode="+" glyph-name="plus" horiz-adv-x="433" d="M22 221T22 240T31 272T56 285H172V400Q172 414 185 424T217 435Q236 435 248 425T261 400V285H376Q390 285 400 272T411 240Q411 221 401 209T376 196H261V80Q261 65 249 56T217 46T185 55T172 80V196H56Q41
196 32 208Z" />
<glyph unicode="," glyph-name="comma" horiz-adv-x="185" d="M33 54Q33 79 50 96T92 114Q116 114 134 97T152 54Q152 38 103 -79Q96 -94 79 -94Q66 -94 55 -87T43 -66Q43 -58 46 -53L68 0Q33 15 33 54Z" />
<glyph unicode="-" glyph-name="hyphen" horiz-adv-x="412" d="M41 221T41 240T50 272T75 285H335Q349 285 360 272T371 240Q371 221 360 209T335 196H75Q60 196 51 208Z" />
<glyph unicode="." glyph-name="period" horiz-adv-x="184" d="M33 29T33 54T50 96T93 114Q117 114 134 97T152 54Q152 30 135 12T93 -6Q67 -6 50 11Z" />
<glyph unicode="/" glyph-name="slash" horiz-adv-x="481" d="M19 2Q19 10 22 17L390 752Q398 770 420 770Q436 770 449 759T462 732Q462 723 458 716L91 -16Q82 -35 58 -35Q41 -35 30 -24T19 2Z" />
<glyph unicode="0" glyph-name="zero" horiz-adv-x="551" d="M52 217V508Q52 623 113 677T276 731T439 677T501 508V217Q501 102 440 48T276 -6T113 48T52 217ZM158 217Q158 88 276 88Q333 88 364 120T395 217V508Q395 573 364 605T276 637Q158 637 158 508V217ZM234
343T234 362T246 392T277 404T307 393T319 362T308 331T277 319T246 331Z" />
<glyph unicode="1" glyph-name="one" horiz-adv-x="267" d="M7 580Q7 606 28 621L132 721Q143 732 159 732Q177 732 191 723T206 697V35Q206 19 190 10T153 0Q131 0 116 9T100 35V591L65 547Q55 537 43 537Q28 537 18 550T7 580Z" />
<glyph unicode="2" glyph-name="two" horiz-adv-x="495" d="M30 35V132Q30 177 63 220T146 298L242 368Q290 403 323 445T357 529T330 602T249 634Q204 634 176 609T148 535Q148 519 133 507T92 495Q44 495 44 554Q44 632 104 681T249 731Q338 731 400 676T463
532Q463 472 430 420T349 331T254 262T173 196T139 132V94H433Q447 94 457 81T468 48T458 15T433 0H77Q61 0 46 10T30 35Z" />
<glyph unicode="3" glyph-name="three" horiz-adv-x="509" d="M24 170Q24 196 35 205T73 215Q105 215 116 206T128 175Q128 139 158 114T246 88Q308 88 337 117T367 212V231Q367 340 245 340Q211 340 211 382Q211 425 245 425Q296 425 322 448T349 535Q349 638
249 638Q193 638 169 615T145 556Q145 513 95 513Q61 513 51 523T40 562Q40 589 50 616T82 670T148 714T250 731Q451 731 451 553Q451 492 430 448T371 386Q473 346 473 231V212Q473 99 410 47T245 -6Q137 -6 81 48T24 170Z" />
<glyph unicode="4" glyph-name="four" horiz-adv-x="482" d="M3 203Q3 214 9 225L251 702Q266 731 297 731Q314 731 332 719T350 690Q350 684 345 674L139 263H286V401Q286 436 339 436Q361 436 376 427T392 401V263H441Q458 263 467 248T477 213Q477 195 466
180T441 164H392V35Q392 19 376 10T339 0Q317 0 302 9T286 35V164H40Q24 164 14 174T3 203Z" />
<glyph unicode="5" glyph-name="five" horiz-adv-x="497" d="M22 171Q22 220 74 220Q128 220 128 178T161 112T245 88Q365 88 365 214V233Q365 296 334 327T246 359H101Q56 359 56 400Q56 410 58 424L81 696Q84 731 105 731H402Q418 731 426 717T435 684T427 651T402
637H171L157 443H246Q349 443 410 393T471 233V214Q471 101 410 48T247 -6Q143 -6 83 45T22 171Z" />
<glyph unicode="6" glyph-name="six" horiz-adv-x="536" d="M50 217V508Q50 623 112 677T279 731Q384 731 441 678T499 553Q499 528 487 518T449 508Q394 508 394 548T361 612T277 637Q155 637 155 508V382Q201 439 295 439Q499 439 499 235V217Q499 102 438 48T275
-6T112 48T50 217ZM155 211Q155 82 275 82Q393 82 393 211V228Q393 354 274 354T155 237V211Z" />
<glyph unicode="7" glyph-name="seven" horiz-adv-x="484" d="M21 543V696Q21 709 36 720T68 731H423Q439 731 454 720T470 696V593Q470 570 451 534L182 13Q173 -3 150 -3Q124 -3 104 12T84 49Q84 60 89 69L364 575V637H127V543Q127 528 111 518T73 508T37 518T21 543Z" />
<glyph unicode="8" glyph-name="eight" horiz-adv-x="521" d="M36 200V212Q36 357 151 399Q58 435 58 555Q58 646 112 688T261 731T409 689T464 555Q464 434 370 399Q485 357 485 212V200Q485 94 424 44T261 -6T98 44T36 200ZM142 211Q142 146 173 114T261 82Q379
82 379 211V229Q379 354 261 354Q142 354 142 229V211ZM161 543Q161 442 261 442T361 543Q361 643 261 643T161 543Z" />
<glyph unicode="9" glyph-name="nine" horiz-adv-x="536" d="M37 172Q37 197 49 207T87 217Q142 217 142 177T175 113T259 88Q380 88 380 217V343Q335 286 241 286Q37 286 37 490V508Q37 623 98 677T261 731T424 677T486 508V217Q486 102 424 48T256 -6Q152 -6
95 47T37 172ZM143 497Q143 371 262 371Q380 371 380 488V514Q380 643 261 643Q143 643 143 514V497Z" />
<glyph unicode=":" glyph-name="colon" horiz-adv-x="219" d="M50 29T50 54T67 96T110 114Q134 114 151 97T169 54Q169 30 152 12T110 -6Q84 -6 67 11ZM50 337T50 362T67 404T110 422Q134 422 151 405T169 362Q169 338 152 320T110 302Q84 302 67 319Z" />
<glyph unicode=";" glyph-name="semicolon" horiz-adv-x="219" d="M48 54Q48 79 65 96T107 114Q131 114 149 97T167 54Q167 38 118 -79Q111 -94 94 -94Q81 -94 70 -87T58 -66Q58 -58 61 -53L83 0Q48 15 48 54ZM52 337T52 362T69 404T112 422Q136 422 153 405T171
362Q171 338 154 320T112 302Q86 302 69 319Z" />
<glyph unicode="&lt;" glyph-name="less" horiz-adv-x="411" d="M21 277Q21 303 43 318L306 490Q311 494 321 494Q338 494 353 479T369 444Q369 425 354 415L144 277L354 139Q369 131 369 110Q369 90 354 76T321 61Q311 61 306 65L43 237Q21 252 21 277Z" />
<glyph unicode="=" glyph-name="equal" horiz-adv-x="442" d="M58 152Q58 171 68 184T93 197H348Q362 197 373 184T384 152Q384 133 373 121T348 108H93Q77 108 68 120T58 152ZM58 355Q58 374 68 387T93 400H348Q362 400 373 387T384 355Q384 336 373 324T348
311H93Q77 311 68 323T58 355Z" />
<glyph unicode="&gt;" glyph-name="greater" horiz-adv-x="410" d="M42 90T42 110T56 139L267 277L56 415Q42 426 42 444Q42 464 57 479T90 494Q99 494 104 490L367 318Q389 303 389 277T367 237L104 65Q99 61 90 61Q73 61 58 75Z" />
<glyph unicode="?" glyph-name="question" horiz-adv-x="422" d="M22 636Q22 671 71 704T195 738Q288 738 341 690T395 566Q395 535 386 507T360 455T330 416T296 382T271 359Q241 332 234 304T227 219Q227 188 185 188Q164 188 155 198T146 234Q146 348 200 398Q206
404 225 420T255 446T280 474T300 512T307 556Q307 604 277 630T192 657Q160 657 138 648T106 626T86 605T63 595Q48 595 35 606T22 636ZM127 54Q127 79 144 96T186 114Q210 114 227 97T245 54Q245 30 228 12T186 -6Q161 -6 144 12T127 54Z" />
<glyph unicode="@" glyph-name="at" horiz-adv-x="729" d="M44 212Q44 369 127 467T376 565Q529 565 613 479T698 237Q698 142 664 81T561 19Q521 19 493 39T459 89Q404 26 335 26Q282 26 246 54T209 139Q209 205 260 231T408 258H445V275Q445 350 357 350Q320
350 292 337T260 324Q249 324 241 338T233 365Q233 389 276 406T369 424Q437 424 480 390T523 293V125Q530 76 567 76Q628 76 628 223Q628 501 375 501Q303 501 251 478T170 414T128 323T115 213Q115 157 126 111T163 25T235 -35T344 -57Q394 -57 436 -44T481 -30Q493
-30 500 -40T508 -61Q508 -87 450 -104T332 -121Q275 -121 224 -101T133 -41T68 64T44 212ZM295 140Q295 113 310 100T352 86Q391 86 419 111T448 167V208H418Q357 208 326 193T295 140Z" />
<glyph unicode="A" glyph-name="A" horiz-adv-x="562" d="M14 44Q14 50 15 53L214 701Q226 737 281 737Q337 737 349 701L547 53Q549 47 549 44Q549 26 528 13T482 0Q453 0 446 22L405 164H158L117 22Q110 0 80 0Q56 0 35 13T14 44ZM181 249H381L281 592L181 249Z" />
<glyph unicode="B" glyph-name="B" horiz-adv-x="553" d="M66 34V696Q66 712 80 721T113 731H295Q387 731 442 693T497 558Q497 434 412 396Q463 376 489 339T515 229V210Q515 100 461 50T316 0H113Q92 0 79 10T66 34ZM171 94H296Q409 94 409 218V234Q409 298
381 326T296 354H171V94ZM171 438H290Q391 438 391 541Q391 637 288 637H171V438Z" />
<glyph unicode="C" glyph-name="C" horiz-adv-x="541" d="M59 217V508Q59 623 120 677T281 731Q383 731 445 681T508 550Q508 518 496 507T455 495Q403 495 402 530Q396 637 285 637Q165 637 165 508V217Q165 88 287 88Q323 88 347 98T381 129T396 164T402 201Q405
236 454 236Q483 236 495 225T508 181Q508 98 445 46T280 -6Q181 -6 120 48T59 217Z" />
<glyph unicode="D" glyph-name="D" horiz-adv-x="573" d="M66 34V697Q66 711 79 721T113 731H290Q392 731 453 677T515 508V223Q515 108 454 54T290 0H113Q93 0 80 10T66 34ZM172 94H290Q409 94 409 223V508Q409 637 290 637H172V94Z" />
<glyph unicode="E" glyph-name="E" horiz-adv-x="523" d="M66 35V696Q66 712 80 721T113 731H469Q486 731 495 717T504 685Q504 665 495 651T469 637H172V408H326Q342 408 351 396T361 365Q361 349 352 337T326 324H172V94H469Q485 94 494 80T504 46Q504 28 495
14T469 0H113Q94 0 80 9T66 35Z" />
<glyph unicode="F" glyph-name="F" horiz-adv-x="502" d="M66 35V696Q66 712 80 721T113 731H464Q481 731 489 718T498 685Q498 665 489 651T464 637H172V408H327Q343 408 352 396T361 365Q361 349 353 337T327 324H172V35Q172 18 157 9T119 0Q98 0 82 9T66 35Z" />
<glyph unicode="G" glyph-name="G" horiz-adv-x="556" d="M59 217V508Q59 623 120 677T280 731Q381 731 444 681T508 546Q508 517 496 506T455 495Q403 495 402 530Q391 637 283 637Q165 637 165 508V217Q165 88 283 88Q340 88 371 120T402 217V299H301Q285 299
276 311T267 342Q267 358 276 371T301 384H473Q489 384 498 374T508 348V217Q508 102 447 48T283 -6T120 48T59 217Z" />
<glyph unicode="H" glyph-name="H" horiz-adv-x="593" d="M66 35V697Q66 714 81 722T119 731T156 723T172 697V421H421V697Q421 714 436 722T474 731T511 723T527 697V35Q527 19 512 10T474 0Q453 0 437 9T421 35V337H172V35Q172 19 157 10T119 0Q98 0 82 9T66 35Z" />
<glyph unicode="I" glyph-name="I" horiz-adv-x="238" d="M66 35V697Q66 714 81 722T119 731T156 723T172 697V35Q172 19 157 10T119 0Q98 0 82 9T66 35Z" />
<glyph unicode="J" glyph-name="J" horiz-adv-x="530" d="M17 185Q17 214 30 225T71 236Q122 236 123 201Q125 152 154 120T241 88Q361 88 361 217V637H244Q228 637 219 651T209 685Q209 704 218 717T244 731H420Q439 731 453 722T467 696V217Q467 102 406 48T245
-6Q144 -6 81 46T17 185Z" />
<glyph unicode="K" glyph-name="K" horiz-adv-x="541" d="M66 35V697Q66 714 81 722T119 731T156 723T172 697V393L416 716Q426 731 446 731Q467 731 487 714T507 676Q507 664 499 655L307 415L535 68Q541 59 541 49Q541 30 522 14T479 -3Q454 -3 441 17L237 326L172
244V35Q172 19 157 10T119 0Q98 0 82 9T66 35Z" />
<glyph unicode="L" glyph-name="L" horiz-adv-x="477" d="M66 35V697Q66 714 81 722T119 731T156 723T172 697V94H432Q447 94 455 80T464 47T456 14T432 0H113Q94 0 80 9T66 35Z" />
<glyph unicode="M" glyph-name="M" horiz-adv-x="687" d="M66 35V678Q66 705 81 718T119 731Q148 731 166 719T203 671L343 406L485 671Q503 706 521 718T568 731Q591 731 606 718T621 678V35Q621 19 606 10T568 0Q547 0 531 9T515 35V515L381 267Q366 243 342
243T306 267L172 521V35Q172 19 157 10T119 0Q98 0 82 9T66 35Z" />
<glyph unicode="N" glyph-name="N" horiz-adv-x="593" d="M66 35V696Q66 731 119 731Q147 731 164 719T199 671L421 238V697Q421 714 436 722T474 731T511 723T527 697V35Q527 19 512 10T474 0Q432 0 411 39L172 494V35Q172 19 157 10T119 0Q98 0 82 9T66 35Z" />
<glyph unicode="O" glyph-name="O" horiz-adv-x="566" d="M59 217V508Q59 623 120 677T283 731T446 677T508 508V217Q508 102 447 48T283 -6T120 48T59 217ZM165 217Q165 88 283 88Q340 88 371 120T402 217V508Q402 573 371 605T283 637Q165 637 165 508V217Z" />
<glyph unicode="P" glyph-name="P" horiz-adv-x="545" d="M66 35V697Q66 711 77 721T107 731H302Q402 731 461 678T521 511V503Q521 389 460 336T296 282H172V35Q172 19 157 10T119 0Q98 0 82 9T66 35ZM172 366H296Q353 366 384 398T415 496V508Q415 573 384 605T296
637H172V366Z" />
<glyph unicode="Q" glyph-name="Q" horiz-adv-x="566" d="M59 217V508Q59 624 120 677T283 731T446 678T508 508V217Q508 112 457 58T319 -4V-74Q319 -90 309 -99T283 -109Q269 -109 259 -100T248 -74V-4Q161 4 110 57T59 217ZM165 217Q165 111 248 94V155Q248
189 283 189Q298 189 308 181T319 155V95Q402 113 402 217V508Q402 573 371 605T283 637Q165 637 165 508V217Z" />
<glyph unicode="R" glyph-name="R" horiz-adv-x="559" d="M66 35V697Q66 711 76 721T101 731H291Q521 731 521 527Q521 442 483 394T380 329L520 66Q524 59 524 51Q524 31 504 14T460 -3Q434 -3 418 28L272 314H171V35Q171 19 156 10T118 0Q97 0 82 9T66 35ZM171
399H291Q415 399 415 518T291 637H171V399Z" />
<glyph unicode="S" glyph-name="S" horiz-adv-x="512" d="M29 110Q29 129 43 148T75 167Q86 167 101 155T132 128T177 101T246 88Q303 88 337 115T372 194Q372 242 339 274T258 325T162 366T81 432T47 542Q47 595 67 634T123 694T196 724T278 734Q305 734 334
731T393 719T441 696T460 662T448 624T416 605Q406 605 389 614T344 633T278 643Q221 643 187 621T153 552Q153 522 171 501T217 465T281 438T350 406T413 365T460 300T478 205Q478 101 416 47T250 -8Q158 -8 94 30T29 110Z" />
<glyph unicode="T" glyph-name="T" horiz-adv-x="513" d="M14 683Q14 702 23 716T49 731H464Q481 731 490 717T499 684Q499 663 490 649T464 634H310V35Q310 19 294 10T257 0Q235 0 220 9T204 35V634H49Q33 634 24 648T14 683Z" />
<glyph unicode="U" glyph-name="U" horiz-adv-x="583" d="M63 217V697Q63 714 78 722T116 731T153 723T169 697V217Q169 152 201 120T291 88Q414 88 414 217V697Q414 714 429 722T467 731T504 723T520 697V217Q520 102 458 48T291 -6Q188 -6 126 48T63 217Z" />
<glyph unicode="V" glyph-name="V" horiz-adv-x="561" d="M13 687Q13 705 34 718T79 731Q109 731 116 709L281 139L445 709Q452 731 481 731Q505 731 526 718T548 687Q548 684 546 678L348 30Q343 13 324 4T281 -6Q226 -6 214 30L14 678Q13 681 13 687Z" />
<glyph unicode="W" glyph-name="W" horiz-adv-x="847" d="M14 688Q14 706 35 718T80 731Q111 731 117 709L281 139L371 497Q378 528 424 528Q468 528 476 497L567 139L730 709Q736 731 767 731Q791 731 812 719T833 688Q833 681 832 678L634 30Q628 13 609 4T566
-6T524 3T500 30L424 332L348 30Q344 13 325 4T281 -6T238 3T214 30L15 678Q14 681 14 688Z" />
<glyph unicode="X" glyph-name="X" horiz-adv-x="533" d="M18 49Q18 58 24 70L197 366L29 660Q21 674 21 686Q21 706 42 720T88 734Q112 734 128 704L266 448L406 704Q420 734 446 734Q470 734 491 720T512 686Q512 674 504 660L336 366L509 70Q516 56 516 49Q516
28 494 13T447 -3Q426 -3 414 21L266 287L120 21Q106 -3 86 -3Q63 -3 41 12T18 49Z" />
<glyph unicode="Y" glyph-name="Y" horiz-adv-x="558" d="M13 687Q13 705 35 718T80 731Q102 731 115 707L280 390L444 707Q456 731 479 731T523 718T545 687Q545 678 542 672L335 299Q333 293 333 288V35Q333 19 317 10T280 0Q258 0 243 9T227 35V288Q227 290
224 299L17 672Q13 680 13 687Z" />
<glyph unicode="Z" glyph-name="Z" horiz-adv-x="508" d="M18 31Q18 50 29 68L339 637H68Q52 637 43 650T33 684Q33 703 42 717T68 731H441Q475 731 475 701Q475 683 463 662L153 94H456Q472 94 481 80T491 47T482 15T456 0H51Q18 0 18 31Z" />
<glyph unicode="[" glyph-name="bracketleft" horiz-adv-x="328" d="M60 14V733Q60 749 74 758T108 768H275Q291 768 300 754T310 722Q310 702 300 688T275 674H166V73H275Q290 73 300 59T310 25Q310 7 301 -7T275 -21H108Q89 -21 75 -12T60 14Z" />
<glyph unicode="\" glyph-name="backslash" horiz-adv-x="362" d="M21 717Q21 732 33 743T63 755Q86 755 95 733L340 48Q341 44 341 37Q341 22 330 11T302 -1Q276 -1 268 23L24 705Q21 711 21 717Z" />
<glyph unicode="]" glyph-name="bracketright" horiz-adv-x="327" d="M18 25Q18 45 27 59T52 73H161V674H52Q37 674 28 688T18 722Q18 740 27 754T52 768H220Q239 768 253 759T267 733V14Q267 -2 253 -11T220 -21H52Q36 -21 27 -7T18 25Z" />
<glyph unicode="^" glyph-name="asciicircum" horiz-adv-x="279" d="M0 617Q0 638 18 648L122 704Q132 709 139 709Q148 709 156 704L260 649Q279 637 279 616Q279 603 272 593T253 582Q251 582 247 583Q245 585 243 585L139 641L35 585Q30 582 26 582Q15 582
8 592T0 617Z" />
<glyph unicode="_" glyph-name="underscore" horiz-adv-x="324" d="M-32 -64T-32 -45T-23 -13T2 0H322Q336 0 347 -13T358 -45Q358 -64 347 -76T322 -89H2Q-13 -89 -22 -77Z" />
<glyph unicode="`" glyph-name="grave" horiz-adv-x="184" d="M0 668Q0 683 10 696T34 709Q37 709 45 707L169 644Q184 636 184 618Q184 603 174 590T150 577Q143 577 137 580L16 641Q0 648 0 668Z" />
<glyph unicode="a" glyph-name="a" horiz-adv-x="460" d="M25 124Q25 204 85 235T259 267H303V285Q303 329 279 361T204 393Q161 393 129 378T93 363Q76 363 66 379T55 416Q55 442 103 461T206 480Q309 480 358 425T408 286V35Q408 21 394 11T357 0Q337 0 323
10T309 35V70Q242 -8 158 -8Q100 -8 63 26T25 124ZM131 137Q131 105 149 89T196 72Q234 72 268 104T303 172V209H278Q233 209 205 205T154 184T131 137Z" />
<glyph unicode="b" glyph-name="b" horiz-adv-x="506" d="M56 35V722Q56 737 70 746T107 756T145 747T161 722V404Q178 436 212 458T290 480Q364 480 416 422T469 283V191Q469 113 416 53T293 -8Q248 -8 210 15T155 70V35Q155 22 141 11T107 0Q85 0 71 11T56 35ZM161
168Q161 146 192 116T263 85Q304 85 334 117T364 191V283Q364 323 334 355T262 387Q223 387 192 358T161 283V168Z" />
<glyph unicode="c" glyph-name="c" horiz-adv-x="426" d="M39 191V281Q39 370 91 425T246 480Q311 480 355 458T399 407Q399 390 387 373T357 356Q352 356 322 371T254 387Q144 387 144 281V191Q144 85 255 85Q293 85 323 101T360 118Q380 118 392 102T405 68Q405
40 359 16T247 -8Q143 -8 91 46T39 191Z" />
<glyph unicode="d" glyph-name="d" horiz-adv-x="507" d="M37 191V283Q37 364 89 422T216 480Q260 480 294 458T346 404V722Q346 737 361 746T399 756T436 747T451 722V35Q451 22 436 11T399 0Q380 0 366 11T351 35V70Q335 38 297 15T213 -8Q143 -8 90 52T37 191ZM142
191Q142 150 172 118T243 85Q282 85 314 115T346 168V283Q346 329 315 358T244 387Q203 387 173 355T142 283V191Z" />
<glyph unicode="e" glyph-name="e" horiz-adv-x="474" d="M37 191V286Q37 365 98 422T245 480Q327 480 385 428T444 295Q444 265 437 247T415 221T387 211T353 209H142V186Q142 136 178 107T272 77Q313 77 349 96T394 115Q411 115 423 99T435 68Q435 43 387 18T269
-8Q167 -8 102 47T37 191ZM142 274H308Q330 274 337 280T345 304Q345 344 316 372T244 400Q202 400 172 374T142 306V274Z" />
<glyph unicode="f" glyph-name="f" horiz-adv-x="328" d="M56 34V565Q56 645 108 700T233 756H279Q298 756 309 743T320 711T309 680T279 666H253Q213 666 187 640T161 575V474H291Q304 474 312 463T320 435T312 408T291 396H161V34Q161 19 145 10T107 0T71 9T56 34Z" />
<glyph unicode="g" glyph-name="g" horiz-adv-x="463" d="M19 -87Q19 -17 96 20Q49 40 49 86Q49 130 99 162Q40 208 40 288V316Q40 388 91 434T226 480Q296 480 342 446Q371 513 407 513Q426 513 438 502T450 477Q450 461 433 452Q401 438 383 412Q415 372 415
316V288Q415 216 362 169T226 122Q187 122 157 134Q138 121 138 106Q138 86 169 77T245 63T334 49T410 8T442 -74Q442 -149 383 -187T232 -225T80 -188T19 -87ZM118 -76Q118 -112 149 -133T231 -155Q280 -155 310 -134T340 -77Q340 -54 326 -39T285 -16T238 -6T185
-1Q118 -26 118 -76ZM142 289Q142 245 165 217T228 189Q267 189 290 216T313 288V316Q313 358 290 385T227 413Q188 413 165 386T142 316V289Z" />
<glyph unicode="h" glyph-name="h" horiz-adv-x="514" d="M56 35V722Q56 737 70 746T108 756Q130 756 145 747T161 722V404Q177 436 210 458T289 480Q360 480 411 422T463 283V35Q463 19 447 10T410 0Q390 0 374 9T358 35V283Q358 323 328 355T257 387Q219 387
190 359T161 283V35Q161 22 145 11T108 0Q86 0 71 11T56 35Z" />
<glyph unicode="i" glyph-name="i" horiz-adv-x="215" d="M46 648Q46 671 64 687T107 703T150 687T168 648Q168 626 150 610T107 593T64 609T46 648ZM55 35V440Q55 455 69 464T107 474T145 465T160 440V35Q160 22 145 11T107 0T70 11T55 35Z" />
<glyph unicode="j" glyph-name="j" horiz-adv-x="215" d="M-38 -181Q-38 -161 -26 -148T3 -135Q35 -135 45 -111T55 -36V440Q55 455 69 464T107 474T145 465T160 440V-36Q160 -123 124 -174T17 -225Q-38 -225 -38 -181ZM46 648Q46 671 64 687T107 703T150 687T168
648Q168 626 150 610T107 593T64 609T46 648Z" />
<glyph unicode="k" glyph-name="k" horiz-adv-x="480" d="M56 35V722Q56 737 70 746T107 756T145 747T161 722V277L370 469Q379 478 392 478Q409 478 426 462T443 428Q443 415 434 406L305 291L462 65Q468 56 468 47Q468 29 448 12T409 -6Q392 -6 381 9L234 226L161
160V35Q161 22 145 11T107 0T71 11T56 35Z" />
<glyph unicode="l" glyph-name="l" horiz-adv-x="233" d="M64 35V722Q64 737 78 746T116 756Q138 756 153 747T169 722V35Q169 22 153 11T116 0Q94 0 79 11T64 35Z" />
<glyph unicode="m" glyph-name="m" horiz-adv-x="794" d="M55 35V440Q55 455 69 464T107 474Q126 474 140 465T154 440V404Q197 480 287 480Q331 480 365 453T418 380Q443 429 483 454T569 480Q640 480 691 427T743 283V35Q743 22 727 11T690 0Q670 0 654 11T638
35V283Q638 332 610 360T545 388T480 360T451 285V34Q451 17 436 9T398 0Q378 0 362 8T346 34V284Q346 329 319 358T253 387T188 359T160 283V35Q160 22 144 11T107 0Q85 0 70 11T55 35Z" />
<glyph unicode="n" glyph-name="n" horiz-adv-x="513" d="M55 35V440Q55 455 69 464T107 474Q127 474 140 465T154 440V404Q170 436 205 458T288 480Q359 480 410 422T462 283V35Q462 19 447 10T409 0Q389 0 373 9T357 35V283Q357 323 327 355T256 387Q218 387
189 359T160 283V35Q160 22 144 11T107 0Q85 0 70 11T55 35Z" />
<glyph unicode="o" glyph-name="o" horiz-adv-x="487" d="M36 191V283Q36 362 97 421T243 480Q326 480 388 422T450 283V191Q450 113 388 53T243 -8Q160 -8 98 52T36 191ZM141 191Q141 150 171 118T243 85Q284 85 314 117T345 191V283Q345 323 315 355T243 387Q201
387 171 355T141 283V191Z" />
<glyph unicode="p" glyph-name="p" horiz-adv-x="506" d="M56 -190V440Q56 455 70 464T106 474T141 465T155 440V404Q173 436 208 458T289 480Q364 480 416 422T469 283V191Q469 113 416 53T293 -8Q250 -8 214 15T161 70V-190Q161 -204 145 -214T107 -225T71 -215T56
-190ZM161 168Q161 146 191 116T262 85T333 117T364 191V283Q364 323 333 355T260 387Q221 387 191 359T161 283V168Z" />
<glyph unicode="q" glyph-name="q" horiz-adv-x="507" d="M37 191V283Q37 364 89 422T217 480Q263 480 298 458T351 404V440Q351 455 365 464T400 474T436 465T451 440V-190Q451 -204 436 -214T399 -225T362 -215T346 -190V70Q329 38 293 15T213 -8Q143 -8 90
52T37 191ZM142 191Q142 150 173 118T244 85T315 115T346 168V283Q346 329 316 358T246 387Q204 387 173 355T142 283V191Z" />
<glyph unicode="r" glyph-name="r" horiz-adv-x="360" d="M55 35V440Q55 455 69 464T106 474Q126 474 140 465T154 440V396Q171 431 205 455T281 480H313Q329 480 341 467T353 434T341 401T313 387H281Q233 387 197 346T160 240V35Q160 22 144 11T106 0T70 11T55 35Z" />
<glyph unicode="s" glyph-name="s" horiz-adv-x="404" d="M27 72Q27 87 37 103T63 119Q72 119 88 108T131 85T196 73Q281 73 281 127Q281 156 256 172T196 198T125 220T65 261T40 336Q40 395 82 437T211 480Q268 480 314 463T361 421Q361 407 350 389T321 370Q315
370 280 384T213 399Q173 399 153 381T132 341Q132 317 157 303T218 280T289 258T350 213T375 131Q375 66 329 29T199 -8Q128 -8 78 17T27 72Z" />
<glyph unicode="t" glyph-name="t" horiz-adv-x="329" d="M54 156V657Q54 671 70 681T106 691T142 681T159 657V474H281Q294 474 302 463T310 435T302 408T281 396H159V156Q159 120 174 105T229 90H264Q285 90 297 77T309 45T297 13T264 0H229Q54 0 54 156Z" />
<glyph unicode="u" glyph-name="u" horiz-adv-x="515" d="M51 189V439Q51 453 67 463T104 474T140 464T156 439V189Q156 149 186 117T258 85Q300 85 330 116T360 189V440Q360 454 375 464T413 474T449 464T464 440V189Q464 110 403 51T258 -8T113 51T51 189Z" />
<glyph unicode="v" glyph-name="v" horiz-adv-x="459" d="M9 433Q9 451 32 464T78 478Q103 478 110 459L229 143L348 457Q356 478 380 478Q399 478 424 464T449 433Q449 426 445 416L277 11Q268 -10 229 -10T181 11L14 416Q9 426 9 433Z" />
<glyph unicode="w" glyph-name="w" horiz-adv-x="684" d="M10 434Q10 452 32 465T77 478Q102 478 109 459L220 148L305 424Q312 447 342 447T379 424L463 146L575 459Q581 478 606 478Q628 478 650 465T673 433Q673 425 669 417L514 11Q506 -10 472 -10T429 10L342
268L256 13Q247 -10 211 -10Q178 -10 169 13L14 417Q10 429 10 434Z" />
<glyph unicode="x" glyph-name="x" horiz-adv-x="444" d="M20 44Q20 54 27 63L151 241L33 409Q26 418 26 427Q26 445 49 462T95 480Q113 480 120 468L222 308L324 467Q332 480 350 480Q370 480 394 463T418 427Q418 419 411 409L292 240L417 63Q424 54 424 44Q424
27 401 10T357 -8Q338 -8 330 4L222 169L114 4Q105 -8 86 -8T44 9T20 44Z" />
<glyph unicode="y" glyph-name="y" horiz-adv-x="457" d="M10 -225T10 -180T39 -135Q84 -135 128 -92T182 29L14 417Q10 422 10 431Q10 450 33 465T79 481Q104 481 111 462L237 137L345 462Q354 481 375 481T420 466T445 429Q445 420 443 417L295 26L278 -19Q272
-33 260 -62T238 -106L214 -143Q199 -166 184 -177T150 -201T108 -219T59 -225Q10 -225 10 -180Z" />
<glyph unicode="z" glyph-name="z" horiz-adv-x="425" d="M23 38Q23 55 41 80L255 387H65Q52 387 42 400T32 431T41 461T65 474H354Q369 474 379 465T390 437Q390 416 374 394L159 87H371Q385 87 395 75T405 43Q405 25 396 13T371 0H60Q42 0 33 11T23 38Z" />
<glyph unicode="{" glyph-name="braceleft" horiz-adv-x="343" d="M25 386Q25 404 34 413T55 424T75 431T85 449Q85 458 76 520T67 599Q67 665 129 716T268 768Q298 768 312 755T326 721Q326 704 317 691T291 677Q248 677 211 652T173 585Q173 571 182 510T191
438Q191 420 179 404T155 384Q166 381 178 366T191 331Q191 319 182 241T173 149Q173 120 195 102T242 77T291 71Q309 71 317 57T326 26Q326 -20 267 -20Q188 -20 128 25T67 138Q67 157 76 234T85 320Q85 332 76 338T55 346T35 357T25 386Z" />
<glyph unicode="|" glyph-name="bar" horiz-adv-x="226" d="M60 14V734Q60 749 75 758T113 768Q135 768 150 759T166 734V14Q166 0 150 -10T113 -21Q90 -21 75 -11T60 14Z" />
<glyph unicode="}" glyph-name="braceright" horiz-adv-x="343" d="M17 26Q17 42 25 56T52 71Q76 71 100 77T147 101T170 149Q170 163 161 241T152 331Q152 350 164 365T188 384Q177 388 165 404T152 438Q152 448 161 509T170 585Q170 626 133 651T52 677Q36 677
27 690T17 721Q17 741 31 754T75 768Q152 768 214 717T276 599Q276 582 267 520T258 449Q258 437 267 432T288 425T308 414T318 386Q318 367 309 358T288 347T268 339T258 320Q258 311 267 234T276 138Q276 70 216 25T76 -20Q17 -20 17 26Z" />
<glyph unicode="~" glyph-name="asciitilde" horiz-adv-x="408" d="M39 245Q39 279 68 294T126 309Q154 309 195 294T264 278Q288 278 311 290T341 303Q355 303 362 291T369 269Q369 233 341 219T284 205Q252 205 211 220T145 236Q121 236 98 223T67 209Q53 209
46 221T39 245Z" />
</font>
</defs>
</svg>
