<?xml version="1.0" standalone="no"?>
<!DOCTYPE svg PUBLIC "-//W3C//DTD SVG 1.1//EN" "http://www.w3.org/Graphics/SVG/1.1/DTD/svg11.dtd" >
<svg>
<metadata>
Created by FontForge 20090914 at Mon Oct 28 12:18:29 2013
 By www-data
Design and data by The Monotype Corporation. &#194;&#169; 1993. Microsoft Corporation. all rights reserved.
</metadata>
<defs>
<font id="Rockwell-Bold" horiz-adv-x="725" >
  <font-face 
    font-family="Rockwell"
    font-weight="700"
    font-stretch="normal"
    units-per-em="2048"
    panose-1="2 6 8 3 3 5 5 2 4 3"
    ascent="1638"
    descent="-410"
    x-height="968"
    cap-height="1391"
    bbox="-252 -559.001 2298 1930"
    underline-thickness="140"
    underline-position="-90"
    unicode-range="U+0020-U+F002"
  />
<missing-glyph horiz-adv-x="1536" 
d="M256 0v1280h1024v-1280h-1024zM288 32h960v1216h-960v-1216z" />
    <glyph glyph-name=".notdef" horiz-adv-x="1536" 
d="M256 0v1280h1024v-1280h-1024zM288 32h960v1216h-960v-1216z" />
    <glyph glyph-name="space" unicode=" " horiz-adv-x="512" 
 />
    <glyph glyph-name="exclam" unicode="!" 
d="M288 485l-86 525v381h309v-381l-79 -525h-144zM195 0v335h335v-335h-335z" />
    <glyph glyph-name="quotedbl" unicode="&#x22;" horiz-adv-x="1130" 
d="M349 749h-47.999l-105 383c-13.333 47.333 -20 90 -20 128c0 44.667 14.167 81.667 42.5 111s63.166 44 104.499 44c42.667 0 78.167 -14.833 106.5 -44.5s42.5 -62.5 42.5 -98.5c0 -32 -8 -78.667 -24 -140zM831.001 749h-47.999l-105 383
c-12.667 47.333 -19 90 -19 128c0 44.667 14.167 81.667 42.5 111s63.166 44 104.499 44c42.667 0 78 -14.833 106 -44.5s42 -62.5 42 -98.5c0 -32 -8 -78.667 -24 -140z" />
    <glyph glyph-name="numbersign" unicode="#" horiz-adv-x="1368" 
d="M378 1052l78 372h216l-79 -372h329l79 372h215l-78 -372h156v-216h-201l-58 -275h259v-216h-304l-78 -372h-216l78 372h-329l-78 -372h-216l78 372h-155v216h201l57 275h-258v216h304zM877 836h-329l-58 -275h329z" />
    <glyph glyph-name="dollar" unicode="$" horiz-adv-x="1153" 
d="M617 -179l-141.002 -0.00292969v175c-104.667 14 -192.167 50.833 -262.5 110.5s-110.5 160.167 -120.5 301.5h247c-0.666992 -7.33301 -1 -12.666 -1 -15.999c0 -46.667 12 -87.334 36 -122.001s57.667 -57.667 101 -69v424
c-141.333 65.333 -236.666 129.833 -285.999 193.5s-74 133.5 -74 209.5c0 92 33 170.667 99 236s153 102.333 261 111v52h141v-52c116 -9.33301 208.333 -46.666 277 -111.999s103 -150.666 103 -255.999h-246c-11.333 104.667 -56 161.334 -134 170.001v-333l136 -61
c76.667 -34.667 137.834 -74.167 183.501 -118.5s77.334 -90.5 95.001 -138.5s26.5 -96.667 26.5 -146c0 -107.333 -39.833 -197.333 -119.5 -270s-186.834 -110.667 -321.501 -114v-175zM475.998 1176c-75.333 -14 -113 -53.333 -113 -118
c0 -55.333 37.667 -105.333 113 -150v268zM616.998 191.997c57.333 -0.666992 104.5 15.333 141.5 48s55.5 71.667 55.5 117c0 87.333 -65.667 156.333 -197 207v-372z" />
    <glyph glyph-name="percent" unicode="%" horiz-adv-x="1898" 
d="M431 671c-196 0 -294 123.999 -294 371.999s98.333 372 295 372c96.667 0 169.667 -32.167 219 -96.5s74 -156.166 74 -275.499c0 -248 -98 -372 -294 -372zM429 798.999c56.667 0 85 81 85 243c0 163.333 -27.667 245 -83 245s-83 -81 -83 -243
c0 -163.333 27 -245 81 -245zM356 -0.000976562l1007 1391h179l-1007 -1391h-179zM1464 -18.001c-196 0 -294 124.001 -294 372.001s98.333 372 295 372c96.667 0 169.667 -32.333 219 -97s74 -156.334 74 -275.001c0 -248 -98 -372 -294 -372zM1462 110c56 0 84 81 84 243
c0 163.333 -27.333 245 -82 245c-55.333 0 -83 -81 -83 -243c0 -163.333 27 -245 81 -245z" />
    <glyph glyph-name="ampersand" unicode="&#x26;" horiz-adv-x="1642" 
d="M1559 223v-223h-412l-126 154c-132.667 -118.667 -282.334 -178 -449.001 -178c-151.333 0 -271.833 42.333 -361.5 127s-134.5 184.667 -134.5 300c0 88.667 28.5 168.667 85.5 240s156.5 141 298.5 209c-72.667 84 -109 168.333 -109 253
c0 98.667 36.833 174.667 110.5 228s163.167 80 268.5 80c106.667 0 195.334 -26.667 266.001 -80s106 -121.333 106 -204c0 -128.667 -80.667 -234 -242 -316l198 -251c74.667 101.333 132 197.666 172 288.999h329v-223h-170
c-50.667 -105.333 -106.667 -192.666 -168 -261.999l114 -143h224zM721 988c89.333 40 133.999 86.333 133.999 139c0 27.333 -11.167 51 -33.5 71s-49.166 30 -80.499 30c-30 0 -56.167 -8.5 -78.5 -25.5s-33.5 -37.833 -33.5 -62.5c0 -25.333 30.667 -76 92 -152z
M600.999 681c-138 -57.333 -207.001 -135.001 -207.001 -233.001c0 -55.333 21.833 -104.166 65.5 -146.499s99.834 -63.5 168.501 -63.5c80 0 159.333 36.333 238 109z" />
    <glyph glyph-name="quotesingle" unicode="'" horiz-adv-x="575" 
d="M313 749h-47.999l-105 383c-13.333 47.333 -20 90 -20 128c0 44.667 14.167 81.667 42.5 111s63.166 44 104.499 44c42.667 0 78.167 -14.833 106.5 -44.5s42.5 -62.5 42.5 -98.5c0 -32 -8 -78.667 -24 -140z" />
    <glyph glyph-name="parenleft" unicode="(" horiz-adv-x="705" 
d="M648 1410l0.000976562 -199.003c-86.667 -45.333 -147.834 -124.166 -183.501 -236.499s-53.5 -274.833 -53.5 -487.5c0 -216.667 18 -380.5 54 -491.5s97 -188.833 183 -233.5v-199c-155.333 56 -286.5 162.833 -393.5 320.5s-160.5 358.834 -160.5 603.501
c0 248.667 54 450.834 162 606.501s238.667 261.167 392 316.5z" />
    <glyph glyph-name="parenright" unicode=")" horiz-adv-x="705" 
d="M58 -437l-0.000976562 199.002c86.667 45.333 147.834 124.166 183.501 236.499s53.5 275.166 53.5 488.499c0 216 -18 379.5 -54 490.5s-97 188.833 -183 233.5v199c155.333 -56 286.5 -162.833 393.5 -320.5s160.5 -358.5 160.5 -602.5s-53.333 -445 -160 -603
s-238 -265 -394 -321z" />
    <glyph glyph-name="asterisk" unicode="*" horiz-adv-x="1174" 
d="M986 558l-199 -139.001l-105 139c-1.33301 66.667 -33.333 147 -96 241c-56 -88.667 -84 -169 -84 -241l-97 -139l-201 139l98 140c64 18.667 133.667 72.334 209 161.001c-7.33301 0.666992 -25.666 4 -54.999 10c-44 8.66699 -82 13 -114 13
c-34 0 -65.333 -3.66699 -94 -11l-168 56l81 234l167 -55c32 -50 101.333 -100.333 208 -151c-12 120.667 -36 209 -72 265v171h244v-171c-47.333 -71.333 -71 -159.666 -71 -264.999c123.333 59.333 196.333 109.666 219 150.999l161 55l78 -234l-155 -56
c-36.667 10 -71.334 15 -104.001 15c-38 0 -93.667 -9 -167 -27c66.667 -81.333 138 -135 214 -161z" />
    <glyph glyph-name="plus" unicode="+" horiz-adv-x="1368" 
d="M122 823h438v438h248v-438h438v-249h-438v-438h-248v438h-438v249z" />
    <glyph glyph-name="comma" unicode="," 
d="M196 -366l0.000976562 150c109.333 11.333 164 77.333 164 198v18h-164v335h334v-311c0 -100 -10.833 -177 -32.5 -231s-58.334 -94 -110.001 -120s-115.5 -39 -191.5 -39z" />
    <glyph glyph-name="hyphen" unicode="-" horiz-adv-x="705" 
d="M73 349v270h559v-270h-559z" />
    <glyph glyph-name="hyphen" unicode="&#xad;" horiz-adv-x="705" 
d="M73 349v270h559v-270h-559z" />
    <glyph glyph-name="period" unicode="." 
d="M195 0v335h335v-335h-335z" />
    <glyph glyph-name="slash" unicode="/" horiz-adv-x="1040" 
d="M748 1415h284l-738 -1432h-285z" />
    <glyph glyph-name="zero" unicode="0" horiz-adv-x="1130" 
d="M565 -18c-155.333 0 -273.833 61.501 -355.5 184.501s-122.5 300.5 -122.5 532.5c0 227.333 39.833 403.5 119.5 528.5s199.167 187.5 358.5 187.5c158.667 0 278 -62.167 358 -186.5s120 -300.833 120 -529.5c0 -232.667 -41 -410.334 -123 -533.001
s-200.333 -184 -355 -184zM563 208.001c71.333 0 116.333 56.667 135 170s28 220.333 28 321c0 161.333 -12.5 283.5 -37.5 366.5s-66.167 124.5 -123.5 124.5c-58 0 -99.333 -42.5 -124 -127.5s-37 -206.5 -37 -364.5c0 -161.333 12.5 -283.333 37.5 -366
s65.5 -124 121.5 -124z" />
    <glyph glyph-name="one" unicode="1" horiz-adv-x="1130" 
d="M233 0v223h192v945h-204v223h510v-1168h182v-223h-680z" />
    <glyph glyph-name="two" unicode="2" horiz-adv-x="1130" 
d="M1001 404l-12.0029 -404.002h-891c0 121.333 9.83301 215.333 29.5 282s52 131.334 97 194.001s107.833 131.334 188.5 206.001c106 97.333 175.833 168.833 209.5 214.5s50.5 97.167 50.5 154.5c0 42.667 -12.667 77.834 -38 105.501s-57 41.5 -95 41.5
c-55.333 0 -96.166 -22.833 -122.499 -68.5s-41.5 -120.167 -45.5 -223.5l-255 12c0 134 20 235 60 303s94.333 117.333 163 148s143.334 46 224.001 46c132.667 0 236.834 -36.667 312.501 -110s113.5 -164.666 113.5 -273.999c0 -58.667 -11.5 -112.834 -34.5 -162.501
s-52 -91.334 -87 -125.001s-96.833 -82.167 -185.5 -145.5c-133.333 -95.333 -217 -171 -251 -227s-54 -105.333 -60 -148h405v181h224z" />
    <glyph glyph-name="three" unicode="3" horiz-adv-x="1130" 
d="M73 425l268.001 21.998c3.33301 -163.333 64.666 -245 183.999 -245c54 0 98 19.667 132 59s51 89.333 51 150c0 59.333 -16.667 108.833 -50 148.5s-83.333 59.5 -150 59.5c-16 0 -36.667 -0.666992 -62 -2v234c79.333 0 137 17.833 173 53.5s54 79.167 54 130.5
c0 45.333 -13.667 82.5 -41 111.5s-63 43.5 -107 43.5c-98.667 0 -148 -61.333 -148 -184l-261 20c5.33301 126 47.5 222.333 126.5 289s179.167 100 300.5 100c136.667 0 242.834 -32.667 318.501 -98s113.5 -154.666 113.5 -267.999
c0 -147.333 -69.333 -252.666 -208 -315.999c172 -56 258 -166.667 258 -332c0 -131.333 -44.333 -234 -133 -308s-201.334 -111 -338.001 -111c-298 0 -458.333 147.667 -481 443z" />
    <glyph glyph-name="four" unicode="4" horiz-adv-x="1130" 
d="M1030 204v-203.999h-558v204h154v179h-511c-24 71.333 -48.667 130.666 -74 177.999l598 854h274v-842h135v-190h-135v-179h117zM626 573.001v485l-346 -485h346z" />
    <glyph glyph-name="five" unicode="5" horiz-adv-x="1130" 
d="M73 374l262.999 31c18 -133.333 79.333 -200 184 -200c60 0 106.167 20.167 138.5 60.5s48.5 97.5 48.5 171.5c0 164.667 -60.333 247 -181 247c-66.667 0 -122.334 -36.333 -167.001 -109l-223 111l41 705h781v-327h-203l-19 104h-358l-19 -334
c73.333 52.667 152.333 79 237 79c136 0 241.5 -44.167 316.5 -132.5s112.5 -195.833 112.5 -322.5c0 -135.333 -40.167 -248.5 -120.5 -339.5s-201.833 -136.5 -364.5 -136.5c-139.333 0 -247.666 35.333 -324.999 106s-124.666 166 -141.999 286z" />
    <glyph glyph-name="six" unicode="6" horiz-adv-x="1130" 
d="M1020 1045l-239 -21.999c-28 118 -82 177 -162 177c-64.667 0 -115 -36.833 -151 -110.5s-55 -170.167 -57 -289.5c64.667 61.333 146.667 92 246 92c107.333 0 197.666 -37 270.999 -111s110 -181.333 110 -322c0 -156.667 -39 -275.334 -117 -356.001
s-181.333 -121 -310 -121c-169.333 0 -295.166 56.5 -377.499 169.5s-123.5 290.5 -123.5 532.5c0 258.667 46.5 445.167 139.5 559.5s219.833 171.5 380.5 171.5c230.667 0 360.667 -123.333 390 -370zM411 604.001c3.33301 -154 21.499 -259.166 54.499 -315.499
s79.833 -84.5 140.5 -84.5c44.667 0 80.834 20 108.501 60s41.5 99.333 41.5 178c0 73.333 -16.5 128.666 -49.5 165.999s-73.5 56 -121.5 56c-59.333 0 -117.333 -20 -174 -60z" />
    <glyph glyph-name="seven" unicode="7" horiz-adv-x="1130" 
d="M864 223v-223h-671v223h176c6 136 44.333 298.5 115 487.5s149 343.5 235 463.5h-358v-195h-222v412h869v-171c-70 -83.333 -140.833 -229.833 -212.5 -439.5s-107.5 -395.5 -107.5 -557.5h176z" />
    <glyph glyph-name="eight" unicode="8" horiz-adv-x="1130" 
d="M811 730c162 -61.333 243 -176 243 -344c0 -123.333 -41.5 -221.5 -124.5 -294.5s-204.833 -109.5 -365.5 -109.5s-281.5 38.833 -362.5 116.5s-121.5 175.5 -121.5 293.5c0 163.333 82.667 276 248 338c-137.333 77.333 -206 184 -206 320
c0 108.667 39.833 196.667 119.5 264s188.5 101 326.5 101c142.667 0 252.5 -33.5 329.5 -100.5s115.5 -153.167 115.5 -258.5c0 -139.333 -67.333 -248 -202 -326zM730 1013c0 55.333 -13.999 100.167 -41.999 134.5s-68 51.5 -120 51.5c-48 0 -87.167 -16 -117.5 -48
s-45.5 -79 -45.5 -141c0 -52 14.5 -95.333 43.5 -130s68.833 -52 119.5 -52c49.333 0 88.666 17 117.999 51s44 78.667 44 134zM759.001 413.001c0 64.667 -17.498 117.5 -52.498 158.5s-80.833 61.5 -137.5 61.5c-54.667 0 -99.834 -20 -135.501 -60
s-53.5 -93.333 -53.5 -160c0 -66 17.667 -118.167 53 -156.5s80.666 -57.5 135.999 -57.5s100.833 19.167 136.5 57.5s53.5 90.5 53.5 156.5z" />
    <glyph glyph-name="nine" unicode="9" horiz-adv-x="1130" 
d="M115 356l236.999 22.998c28 -118.667 81.333 -178 160 -178c124 0 194.667 132 212 396c-73.333 -58 -159.666 -87 -258.999 -87c-103.333 0 -191.5 38.833 -264.5 116.5s-109.5 183.834 -109.5 318.501c0 136 39.333 248.333 118 337s188 133 328 133
c156 0 276 -55.167 360 -165.5s126 -293.166 126 -548.499c0 -479.333 -170.667 -719 -512 -719c-111.333 0 -202.833 31.5 -274.5 94.5s-112.167 156.167 -121.5 279.5zM723.999 796.998l-0.000976562 15.001c0 106.667 -16.833 197 -50.5 271s-85.167 111 -154.5 111
c-43.333 0 -78.5 -20.833 -105.5 -62.5s-40.5 -97.834 -40.5 -168.501c0 -65.333 14.333 -120 43 -164s72.667 -66 132 -66c54.667 0 113.334 21.333 176.001 64z" />
    <glyph glyph-name="colon" unicode=":" 
d="M195 635v333h335v-333h-335zM195 0v335h335v-335h-335z" />
    <glyph glyph-name="semicolon" unicode=";" 
d="M195 642v335h335v-335h-335zM195 -366l-0.000976562 150c109.333 11.333 164 77.333 164 198v18h-164v335h335v-311c0 -96 -10.333 -171.333 -31 -226s-56.667 -95.667 -108 -123s-116.666 -41 -195.999 -41z" />
    <glyph glyph-name="less" unicode="&#x3c;" horiz-adv-x="1368" 
d="M1246 120l-1124 466v225l1124 466v-265l-778 -313l778 -314v-265z" />
    <glyph glyph-name="equal" unicode="=" horiz-adv-x="1368" 
d="M122 1064h1124v-248h-1124v248zM122 581h1124v-248h-1124v248z" />
    <glyph glyph-name="greater" unicode="&#x3e;" horiz-adv-x="1368" 
d="M122 1277l1124 -466v-225l-1124 -466v265l778 314l-778 313v265z" />
    <glyph glyph-name="question" unicode="?" horiz-adv-x="1153" 
d="M596 481h-143.001l-29 368c33.333 -12 68 -18 104 -18c58.667 0 109.167 16 151.5 48s63.5 77.667 63.5 137c0 55.333 -18 99.833 -54 133.5s-81.333 50.5 -136 50.5c-59.333 0 -103.666 -15.667 -132.999 -47s-44 -71 -44 -119c0 -12 1.66699 -26 5 -42h-309
c0 70.667 13.833 136.334 41.5 197.001s81.667 113.5 162 158.5s179.5 67.5 297.5 67.5c159.333 0 280.5 -38.833 363.5 -116.5s124.5 -174.834 124.5 -291.501c0 -114.667 -37 -207 -111 -277s-166 -105 -276 -105c-10 0 -25 0.666992 -45 2zM354.999 0v335h335v-335h-335z
" />
    <glyph glyph-name="at" unicode="@" horiz-adv-x="2005" 
d="M1778 -1l213.001 0.00195312c-69.333 -144.667 -181.5 -255.667 -336.5 -333s-332.167 -116 -531.5 -116c-352.667 0 -617.667 83.833 -795 251.5s-266 387.5 -266 659.5c0 192.667 44.167 368 132.5 526s209 278.333 362 361s330.167 124 531.5 124
c255.333 0 460.833 -72.167 616.5 -216.5s233.5 -326.833 233.5 -547.5c0 -193.333 -63.667 -362.833 -191 -508.5s-282.333 -218.5 -465 -218.5c-104.667 0 -167 38 -187 114c-76.667 -76 -168.334 -114 -275.001 -114c-114 0 -206 39.333 -276 118s-105 181.667 -105 309
c0 160.667 50.667 310.167 152 448.5s230.333 207.5 387 207.5c120 0 208.333 -45 265 -135l25 111h264l-151 -717c-9.33301 -46 -14 -75.667 -14 -89c0 -32.667 13 -49 39 -49c32.667 0 77.167 21.5 133.5 64.5s106.833 106.167 151.5 189.5s67 174 67 272
c0 156.667 -57.333 292.167 -172 406.5s-282.667 171.5 -504 171.5c-162.667 0 -307.5 -32.333 -434.5 -97s-226 -165.834 -297 -303.501s-106.5 -283.834 -106.5 -438.501c0 -211.333 72.833 -383.5 218.5 -516.5s354.167 -199.5 625.5 -199.5
c323.333 0 553.333 88.333 690 265zM697.001 388.002c0 -66 16.666 -119.832 49.999 -161.499s76.333 -62.5 129 -62.5c94 0 169.5 52.167 226.5 156.5s85.5 216.166 85.5 335.499c0 61.333 -15.333 114.833 -46 160.5s-77 68.5 -139 68.5
c-91.333 0 -165.166 -49.5 -221.499 -148.5s-84.5 -215.167 -84.5 -348.5z" />
    <glyph glyph-name="A" unicode="A" horiz-adv-x="1430" 
d="M1432 235v-235h-684v235h178l-66 239h-361l-74 -239h186v-235h-616v235h172l271 921h-185v235h908v-235h-187l292 -921h166zM803 678l-116 419l-125 -419h241z" />
    <glyph glyph-name="B" unicode="B" horiz-adv-x="1430" 
d="M68 0v235.001h171v921h-171v235h635c140.667 0 245.334 -8.16699 314.001 -24.5s128 -56 178 -119s75 -136.833 75 -221.5c0 -135.333 -65.333 -231 -196 -287c166.667 -62 250 -173 250 -333c0 -92 -25.833 -170.833 -77.5 -236.5s-118.334 -110.334 -200.001 -134.001
s-196.167 -35.5 -343.5 -35.5h-635zM601 842.001h102c70.667 0 122.667 12 156 36s50 66.333 50 127c0 55.333 -16.167 94.333 -48.5 117s-88.833 34 -169.5 34h-90v-314zM601 235.001h102c92.667 0 157.334 13.333 194.001 40s55 73.667 55 141
c0 70.667 -19.833 120.167 -59.5 148.5s-102.834 42.5 -189.501 42.5h-102v-372z" />
    <glyph glyph-name="C" unicode="C" horiz-adv-x="1599" 
d="M1251 1391h235.001v-490h-235c-66.667 176 -182.334 264 -347.001 264c-136 0 -238.833 -46.333 -308.5 -139s-104.5 -203.667 -104.5 -333c0 -135.333 36.833 -244.833 110.5 -328.5s167.5 -125.5 281.5 -125.5c93.333 0 175 31.667 245 95s117.333 151.333 142 264
l274 -131c-104 -322.667 -333 -484 -687 -484c-250 0 -438.5 67.333 -565.5 202s-190.5 305 -190.5 511c0 146.667 33 275 99 385s154.833 192.833 266.5 248.5s234.167 83.5 367.5 83.5c166 0 305 -43.333 417 -130v108z" />
    <glyph glyph-name="D" unicode="D" horiz-adv-x="1642" 
d="M48 0l-0.00292969 235.003h211v921h-211v235h659c138.667 0 250.334 -8.5 335.001 -25.5s165.667 -54.667 243 -113s139.333 -136.5 186 -234.5s70 -206.667 70 -326c0 -96.667 -16.333 -188.834 -49 -276.501s-73.167 -158.334 -121.5 -212.001
s-106.166 -96.334 -173.499 -128.001s-129.166 -52.167 -185.499 -61.5s-143.5 -14 -261.5 -14h-702zM619.997 235.003h86.999c105.333 0 188.833 13.667 250.5 41s111.167 75.5 148.5 144.5s56 159.167 56 270.5c0 106 -18.833 196 -56.5 270s-88.667 125 -153 153
s-146.166 42 -245.499 42h-87v-921z" />
    <glyph glyph-name="E" unicode="E" horiz-adv-x="1366" 
d="M68 0v235h167v921h-167v235h1226v-441h-266v206h-431v-321h348v-235h-348v-365h431v208h266v-443h-1226z" />
    <glyph glyph-name="F" unicode="F" horiz-adv-x="1323" 
d="M58 0v235h199v921h-199v235h1245v-429h-266v194h-418v-322h301v-235h-301v-364h214v-235h-775z" />
    <glyph glyph-name="G" unicode="G" horiz-adv-x="1729" 
d="M982 467l-0.000976562 235.001h652c0 -168.667 -30.5 -302.334 -91.5 -401.001s-149.667 -176.334 -266 -233.001s-246.833 -85 -391.5 -85c-251.333 0 -444.166 67.333 -578.499 202s-201.5 305.667 -201.5 513c0 144 33.333 271.167 100 381.5
s156.334 193.5 269.001 249.5s235 84 367 84c186.667 0 332 -45.333 436 -136v114h236v-494h-236c-24.667 83.333 -73.667 149 -147 197s-152 72 -236 72c-110.667 0 -205 -39.167 -283 -117.5s-117 -186.833 -117 -325.5c0 -158.667 39.667 -279.5 119 -362.5
s176 -124.5 290 -124.5c84 0 153.667 20.333 209 61s93.666 97.334 114.999 170.001h-245z" />
    <glyph glyph-name="H" unicode="H" horiz-adv-x="1556" 
d="M63 0v235h174v921h-174v235h672v-235h-146v-305h379v305h-141v235h668v-235h-175v-921h175v-235h-668v235h141v380h-379v-380h146v-235h-672z" />
    <glyph glyph-name="I" unicode="I" horiz-adv-x="874" 
d="M45 0v235h211v921h-211v235h786v-235h-213v-921h213v-235h-786z" />
    <glyph glyph-name="J" unicode="J" horiz-adv-x="831" 
d="M-14 -403l0.000976562 252c39.333 -11.333 74 -17 104 -17c55.333 0 95 15.333 119 46s36 84.667 36 162v1116h-207v235h758v-235h-189v-1129c0 -154.667 -37.5 -269.167 -112.5 -343.5s-174.833 -111.5 -299.5 -111.5c-62.667 0 -132.334 8.33301 -209.001 25z" />
    <glyph glyph-name="K" unicode="K" horiz-adv-x="1599" 
d="M41 0v235h187v921h-187v235h725v-235h-176v-921h162v-235h-711zM860 0v235h162l-421 495l454 426h-166v235h679v-235h-170l-392 -384l456 -537h144v-235h-746z" />
    <glyph glyph-name="L" unicode="L" horiz-adv-x="1323" 
d="M57 0v235h199v921h-199v235h764v-235h-203v-921h411v430h271v-665h-1243z" />
    <glyph glyph-name="M" unicode="M" horiz-adv-x="2134" 
d="M56 0v235h180v921h-180v235h697l306 -816l307 816h711v-235h-180v-921h180v-235h-700v235h168v921h-33l-431 -1156h-150l-436 1156h-33v-921h182v-235h-588z" />
    <glyph glyph-name="N" unicode="N" horiz-adv-x="1622" 
d="M55 0v235h186v921h-186v235h583l513 -868v633h-181v235h624v-235h-195v-1166h-310l-600 1031v-786h175v-235h-609z" />
    <glyph glyph-name="O" unicode="O" horiz-adv-x="1749" 
d="M874 1413c240 0 428.833 -69.333 566.5 -208s206.5 -307.667 206.5 -507c0 -200 -69 -369.167 -207 -507.5s-326.667 -207.5 -566 -207.5c-248.667 0 -439.667 71.167 -573 213.5s-200 309.5 -200 501.5c0 198.667 68.5 367.5 205.5 506.5s326.167 208.5 567.5 208.5z
M874 1159c-106.667 0 -197.169 -39.999 -271.502 -119.999s-111.5 -197.333 -111.5 -352c0 -136.667 36.667 -246 110 -328s164.333 -123 273 -123c106.667 0 197.334 40.167 272.001 120.5s112 196.166 112 347.499c0 135.333 -35.667 245 -107 329
s-163.666 126 -276.999 126z" />
    <glyph glyph-name="P" unicode="P" horiz-adv-x="1366" 
d="M794 235l0.000976562 -235h-733v235h177v921h-177v235h733c170.667 0 302.5 -40 395.5 -120s139.5 -187.667 139.5 -323c0 -77.333 -16.333 -147.5 -49 -210.5s-74.5 -111.333 -125.5 -145s-109.333 -56.667 -175 -69s-147.834 -18.5 -246.501 -18.5h-133v-270h194z
M600.001 737l54 -0.000976562c124 0 203.833 20.167 239.5 60.5s53.5 90.5 53.5 150.5c0 50.667 -12.333 93.834 -37 129.501s-53 57.667 -85 66s-84.333 12.5 -157 12.5h-68v-419z" />
    <glyph glyph-name="Q" unicode="Q" horiz-adv-x="1749" 
d="M664 3c-170 36.667 -306.334 118.667 -409.001 246s-154 277 -154 449c0 191.333 66.5 358.333 199.5 501s324.167 214 573.5 214s440.5 -71.333 573.5 -214s199.5 -309.667 199.5 -501c0 -192.667 -63.667 -356.5 -191 -491.5s-296.666 -208.833 -507.999 -221.5
c44.667 -16 89 -33.333 133 -52c94 -40 175.667 -60 245 -60c16 0 35 1 57 3l-85 -223c-16 -1.33301 -28 -2 -36 -2c-44.667 0 -87.667 7 -129 21s-107.333 43.333 -198 88c-95.333 47.333 -170.333 71 -225 71c-70 0 -138 -28 -204 -84l-89 139c54 64 136.333 103 247 117z
M873.999 1159c-106.667 0 -197.169 -39.999 -271.502 -119.999s-111.5 -197.333 -111.5 -352c0 -136.667 36.667 -246 110 -328s164.333 -123 273 -123c106.667 0 197.334 40.167 272.001 120.5s112 196.166 112 347.499c0 135.333 -35.667 245 -107 329
s-163.666 126 -276.999 126z" />
    <glyph glyph-name="R" unicode="R" horiz-adv-x="1493" 
d="M1497 235v-234.999h-424l-314 609h-159v-374h174v-235h-727v235h191v921h-191v235h839c158 0 271.833 -39.833 341.5 -119.5s104.5 -169.834 104.5 -270.501c0 -158 -80.333 -273.333 -241 -346l226 -420h180zM600 831.001h124c153.333 0 230 54.667 230 164
c0 54 -17.5 94.333 -52.5 121s-83.167 40 -144.5 40h-157v-325z" />
    <glyph glyph-name="S" unicode="S" horiz-adv-x="1087" 
d="M97 0l-0.000976562 474h236c2.66699 -86.667 25.334 -150.5 68.001 -191.5s91.334 -61.5 146.001 -61.5c42.667 0 78.667 14.833 108 44.5s44 64.5 44 104.5c0 42.667 -14.333 78.5 -43 107.5s-81 62.167 -157 99.5c-160.667 78 -269.834 146.667 -327.501 206
s-86.5 139.333 -86.5 240c0 121.333 38 215.333 114 282s162.333 100 259 100c110.667 0 196.334 -43 257.001 -129v115h235v-423h-235c-7.33301 65.333 -29.833 115.833 -67.5 151.5s-81.5 53.5 -131.5 53.5c-38.667 0 -71.334 -10.333 -98.001 -31s-40 -47.667 -40 -81
c0 -28.667 11 -55.834 33 -81.501s86.333 -62.167 193 -109.5c102.667 -46 181.5 -87.5 236.5 -124.5s98.5 -85 130.5 -144s48 -127.167 48 -204.5c0 -137.333 -40 -240.666 -120 -309.999s-174.667 -104 -284 -104c-122 0 -216 45 -282 135v-118h-236z" />
    <glyph glyph-name="T" unicode="T" horiz-adv-x="1386" 
d="M302 0v235h209v921h-209v-324h-239v559h1261v-559h-236v324h-215v-921h209v-235h-780z" />
    <glyph glyph-name="U" unicode="U" horiz-adv-x="1386" 
d="M37 1156v234.999h664v-235h-137v-629c0 -84 3.5 -144.5 10.5 -181.5s25.5 -67.5 55.5 -91.5s68 -36 114 -36c47.333 0 86.666 11.333 117.999 34s51.5 51 60.5 85s13.5 103.333 13.5 208v611h-135v235h554v-235h-170v-696c0 -94.667 -5 -163.5 -15 -206.5
s-33 -85.667 -69 -128s-88.167 -76.666 -156.5 -102.999s-146.833 -39.5 -235.5 -39.5c-102.667 0 -190.167 14.5 -262.5 43.5s-126.166 67.5 -161.499 115.5s-58 95.667 -68 143s-15 128 -15 242v629h-165z" />
    <glyph glyph-name="V" unicode="V" horiz-adv-x="1430" 
d="M577 -9l-414 1165h-166v235h710v-235h-180l234 -697l235 697h-177v235h615v-235h-169l-399 -1165h-289z" />
    <glyph glyph-name="W" unicode="W" horiz-adv-x="2028" 
d="M542 -9l-397 1165h-147v235h627v-235h-144l226 -668l212 668h-126v235h500v-235h-129l228 -668l219 668h-139v235h557v-235h-151l-384 -1165h-260l-219 635l-207 -635h-266z" />
    <glyph glyph-name="X" unicode="X" horiz-adv-x="1516" 
d="M-3 0v235h205l339 479l-339 442h-191v235h715v-222h-133l207 -259l188 259h-126v222h617v-235h-193l-330 -457l364 -464h200v-235h-738v226h139l-218 285l-207 -285h143v-226h-642z" />
    <glyph glyph-name="Y" unicode="Y" horiz-adv-x="1430" 
d="M347 0v235h195v376l-377 545h-170v235h696v-235h-137l204 -340l207 340h-143v235h613v-235h-171l-360 -545v-376h194v-235h-751z" />
    <glyph glyph-name="Z" unicode="Z" horiz-adv-x="1323" 
d="M102 0v235l660 921h-387v-253h-236v488h1074v-209l-679 -947h458v267h235v-502h-1125z" />
    <glyph glyph-name="bracketleft" unicode="[" horiz-adv-x="854" 
d="M226 -416v1807h564v-208h-255v-1392h255v-207h-564z" />
    <glyph glyph-name="backslash" unicode="\" horiz-adv-x="1040" 
d="M293 1415l739 -1432h-285l-738 1432h284z" />
    <glyph glyph-name="bracketright" unicode="]" horiz-adv-x="854" 
d="M628 1391v-1807h-564v207h255v1392h-255v208h564z" />
    <glyph glyph-name="asciicircum" unicode="^" horiz-adv-x="1194" 
d="M114 592l376 799h223l366 -799h-284l-198 489l-197 -489h-286z" />
    <glyph glyph-name="underscore" unicode="_" horiz-adv-x="1024" 
d="M-12 -154h1048v-102h-1048v102z" />
    <glyph glyph-name="grave" unicode="`" horiz-adv-x="682" 
d="M495 1095h-165l-363 318h375z" />
    <glyph glyph-name="a" unicode="a" horiz-adv-x="1194" 
d="M1165 223v-223.001h-465v76c-83.333 -60 -171.333 -90 -264 -90c-96 0 -178.833 27.333 -248.5 82s-104.5 128 -104.5 220c0 92.667 36.667 170.334 110 233.001s168 94 284 94c64.667 0 139 -16.333 223 -49v59c0 49.333 -16.667 89.833 -50 121.5s-78 47.5 -134 47.5
c-69.333 0 -128.666 -25.333 -177.999 -76l-249 45c72 152.667 228.333 229 469 229c93.333 0 170.666 -10.5 231.999 -31.5s107 -48.167 137 -81.5s51.167 -69.833 63.5 -109.5s18.5 -104.167 18.5 -193.5v-353h156zM700 357.999
c-74.667 46.667 -134.333 69.999 -179 69.999c-35.333 0 -67.5 -10.333 -96.5 -31s-43.5 -50.667 -43.5 -90c0 -35.333 11.667 -65.666 35 -90.999s53.333 -38 90 -38c57.333 0 122 33.667 194 101v79z" />
    <glyph glyph-name="b" unicode="b" horiz-adv-x="1280" 
d="M506 1391l0.000976562 -531.999c77.333 88.667 169 133 275 133c124 0 224.833 -47 302.5 -141s116.5 -214.333 116.5 -361c0 -156.667 -38.833 -279.834 -116.5 -369.501s-175.834 -134.5 -294.501 -134.5c-106.667 0 -201 41.667 -283 125v-111h-477v223h168v945h-168
v223h477zM883.001 492.001c0 82.667 -17 145 -51 187s-79 63 -135 63c-53.333 0 -99 -20.667 -137 -62s-57 -108.666 -57 -201.999c0 -78.667 17.833 -140.334 53.5 -185.001s81.5 -67 137.5 -67c54 0 99 21.667 135 65s54 110.333 54 201z" />
    <glyph glyph-name="c" unicode="c" horiz-adv-x="1153" 
d="M1073 968l-0.000976562 -393h-220c-50 108 -128.333 162 -235 162c-68 0 -122.167 -22.5 -162.5 -67.5s-60.5 -105.167 -60.5 -180.5c0 -91.333 21.333 -158.833 64 -202.5s95 -65.5 157 -65.5c49.333 0 96 14.167 140 42.5s79.333 65.833 106 112.5l240 -106
c-89.333 -194.667 -246 -292 -470 -292c-168.667 0 -303.167 46 -403.5 138s-150.5 215 -150.5 369s49.167 275.5 147.5 364.5s212.833 133.5 343.5 133.5c104.667 0 202.334 -31.667 293.001 -95v80h211z" />
    <glyph glyph-name="d" unicode="d" horiz-adv-x="1280" 
d="M1244 223l0.000976562 -223h-468v115c-86 -86 -179.333 -129 -280 -129c-120.667 0 -220.667 49 -300 147s-119 216.667 -119 356c0 141.333 40.667 260.5 122 357.5s180.666 145.5 297.999 145.5c112.667 0 205.667 -43.667 279 -131v307h-151v223h460v-1168h159z
M779.001 486c0 92.667 -19.832 158.668 -59.499 198.001s-84.834 59 -135.501 59c-60.667 0 -107.5 -23.5 -140.5 -70.5s-49.5 -108.833 -49.5 -185.5c0 -72.667 16.333 -133.834 49 -183.501s80 -74.5 142 -74.5c51.333 0 96.5 20.167 135.5 60.5s58.5 105.833 58.5 196.5z
" />
    <glyph glyph-name="e" unicode="e" horiz-adv-x="1174" 
d="M853 292l239.999 -77c-100.667 -158 -258 -237 -472 -237c-170.667 0 -303.834 45 -399.501 135s-143.5 208.333 -143.5 355c0 149.333 49.333 274 148 374s224.334 150 377.001 150c110.667 0 206.334 -28 287.001 -84s136.667 -125.667 168 -209s47 -176.333 47 -279
h-721c4.66699 -88 32.5 -150.333 83.5 -187s104.833 -55 161.5 -55c74 0 148.667 38 224 114zM793.999 592c-7.33301 54 -28.5 100 -63.5 138s-82.833 57 -143.5 57c-113.333 0 -179.333 -65 -198 -195h405z" />
    <glyph glyph-name="f" unicode="f" 
d="M665 223v-223h-601v223h140v521h-130v224h130v89c0 102 31.5 187.167 94.5 255.5s156.833 102.5 281.5 102.5c151.333 0 259 -45.333 323 -136l-224 -175c-20 69.333 -48.667 104 -86 104c-53.333 0 -80 -44.667 -80 -134v-106h152v-224h-152v-521h152z" />
    <glyph glyph-name="g" unicode="g" horiz-adv-x="1280" 
d="M1246 968l0.000976562 -224h-160v-715c0 -319.333 -168.667 -479 -506 -479c-193.333 0 -337.333 35 -432 105l150 205c78 -48 156.333 -72 235 -72c68.667 0 126.5 17.667 173.5 53s70.5 104 70.5 206v74c-100.667 -90 -198.667 -135 -294 -135
c-112 0 -207.5 46.833 -286.5 140.5s-118.5 213.167 -118.5 358.5c0 146 40.667 265.5 122 358.5s180.666 139.5 297.999 139.5c112.667 0 205.667 -44.333 279 -133v118h469zM778.001 481c0 78 -17.335 139.666 -52.002 184.999s-82 68 -142 68
c-61.333 0 -108.166 -23.333 -140.499 -70s-48.5 -106.667 -48.5 -180s16.833 -133.166 50.5 -179.499s79.834 -69.5 138.501 -69.5c54 0 99.833 21.5 137.5 64.5s56.5 103.5 56.5 181.5z" />
    <glyph glyph-name="h" unicode="h" horiz-adv-x="1280" 
d="M56 0v223h156v945h-156v223h464v-501c97.333 68 189 102 275 102c198 0 297 -119 297 -357v-412h142v-223h-451v621c0 45.333 -8.16699 76.5 -24.5 93.5s-40.833 25.5 -73.5 25.5c-46 0 -101 -20.333 -165 -61v-456h138v-223h-602z" />
    <glyph glyph-name="i" unicode="i" 
d="M222 1245c0 46.667 16.5 86.667 49.5 120s72.833 50 119.5 50c47.333 0 87.333 -16.667 120 -50s49 -73.333 49 -120s-16.5 -86.5 -49.5 -119.5s-72.833 -49.5 -119.5 -49.5c-46 0 -85.667 16.667 -119 50s-50 73 -50 119zM86 744v224h456v-745h144v-223h-600v223h147
v521h-147z" />
    <glyph glyph-name="j" unicode="j" 
d="M206 1239c0 46 16.667 85.667 50 119s73 50 119 50c46.667 0 86.5 -16.5 119.5 -49.5s49.5 -72.833 49.5 -119.5s-16.5 -86.5 -49.5 -119.5s-72.833 -49.5 -119.5 -49.5c-48 0 -88.167 16.833 -120.5 50.5s-48.5 73.167 -48.5 118.5zM80 744l-0.000976562 224.001h459
v-937c0 -121.333 -11 -211.333 -33 -270s-65 -104.834 -129 -138.501s-157.333 -50.5 -280 -50.5c-45.333 0 -82.333 1.66699 -111 5v249c20.667 -2.66699 40 -4 58 -4c59.333 0 101.333 6.33301 126 19s40.834 29.167 48.501 49.5s11.5 56.833 11.5 109.5v744h-150z" />
    <glyph glyph-name="k" unicode="k" horiz-adv-x="1323" 
d="M70 0v223h156v945h-156v223h464v-879l333 271h-205v185h585v-196h-97l-283 -242l258 -307h134v-223h-297l-428 512v-300h117v-212h-581z" />
    <glyph glyph-name="l" unicode="l" 
d="M75 0v223h152v945h-152v223h461v-1168h139v-223h-600z" />
    <glyph glyph-name="m" unicode="m" horiz-adv-x="2028" 
d="M59 744l-0.000976562 224h469v-79c105.333 62.667 210 94 314 94c124.667 0 221.334 -44.333 290.001 -133c124.667 88.667 255 133 391 133c80.667 0 146.167 -14.833 196.5 -44.5s84.833 -69.5 103.5 -119.5s28 -125.667 28 -227v-369h160v-223h-469v567
c0 101.333 -43.667 152 -131 152c-68.667 0 -143 -22 -223 -66v-430h160v-223h-469v558c0 107.333 -42 161 -126 161c-65.333 0 -140.333 -22 -225 -66v-430h160v-223h-629v223h160v521h-160z" />
    <glyph glyph-name="n" unicode="n" horiz-adv-x="1280" 
d="M73 744v224h457v-90c93.333 70 188 105 284 105c195.333 0 293 -124.667 293 -374v-386h146v-223h-455v586c0 52.667 -7.16699 88.667 -21.5 108s-37.833 29 -70.5 29c-57.333 0 -116 -21 -176 -63v-437h149v-223h-606v223h148v521h-148z" />
    <glyph glyph-name="o" unicode="o" horiz-adv-x="1174" 
d="M587 -22c-142.667 0 -263.167 45.167 -361.5 135.5s-147.5 214.166 -147.5 371.499s49.167 281.166 147.5 371.499s218.833 135.5 361.5 135.5c143.333 0 264 -45.167 362 -135.5s147 -214.166 147 -371.499c0 -155.333 -48.5 -278.666 -145.5 -369.999
s-218.167 -137 -363.5 -137zM586 218c57.333 0 103.833 22 139.5 66s53.5 113 53.5 207c0 82.667 -17.333 147.167 -52 193.5s-81.667 69.5 -141 69.5c-127.333 0 -191 -92 -191 -276c0 -75.333 15.833 -137.5 47.5 -186.5s79.5 -73.5 143.5 -73.5z" />
    <glyph glyph-name="p" unicode="p" horiz-adv-x="1280" 
d="M699 -214l-0.000976562 -223h-666v223h163v958h-136v224h445v-121c86 90.667 182 136 288 136c128 0 228.833 -50.833 302.5 -152.5s110.5 -220.167 110.5 -355.5c0 -143.333 -38 -262 -114 -356s-177.333 -141 -304 -141c-103.333 0 -197.666 40.333 -282.999 121v-313
h194zM888.999 481c0 84.667 -17.499 148.001 -52.499 190.001s-81.167 63 -138.5 63c-58 0 -105.167 -21.5 -141.5 -64.5s-54.5 -107.167 -54.5 -192.5c0 -76.667 18 -138.334 54 -185.001s84 -70 144 -70c55.333 0 100.666 21 135.999 63s53 107.333 53 196z" />
    <glyph glyph-name="q" unicode="q" horiz-adv-x="1280" 
d="M581 -214l189.999 0.000976562v313c-83.333 -80.667 -177.333 -121 -282 -121c-132.667 0 -235 50 -307 150s-108 217 -108 351c0 135.333 37.333 253.166 112 353.499s174.334 150.5 299.001 150.5c104.667 0 200 -45.333 286 -136v121h476v-224h-167v-958h167v-223
h-666v223zM390.999 486.001c0 -84 16.667 -149.334 50 -196.001s79.333 -70 138 -70c52.667 0 98.167 21.5 136.5 64.5s57.5 110.833 57.5 203.5c0 78.667 -17.667 139.334 -53 182.001s-81.333 64 -138 64c-57.333 0 -103.5 -21.167 -138.5 -63.5
s-52.5 -103.833 -52.5 -184.5z" />
    <glyph glyph-name="r" unicode="r" horiz-adv-x="918" 
d="M736 223v-223.001h-681v223h179v521h-168v224h451v-246c17.333 70.667 56.833 131.834 118.5 183.501s134.5 77.5 218.5 77.5c14 0 30.667 -0.333008 50 -1v-292c-78 0 -141.667 -8.66699 -191 -26s-90 -55.333 -122 -114s-48 -128 -48 -208v-119h193z" />
    <glyph glyph-name="s" unicode="s" horiz-adv-x="1044" 
d="M119 0l0.00195312 333.004h226c2 -45.333 23 -81.5 63 -108.5s89.333 -40.5 148 -40.5c50.667 0 90.167 8.83301 118.5 26.5s42.5 40.167 42.5 67.5c0 25.333 -13 45 -39 59s-77 27.333 -153 40c-156.667 25.333 -269.667 63.833 -339 115.5s-104 120.167 -104 205.5
c0 80 32.667 147.5 98 202.5s152 82.5 260 82.5c87.333 0 169 -16 245 -48v33h221v-281h-221c-20 67.333 -90.667 101 -212 101c-89.333 0 -134 -24.667 -134 -74c0 -18.667 9.16699 -32.834 27.5 -42.501s65.166 -21.167 140.499 -34.5
c119.333 -20.667 208.666 -41.334 267.999 -62.001s106.833 -54.834 142.5 -102.501s53.5 -104.834 53.5 -171.501c0 -94.667 -33.833 -172.167 -101.5 -232.5s-163.5 -90.5 -287.5 -90.5c-115.333 0 -194.333 23.333 -237 70v-48h-226z" />
    <glyph glyph-name="t" unicode="t" horiz-adv-x="705" 
d="M39 744l-0.000976562 224h123v152l309 222v-374h178v-224h-178v-419c0 -38 4.83301 -63.5 14.5 -76.5s31.834 -19.5 66.501 -19.5c28.667 0 61 6.66699 97 20v-214c-79.333 -32.667 -157 -49 -233 -49c-169.333 0 -254 84 -254 252v506h-123z" />
    <glyph glyph-name="u" unicode="u" horiz-adv-x="1280" 
d="M1230 223l-0.000976562 -222.999h-465v82c-92.667 -64 -186.667 -96 -282 -96c-93.333 0 -166.5 26.167 -219.5 78.5s-79.5 126.166 -79.5 221.499v458h-145v224h453v-603c0 -48 7.33301 -80.833 22 -98.5s41.334 -26.5 80.001 -26.5c52 0 109 23 171 69v435h-149v224
h458v-745h156z" />
    <glyph glyph-name="v" unicode="v" horiz-adv-x="1174" 
d="M463 -14l-327 758h-140v224h587v-224h-120l151 -440l178 440h-127v224h513v-224h-138l-314 -758h-263z" />
    <glyph glyph-name="w" unicode="w" horiz-adv-x="1665" 
d="M378 -14l-254 758h-123v224h527v-224h-106l119 -360l198 584h256l192 -584l119 360h-109v224h468v-224h-121l-251 -758h-268l-190 569l-187 -569h-270z" />
    <glyph glyph-name="x" unicode="x" horiz-adv-x="1153" 
d="M46 0v223h140l209 250l-209 271h-140v224h372l174 -265l191 265h292v-224h-130l-196 -232l228 -289h130v-223h-371l-188 272l-202 -272h-300z" />
    <glyph glyph-name="y" unicode="y" horiz-adv-x="1217" 
d="M253 -437v223h186l64 173l-352 785h-140v224h580v-224h-114l161 -435l172 435h-126v224h509v-224h-138l-464 -1181h-338z" />
    <glyph glyph-name="z" unicode="z" horiz-adv-x="1087" 
d="M72 0v203l569 569h-311v-150h-211v346h892v-203l-569 -570h365v166h204v-361h-939z" />
    <glyph glyph-name="braceleft" unicode="{" horiz-adv-x="788" 
d="M59 364l0.000976562 227.997c62 3.33301 108.333 16.5 139 39.5s51.667 56.667 63 101s17 118.833 17 223.5c0 142.667 11.5 236.334 34.5 281.001s60.5 81.5 112.5 110.5s140.333 43.5 265 43.5h53v-228c-88 0 -144 -8.33301 -168 -25s-36 -54 -36 -112
c0 -185.333 -12.333 -311.5 -37 -378.5s-75 -123.5 -151 -169.5c64 -33.333 111.167 -82 141.5 -146s45.5 -197.667 45.5 -401c0 -56 13.167 -93 39.5 -111s81.166 -27 164.499 -27v-227h-52c-116 0 -203.5 14 -262.5 42s-98.667 69.167 -119 123.5
s-30.5 146.833 -30.5 277.5c0 100.667 -5.83301 172.834 -17.5 216.501s-32.667 76.834 -63 99.501s-76.5 35.667 -138.5 39z" />
    <glyph glyph-name="bar" unicode="|" horiz-adv-x="1251" 
d="M501 1415h249v-1865h-249v1865z" />
    <glyph glyph-name="braceright" unicode="}" horiz-adv-x="788" 
d="M729 592l0.000976562 -227.999c-62 -2.66699 -108.333 -15.5 -139 -38.5s-51.667 -56.667 -63 -101s-17 -118.833 -17 -223.5c0 -132 -11.333 -224.333 -34 -277s-64.334 -92.167 -125.001 -118.5s-145 -39.5 -253 -39.5h-53v227c88 0 144 8.5 168 25.5s36 54.5 36 112.5
c0 174 11.167 297.167 33.5 369.5s73.833 131.833 154.5 178.5c-63.333 32.667 -110.333 81.167 -141 145.5s-46 198.166 -46 401.499c0 56 -13.167 92.833 -39.5 110.5s-81.166 26.5 -164.499 26.5v228h53c115.333 0 202.666 -14.167 261.999 -42.5s99 -69.5 119 -123.5
s30 -146.667 30 -278c0 -100 5.83301 -171.833 17.5 -215.5s32.667 -77 63 -100s76.5 -36.167 138.5 -39.5z" />
    <glyph glyph-name="asciitilde" unicode="~" horiz-adv-x="1194" 
d="M1159 637c-108 -94.667 -214.332 -142.001 -318.999 -142.001c-46.667 0 -91.667 8.33301 -135 25s-96.333 40.334 -159 71.001c-88.667 43.333 -156 65 -202 65c-100 0 -203 -50.333 -309 -151v255c109.333 94.667 218.666 142 327.999 142
c65.333 0 155.333 -28.333 270 -85c102 -50.667 178.333 -76 229 -76c90 0 189 50.667 297 152v-256z" />
    <glyph glyph-name="nonbreakingspace" unicode="&#xa0;" horiz-adv-x="512" 
 />
    <glyph glyph-name="exclamdown" unicode="&#xa1;" 
d="M530 982v-335h-335v335h335zM437 497l86 -525v-381h-309v381l79 525h144z" />
    <glyph glyph-name="cent" unicode="&#xa2;" horiz-adv-x="1153" 
d="M853 386l238 -105.001c-26 -74 -80.167 -141.333 -162.5 -202s-187.5 -91 -315.5 -91c-56.667 0 -107.334 5.33301 -152.001 16l-153 -441h-134l173 480c-189.333 90 -284 238.667 -284 446c0 150.667 49 273.334 147 368.001s216 142 354 142
c38 0 76.333 -4.66699 115 -14l162 438h129l-173 -487c24.667 -14 45 -27 61 -39l25 -18v106h181v-397h-211c-36 64 -81.667 107.333 -137 130l-170 -477c16 -5.33301 34.667 -8 56 -8c110.667 0 194.334 51 251.001 153zM592 741.999
c-66 -5.33301 -117.833 -31.167 -155.5 -77.5s-56.5 -104.833 -56.5 -175.5c0 -73.333 20.667 -130.333 62 -171z" />
    <glyph glyph-name="sterling" unicode="&#xa3;" horiz-adv-x="1174" 
d="M963 448l141.999 -27.999c0.666992 -15.333 1 -28.333 1 -39c0 -122 -25.167 -219 -75.5 -291s-120.5 -108 -210.5 -108c-92.667 0 -180.667 36.333 -264 109c-67.333 -72.667 -141.666 -109 -222.999 -109c-68 0 -123.833 21.833 -167.5 65.5s-65.5 100.5 -65.5 170.5
c0 66 21.167 121.167 63.5 165.5s94.833 66.5 157.5 66.5c44 0 95 -14.333 153 -43c0 50.667 -12.333 111 -37 181h-304v204h200c-64.667 127.333 -97 227.666 -97 300.999c0 98 40.167 176.167 120.5 234.5s181.833 87.5 304.5 87.5c112.667 0 203.167 -29.833 271.5 -89.5
s107.5 -148.167 117.5 -265.5l-242 -30c-2.66699 126.667 -53.667 190 -153 190c-42 0 -75.833 -11.167 -101.5 -33.5s-38.5 -48.166 -38.5 -77.499c0 -41.333 24.333 -109 73 -203c26.667 -52.667 45.334 -90.667 56.001 -114h258v-204h-213
c2.66699 -44.667 4 -76.334 4 -95.001c0 -71.333 -8.66699 -131.333 -26 -180c57.333 -24.667 108.666 -37 153.999 -37c84 0 131.333 57.333 142 172zM436.999 214.001c-47.333 57.333 -91.001 86 -131.001 86c-21.333 0 -39.166 -7.83301 -53.499 -23.5
s-21.5 -35.167 -21.5 -58.5c0 -26.667 9.33301 -48.667 28 -66s39 -26 61 -26c53.333 0 92.333 29.333 117 88z" />
    <glyph glyph-name="currency" unicode="&#xa4;" horiz-adv-x="1368" 
d="M440 1105c77.333 45.333 158.666 68 243.999 68c86 0 167.667 -22.667 245 -68l131 132l163 -162l-132 -132c44.667 -77.333 67 -158.666 67 -243.999c0 -86 -22.333 -167.667 -67 -245l132 -132l-163 -162l-131 132c-77.333 -44.667 -158.666 -67 -243.999 -67
c-88 0 -169.667 22.333 -245 67l-132 -132l-162 162l132 132c-45.333 75.333 -68 157 -68 245c0 85.333 22.667 166.666 68 243.999l-132 132l162 162zM684 946c-66.667 0 -124.5 -23.5 -173.5 -70.5s-73.5 -105.833 -73.5 -176.5c0 -68.667 24.167 -127.167 72.5 -175.5
s106.5 -72.5 174.5 -72.5s126.333 24.167 175 72.5s73 106.833 73 175.5c0 70.667 -24.667 129.5 -74 176.5s-107.333 70.5 -174 70.5z" />
    <glyph glyph-name="yen" unicode="&#xa5;" horiz-adv-x="1430" 
d="M498 674h-461v142h363l-235 340h-170v235h696v-235h-137l204 -340l207 340h-143v235h613v-235h-171l-225 -340h354v-142h-447l-42 -63v-117h489v-141h-489v-118h194v-235h-751v235h195v118h-505v141h505v117z" />
    <glyph glyph-name="brokenbar" unicode="&#xa6;" horiz-adv-x="1251" 
d="M501 1415h249v-780h-249v780zM501 331h249v-781h-249v781z" />
    <glyph glyph-name="section" unicode="&#xa7;" horiz-adv-x="1067" 
d="M111 -52l262.996 -0.00195312c1.33301 -54.667 19 -97 53 -127s74 -45 120 -45c48 0 84.167 12.5 108.5 37.5s36.5 52.167 36.5 81.5c0 36.667 -15.667 67.5 -47 92.5s-99.666 59.833 -204.999 104.5c-146 61.333 -247.667 121.333 -305 180s-86 125.334 -86 200.001
c0 131.333 69.333 232.666 208 303.999c-108.667 76.667 -163 171.334 -163 284.001s40.5 200 121.5 262s183.833 93 308.5 93c142 0 249.833 -36 323.5 -108s110.5 -160.333 110.5 -265h-263c-6 109.333 -65.667 164 -179 164c-47.333 0 -83 -11 -107 -33
s-36 -46.333 -36 -73c0 -39.333 16 -72.833 48 -100.5s102.667 -64.167 212 -109.5c134.667 -56 232.5 -113.667 293.5 -173s91.5 -127.666 91.5 -204.999c0 -120 -67.667 -223.333 -203 -310c104 -64 156 -156.667 156 -278c0 -102.667 -39.167 -188.167 -117.5 -256.5
s-181.166 -102.5 -308.499 -102.5c-129.333 0 -233.166 36.5 -311.499 109.5s-119.166 164.167 -122.499 273.5zM670.996 287.998c64 48.667 96 101.334 96 158.001c0 57.333 -52.667 109.333 -158 156l-214 94c-62 -41.333 -93 -90.333 -93 -147
c0 -33.333 12.333 -62.833 37 -88.5s70.667 -53.834 138 -84.501z" />
    <glyph glyph-name="dieresis" unicode="&#xa8;" horiz-adv-x="682" 
d="M713 1249c0 -40 -14.167 -74.167 -42.5 -102.5s-62.166 -42.5 -101.499 -42.5c-40 0 -74.167 14 -102.5 42s-42.5 62.333 -42.5 103c0 39.333 14.167 73.166 42.5 101.499s62.5 42.5 102.5 42.5c39.333 0 73.166 -14.167 101.499 -42.5s42.5 -62.166 42.5 -101.499z
M259 1249c0 -40 -14.333 -74.166 -43 -102.499s-62.667 -42.5 -102 -42.5c-40 0 -74.167 14.167 -102.5 42.5s-42.5 62.5 -42.5 102.5c0 39.333 14.167 73.166 42.5 101.499s62.5 42.5 102.5 42.5c39.333 0 73.333 -14 102 -42s43 -62 43 -102z" />
    <glyph glyph-name="copyright" unicode="&#xa9;" horiz-adv-x="1516" 
d="M1524 647c0 -211.333 -75.167 -391.833 -225.5 -541.5s-330.5 -224.5 -540.5 -224.5c-211.333 0 -391.833 74.667 -541.5 224s-224.5 330 -224.5 542c0 211.333 74.667 391.833 224 541.5s330 224.5 542 224.5c210 0 390.167 -75 540.5 -225s225.5 -330.333 225.5 -541z
M1373 647c0 169.333 -60.335 314.168 -181.002 434.501s-265.334 180.5 -434.001 180.5c-169.333 0 -314.166 -60.333 -434.499 -181s-180.5 -265.334 -180.5 -434.001c0 -169.333 60.333 -314.333 181 -435s265.334 -181 434.001 -181s313.334 60.167 434.001 180.5
s181 265.5 181 435.5zM943.998 533.002l160.998 -54c-23.333 -81.333 -64.5 -145 -123.5 -191s-130.167 -69 -213.5 -69c-112 0 -204.333 37 -277 111s-109 177.333 -109 310c0 132 34.667 236.833 104 314.5s164.333 116.5 285 116.5c166 0 277.333 -81 334 -243l-162 -38
c-33.333 92.667 -92.666 139 -177.999 139c-66 0 -117 -24.833 -153 -74.5s-54 -119.167 -54 -208.5c0 -92 17.833 -162.333 53.5 -211s83.834 -73 144.501 -73c92 0 154.667 57 188 171z" />
    <glyph glyph-name="ordfeminine" unicode="&#xaa;" horiz-adv-x="811" 
d="M776 951v-134.001h-302v45c-54 -36 -111.333 -54 -172 -54c-58 0 -110.667 15.833 -158 47.5s-71 76.167 -71 133.5c0 56 23.833 102.833 71.5 140.5s109.167 56.5 184.5 56.5c42 0 90.333 -9.66699 145 -29v35c0 28 -10.5 51.833 -31.5 71.5s-50.5 29.5 -88.5 29.5
c-44.667 0 -83 -15 -115 -45l-162 26c46 92.667 148.667 139 308 139c108.667 0 184.167 -20.167 226.5 -60.5s63.5 -89.166 63.5 -146.499v-255h101zM474 1031c-50 28.667 -88.668 43 -116.001 43c-23.333 0 -44.333 -6.16699 -63 -18.5s-28 -30.5 -28 -54.5
c0 -20.667 7.5 -38.667 22.5 -54s34.833 -23 59.5 -23c36.667 0 78.334 20 125.001 60v47z" />
    <glyph glyph-name="guillemotleft" unicode="&#xab;" horiz-adv-x="1110" 
d="M243 0l-231 484l231 484h296l-225 -484l225 -484h-296zM805 0l-232 484l232 484h295l-225 -484l225 -484h-295z" />
    <glyph glyph-name="logicalnot" unicode="&#xac;" horiz-adv-x="1368" 
d="M122 1064h1124v-731h-248v483h-876v248z" />
    <glyph glyph-name="registered" unicode="&#xae;" horiz-adv-x="1516" 
d="M1524 647c0 -211.333 -75.167 -391.833 -225.5 -541.5s-330.5 -224.5 -540.5 -224.5c-211.333 0 -391.833 74.667 -541.5 224s-224.5 330 -224.5 542c0 211.333 74.667 391.833 224 541.5s330 224.5 542 224.5c210 0 390.167 -75 540.5 -225s225.5 -330.333 225.5 -541z
M1373 647c0 169.333 -60.335 314.168 -181.002 434.501s-265.334 180.5 -434.001 180.5c-169.333 0 -314.166 -60.333 -434.499 -181s-180.5 -265.334 -180.5 -434.001c0 -169.333 60.333 -314.333 181 -435s265.334 -181 434.001 -181s313.334 60.167 434.001 180.5
s181 265.5 181 435.5zM1137 237.002l-204.002 0.000976562l-68 131c-43.333 83.333 -80.666 138 -111.999 164s-74 39 -128 39h-31v-334h-165v813h289c98.667 0 168.834 -4.33301 210.501 -13s78.5 -32.834 110.5 -72.501s48 -88.167 48 -145.5c0 -58 -19.5 -108 -58.5 -150
s-92.5 -67.333 -160.5 -76c34.667 -13.333 61.5 -30.5 80.5 -51.5s49.833 -68.167 92.5 -141.5zM593.996 700.003h67c78.667 0 131 1.83301 157 5.5s48.333 15.167 67 34.5s28 43.333 28 72c0 28 -9.83301 51.667 -29.5 71s-43.5 30.5 -71.5 33.5s-78.667 4.5 -152 4.5h-66
v-221z" />
    <glyph glyph-name="macron" unicode="&#xaf;" horiz-adv-x="1024" 
d="M-12 1647h1048v-102h-1048v102z" />
    <glyph glyph-name="degree" unicode="&#xb0;" horiz-adv-x="811" 
d="M406 1415c93.333 0 174.333 -33 243 -99s103 -148.333 103 -247c0 -94.667 -33.833 -176 -101.5 -244s-149.167 -102 -244.5 -102c-96 0 -177.667 33.833 -245 101.5s-101 149.167 -101 244.5c0 98.667 34.333 181 103 247s149.667 99 243 99zM406 1284
c-58.667 0 -109.167 -21 -151.5 -63s-63.5 -92.667 -63.5 -152c0 -58.667 21 -109 63 -151s92.667 -63 152 -63s110 21 152 63s63 92.333 63 151c0 59.333 -21.167 110 -63.5 152s-92.833 63 -151.5 63z" />
    <glyph glyph-name="plusminus" unicode="&#xb1;" horiz-adv-x="1368" 
d="M122 1007h438v438h248v-438h438v-248h-438v-438h-248v438h-438v248zM122 200h1124v-248h-1124v248z" />
    <glyph glyph-name="twosuperior" unicode="&#xb2;" horiz-adv-x="682" 
d="M608 899l-7.00098 -219h-549c-1.33301 19.333 -2 36 -2 50c0 40.667 11.833 86.5 35.5 137.5s76.5 108.833 158.5 173.5c60.667 48.667 100.334 84.167 119.001 106.5s28 47.5 28 75.5c0 45.333 -22.333 68 -67 68c-53.333 0 -82 -49.667 -86 -149l-176 7
c1.33301 58.667 10 106 26 142s46.167 65.667 90.5 89s97.833 35 160.5 35c81.333 0 145.5 -19.5 192.5 -58.5s70.5 -86.833 70.5 -143.5c0 -46 -13.167 -84.167 -39.5 -114.5s-76.5 -68.5 -150.5 -114.5c-71.333 -44 -116.5 -78.667 -135.5 -104s-31.833 -49.333 -38.5 -72
h214v91h156z" />
    <glyph glyph-name="threesuperior" unicode="&#xb3;" horiz-adv-x="682" 
d="M46 909l183.002 13c0.666992 -84 32.667 -126 96 -126c27.333 0 50.166 9.16699 68.499 27.5s27.5 42.833 27.5 73.5c0 66 -35.333 99 -106 99c-10 0 -26 -0.666992 -48 -2v133c89.333 0 134 29 134 87c0 48.667 -25 73 -75 73c-50.667 0 -76 -31.333 -76 -94l-178 12
c2 68 27.5 120 76.5 156s112.833 54 191.5 54c82 0 146.333 -17.833 193 -53.5s70 -82.167 70 -139.5c0 -72.667 -38 -126 -114 -160c96 -31.333 144 -88.666 144 -171.999c0 -62.667 -25.833 -114.834 -77.5 -156.501s-123.834 -62.5 -216.501 -62.5
c-180 0 -277.667 79.333 -293 238z" />
    <glyph glyph-name="acute" unicode="&#xb4;" horiz-adv-x="682" 
d="M187 1095l152 318h376l-364 -318h-164z" />
    <glyph glyph-name="mu" unicode="&#xb5;" horiz-adv-x="1260" 
d="M150 968h278.999v-387c0 -138.667 15.833 -236.667 47.5 -294s81.834 -86 150.501 -86c46 0 86.5 15.833 121.5 47.5s57.667 71 68 118s15.5 117.5 15.5 211.5v390h284v-968h-262v128c-53.333 -102.667 -126.333 -154 -219 -154c-44 0 -81.833 11.667 -113.5 35
s-62.5 63 -92.5 119v-562h-279v1402z" />
    <glyph glyph-name="paragraph" unicode="&#xb6;" horiz-adv-x="1130" 
d="M633 -434h-239.998v1003c-128.667 8.66699 -226.5 50 -293.5 124s-100.5 167.667 -100.5 281c0 76 14.833 144 44.5 204s68.667 105.667 117 137s95.666 51.833 141.999 61.5s123.166 14.5 230.499 14.5h597v-261h-113v-1564h-240v1564h-144v-1564z" />
    <glyph glyph-name="cedilla" unicode="&#xb8;" horiz-adv-x="682" 
d="M346 23l-27.001 -105.999c114 -32.667 171 -92.667 171 -180c0 -56.667 -25.167 -103.334 -75.5 -140.001s-151.166 -55 -302.499 -55c-22.667 0 -47.667 0.666992 -75 2v101c92 2 148.833 8.16699 170.5 18.5s32.5 26.166 32.5 47.499c0 44.667 -40 68.334 -120 71.001
l56 241h170z" />
    <glyph glyph-name="onesuperior" unicode="&#xb9;" horiz-adv-x="682" 
d="M136 680v127h114v469h-121v127h325v-596h108v-127h-426z" />
    <glyph glyph-name="ordmasculine" unicode="&#xba;" horiz-adv-x="768" 
d="M384 805c-98 0 -177.667 28.167 -239 84.5s-92 129.5 -92 219.5c0 93.333 31.667 167.333 95 222s142 82 236 82c93.333 0 171.833 -27.167 235.5 -81.5s95.5 -128.5 95.5 -222.5c0 -90 -30.667 -163.167 -92 -219.5s-141 -84.5 -239 -84.5zM383 948c84 0 126 54 126 162
c0 106.667 -42 160 -126 160c-82.667 0 -124 -53.667 -124 -161s41.333 -161 124 -161z" />
    <glyph glyph-name="guillemotright" unicode="&#xbb;" horiz-adv-x="1110" 
d="M306 0h-295l225 484l-225 484h295l232 -484zM865 0h-295l225 484l-225 484h295l232 -484z" />
    <glyph glyph-name="onequarter" unicode="&#xbc;" horiz-adv-x="1898" 
d="M192 680v127h114v469h-121v127h325v-596h108v-127h-426zM324 0l1007 1391h179l-1007 -1391h-179zM1697 117v-117.001h-354v117h91v78h-299c-15.333 40.667 -31 73.334 -47 98.001l358 442h182v-430h79v-110h-79v-78h69zM1434 304.999v211l-174 -211h174z" />
    <glyph glyph-name="onehalf" unicode="&#xbd;" horiz-adv-x="1898" 
d="M194 680v127h114v469h-121v127h325v-596h108v-127h-426zM326 0l1007 1391h179l-1007 -1391h-179zM1697 219l-7.99902 -219.002h-549c-0.666992 19.333 -1 36 -1 50c0 58.667 16.167 112.334 48.5 161.001s80.5 98.667 144.5 150c61.333 48 101.166 83.167 119.499 105.5
s27.5 47.5 27.5 75.5c0 46 -22 69 -66 69c-54.667 0 -83.334 -50 -86.001 -150l-176 8c1.33301 58.667 10 106 26 142s46.167 65.667 90.5 89s97.5 35 159.5 35c82 0 146.5 -19.5 193.5 -58.5s70.5 -87.167 70.5 -144.5c0 -45.333 -13.167 -83.166 -39.5 -113.499
s-76.5 -68.5 -150.5 -114.5c-71.333 -44.667 -116.666 -79.5 -135.999 -104.5s-32 -49.167 -38 -72.5h214v92h156z" />
    <glyph glyph-name="threequarters" unicode="&#xbe;" horiz-adv-x="1898" 
d="M113 909l183.002 13c0.666992 -84 32.667 -126 96 -126c27.333 0 50.166 9.16699 68.499 27.5s27.5 42.833 27.5 73.5c0 66 -35.333 99 -106 99c-10 0 -26 -0.666992 -48 -2v133c89.333 0 134 29 134 87c0 48.667 -25 73 -75 73c-50.667 0 -76 -31.333 -76 -94l-178 12
c2 68 27.5 120 76.5 156s112.833 54 191.5 54c82 0 146.333 -17.833 193 -53.5s70 -82.167 70 -139.5c0 -72.667 -38 -126 -114 -160c96 -31.333 144 -88.666 144 -171.999c0 -62.667 -25.833 -114.834 -77.5 -156.501s-123.834 -62.5 -216.501 -62.5
c-180 0 -277.667 79.333 -293 238zM323.002 0l1007 1391h179l-1007 -1391h-179zM1696 117v-117.001h-354v117h91v78h-299c-15.333 40.667 -31 73.334 -47 98.001l358 442h181v-430h80v-110h-80v-78h70zM1433 304.999v211l-174 -211h174z" />
    <glyph glyph-name="questiondown" unicode="&#xbf;" horiz-adv-x="1153" 
d="M798 982v-335h-335v335h335zM557 501l144.002 -0.00195312l28 -368c-33.333 12 -68 18 -104 18c-58.667 0 -109 -16 -151 -48s-63 -77.667 -63 -137c0 -53.333 17.5 -97.333 52.5 -132s80.5 -52 136.5 -52c59.333 0 103.666 15.667 132.999 47s44 71 44 119
c0 12.667 -1.33301 26.667 -4 42h308c0 -139.333 -47.5 -244.666 -142.5 -315.999s-214.167 -107 -357.5 -107c-160 0 -281.5 38.833 -364.5 116.5s-124.5 174.834 -124.5 291.501c0 114.667 37.167 207 111.5 277s166.166 105 275.499 105c10 0 25.333 -0.666992 46 -2z
" />
    <glyph glyph-name="Agrave" unicode="&#xc0;" horiz-adv-x="1430" 
d="M1432 235v-235h-684v235h178l-66 239h-361l-74 -239h186v-235h-616v235h172l271 921h-185v235h908v-235h-187l292 -921h166zM803 678l-116 419l-125 -419h241zM813 1524h-165l-363 318h375z" />
    <glyph glyph-name="Aacute" unicode="&#xc1;" horiz-adv-x="1430" 
d="M1432 235v-235h-684v235h178l-66 239h-361l-74 -239h186v-235h-616v235h172l271 921h-185v235h908v-235h-187l292 -921h166zM803 678l-116 419l-125 -419h241zM614 1524l152 318h376l-364 -318h-164z" />
    <glyph glyph-name="Acircumflex" unicode="&#xc2;" horiz-adv-x="1430" 
d="M1432 235v-235h-684v235h178l-66 239h-361l-74 -239h186v-235h-616v235h172l271 921h-185v235h908v-235h-187l292 -921h166zM803 678l-116 419l-125 -419h241zM564 1858h300l243 -368h-175l-218 218l-218 -218h-175z" />
    <glyph glyph-name="Atilde" unicode="&#xc3;" horiz-adv-x="1430" 
d="M1432 235v-235h-684v235h178l-66 239h-361l-74 -239h186v-235h-616v235h172l271 921h-185v235h908v-235h-187l292 -921h166zM803 678l-116 419l-125 -419h241zM963 1858h142.002v-24c0 -78.667 -21 -148.334 -63 -209.001s-98.333 -91 -169 -91
c-26 0 -49.167 3.83301 -69.5 11.5s-57.833 25.167 -112.5 52.5c-66.667 34 -112.334 51 -137.001 51c-51.333 0 -78.333 -36 -81 -108h-150c0 100.667 23 179.334 69 236.001s99 85 159 85c40.667 0 91.667 -15.667 153 -47c90 -46.667 147.333 -70 172 -70
c22 0 41.667 10.833 59 32.5s26.666 48.5 27.999 80.5z" />
    <glyph glyph-name="Adieresis" unicode="&#xc4;" horiz-adv-x="1430" 
d="M1432 235v-235h-684v235h178l-66 239h-361l-74 -239h186v-235h-616v235h172l271 921h-185v235h908v-235h-187l292 -921h166zM803 678l-116 419l-125 -419h241zM1079 1651c0 -40 -14.167 -74.167 -42.5 -102.5s-62.166 -42.5 -101.499 -42.5c-40 0 -74.167 14 -102.5 42
s-42.5 62.333 -42.5 103c0 39.333 14.167 73.166 42.5 101.499s62.5 42.5 102.5 42.5c39.333 0 73.166 -14.167 101.499 -42.5s42.5 -62.166 42.5 -101.499zM625 1651c0 -40 -14.333 -74.166 -43 -102.499s-62.667 -42.5 -102 -42.5c-40 0 -74.167 14.167 -102.5 42.5
s-42.5 62.5 -42.5 102.5c0 39.333 14.167 73.166 42.5 101.499s62.5 42.5 102.5 42.5c39.333 0 73.333 -14 102 -42s43 -62 43 -102z" />
    <glyph glyph-name="Aring" unicode="&#xc5;" horiz-adv-x="1430" 
d="M622 1391c-56 20 -101 54.167 -135 102.5s-51 101.5 -51 159.5c0 76 27.167 141.167 81.5 195.5s119.833 81.5 196.5 81.5c76 0 141.167 -27.167 195.5 -81.5s81.5 -119.5 81.5 -195.5c0 -57.333 -16.667 -110 -50 -158s-79.333 -82.667 -138 -104h358v-235h-187
l292 -921h166v-235h-684v235h178l-66 239h-361l-74 -239h186v-235h-616v235h172l271 921h-185v235h369zM870 1653c0 42 -15.001 78.667 -45.001 110s-67 47 -111 47c-43.333 0 -80.333 -15.5 -111 -46.5s-46 -67.833 -46 -110.5c0 -43.333 15.333 -80.333 46 -111
s67.667 -46 111 -46c42.667 0 79.334 15.333 110.001 46s46 67.667 46 111zM802.999 678l-116 419l-125 -419h241z" />
    <glyph glyph-name="AE" unicode="&#xc6;" horiz-adv-x="2028" 
d="M-5 0v235h146l399 921h-208v235h1623v-440h-266v205h-417v-318h337v-236h-337v-367h417v212h266v-447h-1203v235h158v367h-335l-163 -367h163v-235h-580zM910 806v372h-91l-157 -372h248z" />
    <glyph glyph-name="Ccedilla" unicode="&#xc7;" horiz-adv-x="1599" 
d="M924 -14l-9.99902 -55c56.667 -8 101.5 -29.5 134.5 -64.5s49.5 -74.5 49.5 -118.5c0 -55.333 -25.333 -103.166 -76 -143.499s-154.667 -60.5 -312 -60.5c-25.333 0 -56.666 0.666992 -93.999 2v102c140.667 0 211 27 211 81c0 41.333 -40 64.666 -120 69.999l37 190
c-204.667 16.667 -363 91 -475 223s-168 293.333 -168 484c0 215.333 68.833 388.666 206.5 519.999s313.167 197 526.5 197c169.333 0 308.333 -43.333 417 -130v108h235v-490h-235c-66.667 176 -182.334 264 -347.001 264c-136 0 -238.833 -46.333 -308.5 -139
s-104.5 -203.667 -104.5 -333c0 -135.333 36.833 -244.833 110.5 -328.5s167.5 -125.5 281.5 -125.5c93.333 0 175 31.667 245 95s117.333 151.333 142 264l274 -131c-88.667 -295.333 -295.334 -455.666 -620.001 -480.999z" />
    <glyph glyph-name="Egrave" unicode="&#xc8;" horiz-adv-x="1366" 
d="M68 0v235h167v921h-167v235h1226v-441h-266v206h-431v-321h348v-235h-348v-365h431v208h266v-443h-1226zM852 1524h-165l-363 318h375z" />
    <glyph glyph-name="Eacute" unicode="&#xc9;" horiz-adv-x="1366" 
d="M68 0v235h167v921h-167v235h1226v-441h-266v206h-431v-321h348v-235h-348v-365h431v208h266v-443h-1226zM533 1524l152 318h376l-364 -318h-164z" />
    <glyph glyph-name="Ecircumflex" unicode="&#xca;" horiz-adv-x="1366" 
d="M68 0v235h167v921h-167v235h1226v-441h-266v206h-431v-321h348v-235h-348v-365h431v208h266v-443h-1226zM531 1858h300l243 -368h-175l-218 218l-218 -218h-175z" />
    <glyph glyph-name="Edieresis" unicode="&#xcb;" horiz-adv-x="1366" 
d="M68 0v235h167v921h-167v235h1226v-441h-266v206h-431v-321h348v-235h-348v-365h431v208h266v-443h-1226zM1053 1651c0 -40 -14.167 -74.167 -42.5 -102.5s-62.166 -42.5 -101.499 -42.5c-40 0 -74.167 14 -102.5 42s-42.5 62.333 -42.5 103
c0 39.333 14.167 73.166 42.5 101.499s62.5 42.5 102.5 42.5c39.333 0 73.166 -14.167 101.499 -42.5s42.5 -62.166 42.5 -101.499zM599 1651c0 -40 -14.333 -74.166 -43 -102.499s-62.667 -42.5 -102 -42.5c-40 0 -74.167 14.167 -102.5 42.5s-42.5 62.5 -42.5 102.5
c0 39.333 14.167 73.166 42.5 101.499s62.5 42.5 102.5 42.5c39.333 0 73.333 -14 102 -42s43 -62 43 -102z" />
    <glyph glyph-name="Igrave" unicode="&#xcc;" horiz-adv-x="874" 
d="M45 0v235h211v921h-211v235h786v-235h-213v-921h213v-235h-786zM550 1524h-165l-363 318h375z" />
    <glyph glyph-name="Iacute" unicode="&#xcd;" horiz-adv-x="874" 
d="M45 0v235h211v921h-211v235h786v-235h-213v-921h213v-235h-786zM339 1524l152 318h376l-364 -318h-164z" />
    <glyph glyph-name="Icircumflex" unicode="&#xce;" horiz-adv-x="874" 
d="M45 0v235h211v921h-211v235h786v-235h-213v-921h213v-235h-786zM281 1858h300l243 -368h-175l-218 218l-218 -218h-175z" />
    <glyph glyph-name="Idieresis" unicode="&#xcf;" horiz-adv-x="874" 
d="M45 0v235h211v921h-211v235h786v-235h-213v-921h213v-235h-786zM801 1651c0 -40 -14.167 -74.167 -42.5 -102.5s-62.166 -42.5 -101.499 -42.5c-40 0 -74.167 14 -102.5 42s-42.5 62.333 -42.5 103c0 39.333 14.167 73.166 42.5 101.499s62.5 42.5 102.5 42.5
c39.333 0 73.166 -14.167 101.499 -42.5s42.5 -62.166 42.5 -101.499zM347 1651c0 -40 -14.333 -74.166 -43 -102.499s-62.667 -42.5 -102 -42.5c-40 0 -74.167 14.167 -102.5 42.5s-42.5 62.5 -42.5 102.5c0 39.333 14.167 73.166 42.5 101.499s62.5 42.5 102.5 42.5
c39.333 0 73.333 -14 102 -42s43 -62 43 -102z" />
    <glyph glyph-name="Eth" unicode="&#xd0;" horiz-adv-x="1642" 
d="M259 602l-211.003 0.00292969v187h211v367h-211v235h659c138.667 0 250.334 -8.5 335.001 -25.5s165.667 -54.667 243 -113s139.333 -136.5 186 -234.5s70 -206.667 70 -326c0 -96.667 -16.333 -188.834 -49 -276.501s-73.167 -158.334 -121.5 -212.001
s-106.166 -96.334 -173.499 -128.001s-129.166 -52.167 -185.499 -61.5s-143.5 -14 -261.5 -14h-702v235h211v367zM619.997 602.003l-0.000976562 -367h87c105.333 0 188.833 13.667 250.5 41s111.167 75.5 148.5 144.5s56 159.167 56 270.5c0 106 -18.833 196 -56.5 270
s-88.667 125 -153 153s-146.166 42 -245.499 42h-87v-367h258v-187h-258z" />
    <glyph glyph-name="Ntilde" unicode="&#xd1;" horiz-adv-x="1622" 
d="M55 0v235h186v921h-186v235h583l513 -868v633h-181v235h624v-235h-195v-1166h-310l-600 1031v-786h175v-235h-609zM1074 1858h142.002v-24c0 -78.667 -21 -148.334 -63 -209.001s-98.333 -91 -169 -91c-26 0 -49.167 3.83301 -69.5 11.5s-57.833 25.167 -112.5 52.5
c-66.667 34 -112.334 51 -137.001 51c-51.333 0 -78.333 -36 -81 -108h-150c0 100.667 23 179.334 69 236.001s99 85 159 85c40.667 0 91.667 -15.667 153 -47c90 -46.667 147.333 -70 172 -70c22 0 41.667 10.833 59 32.5s26.666 48.5 27.999 80.5z" />
    <glyph glyph-name="Ograve" unicode="&#xd2;" horiz-adv-x="1749" 
d="M874 1413c240 0 428.833 -69.333 566.5 -208s206.5 -307.667 206.5 -507c0 -200 -69 -369.167 -207 -507.5s-326.667 -207.5 -566 -207.5c-248.667 0 -439.667 71.167 -573 213.5s-200 309.5 -200 501.5c0 198.667 68.5 367.5 205.5 506.5s326.167 208.5 567.5 208.5z
M874 1159c-106.667 0 -197.169 -39.999 -271.502 -119.999s-111.5 -197.333 -111.5 -352c0 -136.667 36.667 -246 110 -328s164.333 -123 273 -123c106.667 0 197.334 40.167 272.001 120.5s112 196.166 112 347.499c0 135.333 -35.667 245 -107 329
s-163.666 126 -276.999 126zM972.998 1524h-165l-363 318h375z" />
    <glyph glyph-name="Oacute" unicode="&#xd3;" horiz-adv-x="1749" 
d="M874 1413c240 0 428.833 -69.333 566.5 -208s206.5 -307.667 206.5 -507c0 -200 -69 -369.167 -207 -507.5s-326.667 -207.5 -566 -207.5c-248.667 0 -439.667 71.167 -573 213.5s-200 309.5 -200 501.5c0 198.667 68.5 367.5 205.5 506.5s326.167 208.5 567.5 208.5z
M874 1159c-106.667 0 -197.169 -39.999 -271.502 -119.999s-111.5 -197.333 -111.5 -352c0 -136.667 36.667 -246 110 -328s164.333 -123 273 -123c106.667 0 197.334 40.167 272.001 120.5s112 196.166 112 347.499c0 135.333 -35.667 245 -107 329
s-163.666 126 -276.999 126zM774.998 1524l152 318h376l-364 -318h-164z" />
    <glyph glyph-name="Ocircumflex" unicode="&#xd4;" horiz-adv-x="1749" 
d="M874 1413c240 0 428.833 -69.333 566.5 -208s206.5 -307.667 206.5 -507c0 -200 -69 -369.167 -207 -507.5s-326.667 -207.5 -566 -207.5c-248.667 0 -439.667 71.167 -573 213.5s-200 309.5 -200 501.5c0 198.667 68.5 367.5 205.5 506.5s326.167 208.5 567.5 208.5z
M874 1159c-106.667 0 -197.169 -39.999 -271.502 -119.999s-111.5 -197.333 -111.5 -352c0 -136.667 36.667 -246 110 -328s164.333 -123 273 -123c106.667 0 197.334 40.167 272.001 120.5s112 196.166 112 347.499c0 135.333 -35.667 245 -107 329
s-163.666 126 -276.999 126zM723.998 1858h300l243 -368h-175l-218 218l-218 -218h-175z" />
    <glyph glyph-name="Otilde" unicode="&#xd5;" horiz-adv-x="1749" 
d="M874 1413c240 0 428.833 -69.333 566.5 -208s206.5 -307.667 206.5 -507c0 -200 -69 -369.167 -207 -507.5s-326.667 -207.5 -566 -207.5c-248.667 0 -439.667 71.167 -573 213.5s-200 309.5 -200 501.5c0 198.667 68.5 367.5 205.5 506.5s326.167 208.5 567.5 208.5z
M874 1159c-106.667 0 -197.169 -39.999 -271.502 -119.999s-111.5 -197.333 -111.5 -352c0 -136.667 36.667 -246 110 -328s164.333 -123 273 -123c106.667 0 197.334 40.167 272.001 120.5s112 196.166 112 347.499c0 135.333 -35.667 245 -107 329
s-163.666 126 -276.999 126zM1123 1858h142.002v-24c0 -78.667 -21 -148.334 -63 -209.001s-98.333 -91 -169 -91c-26 0 -49.167 3.83301 -69.5 11.5s-57.833 25.167 -112.5 52.5c-66.667 34 -112.334 51 -137.001 51c-51.333 0 -78.333 -36 -81 -108h-150
c0 100.667 23 179.334 69 236.001s99 85 159 85c40.667 0 91.667 -15.667 153 -47c90 -46.667 147.333 -70 172 -70c22 0 41.667 10.833 59 32.5s26.666 48.5 27.999 80.5z" />
    <glyph glyph-name="Odieresis" unicode="&#xd6;" horiz-adv-x="1749" 
d="M874 1413c240 0 428.833 -69.333 566.5 -208s206.5 -307.667 206.5 -507c0 -200 -69 -369.167 -207 -507.5s-326.667 -207.5 -566 -207.5c-248.667 0 -439.667 71.167 -573 213.5s-200 309.5 -200 501.5c0 198.667 68.5 367.5 205.5 506.5s326.167 208.5 567.5 208.5z
M874 1159c-106.667 0 -197.169 -39.999 -271.502 -119.999s-111.5 -197.333 -111.5 -352c0 -136.667 36.667 -246 110 -328s164.333 -123 273 -123c106.667 0 197.334 40.167 272.001 120.5s112 196.166 112 347.499c0 135.333 -35.667 245 -107 329
s-163.666 126 -276.999 126zM1247 1651c0 -40 -14.167 -74.167 -42.5 -102.5s-62.166 -42.5 -101.499 -42.5c-40 0 -74.167 14 -102.5 42s-42.5 62.333 -42.5 103c0 39.333 14.167 73.166 42.5 101.499s62.5 42.5 102.5 42.5c39.333 0 73.166 -14.167 101.499 -42.5
s42.5 -62.166 42.5 -101.499zM792.998 1651c0 -40 -14.333 -74.166 -43 -102.499s-62.667 -42.5 -102 -42.5c-40 0 -74.167 14.167 -102.5 42.5s-42.5 62.5 -42.5 102.5c0 39.333 14.167 73.166 42.5 101.499s62.5 42.5 102.5 42.5c39.333 0 73.333 -14 102 -42
s43 -62 43 -102z" />
    <glyph glyph-name="multiply" unicode="&#xd7;" horiz-adv-x="1368" 
d="M325 1233l359 -359l359 359l176 -175l-359 -359l359 -360l-176 -175l-359 359l-359 -359l-176 175l359 360l-359 359z" />
    <glyph glyph-name="Oslash" unicode="&#xd8;" horiz-adv-x="1749" 
d="M1313 1304l121.002 138.001l112 -86l-120 -137c147.333 -139.333 221 -313 221 -521c0 -200 -69 -369.167 -207 -507.5s-326.667 -207.5 -566 -207.5c-174.667 0 -320.334 35.667 -437.001 107l-136 -155l-116 77l141 161c-150 138 -225 313.333 -225 526
c0 199.333 69 368.166 207 506.499s326.667 207.5 566 207.5c175.333 0 321.666 -36.333 438.999 -109zM1111 1073c-67.333 57.333 -146.333 86 -237 86c-108.667 0 -199.667 -40.667 -273 -122s-110 -193.333 -110 -336c0 -106 19.667 -196.333 59 -271zM1201 962.001
l-562 -641.001c69.333 -56.667 147.666 -85 234.999 -85c106.667 0 197.334 40.333 272.001 121s112 195.334 112 344.001c0 101.333 -19 188.333 -57 261z" />
    <glyph glyph-name="Ugrave" unicode="&#xd9;" horiz-adv-x="1386" 
d="M37 1156v234.999h664v-235h-137v-629c0 -84 3.5 -144.5 10.5 -181.5s25.5 -67.5 55.5 -91.5s68 -36 114 -36c47.333 0 86.666 11.333 117.999 34s51.5 51 60.5 85s13.5 103.333 13.5 208v611h-135v235h554v-235h-170v-696c0 -94.667 -5 -163.5 -15 -206.5
s-33 -85.667 -69 -128s-88.167 -76.666 -156.5 -102.999s-146.833 -39.5 -235.5 -39.5c-102.667 0 -190.167 14.5 -262.5 43.5s-126.166 67.5 -161.499 115.5s-58 95.667 -68 143s-15 128 -15 242v629h-165zM831 1524h-165l-363 318h375z" />
    <glyph glyph-name="Uacute" unicode="&#xda;" horiz-adv-x="1386" 
d="M37 1156v234.999h664v-235h-137v-629c0 -84 3.5 -144.5 10.5 -181.5s25.5 -67.5 55.5 -91.5s68 -36 114 -36c47.333 0 86.666 11.333 117.999 34s51.5 51 60.5 85s13.5 103.333 13.5 208v611h-135v235h554v-235h-170v-696c0 -94.667 -5 -163.5 -15 -206.5
s-33 -85.667 -69 -128s-88.167 -76.666 -156.5 -102.999s-146.833 -39.5 -235.5 -39.5c-102.667 0 -190.167 14.5 -262.5 43.5s-126.166 67.5 -161.499 115.5s-58 95.667 -68 143s-15 128 -15 242v629h-165zM597 1524l152 318h376l-364 -318h-164z" />
    <glyph glyph-name="Ucircumflex" unicode="&#xdb;" horiz-adv-x="1386" 
d="M37 1156v234.999h664v-235h-137v-629c0 -84 3.5 -144.5 10.5 -181.5s25.5 -67.5 55.5 -91.5s68 -36 114 -36c47.333 0 86.666 11.333 117.999 34s51.5 51 60.5 85s13.5 103.333 13.5 208v611h-135v235h554v-235h-170v-696c0 -94.667 -5 -163.5 -15 -206.5
s-33 -85.667 -69 -128s-88.167 -76.666 -156.5 -102.999s-146.833 -39.5 -235.5 -39.5c-102.667 0 -190.167 14.5 -262.5 43.5s-126.166 67.5 -161.499 115.5s-58 95.667 -68 143s-15 128 -15 242v629h-165zM546 1858h300l243 -368h-175l-218 218l-218 -218h-175z" />
    <glyph glyph-name="Udieresis" unicode="&#xdc;" horiz-adv-x="1386" 
d="M37 1156v234.999h664v-235h-137v-629c0 -84 3.5 -144.5 10.5 -181.5s25.5 -67.5 55.5 -91.5s68 -36 114 -36c47.333 0 86.666 11.333 117.999 34s51.5 51 60.5 85s13.5 103.333 13.5 208v611h-135v235h554v-235h-170v-696c0 -94.667 -5 -163.5 -15 -206.5
s-33 -85.667 -69 -128s-88.167 -76.666 -156.5 -102.999s-146.833 -39.5 -235.5 -39.5c-102.667 0 -190.167 14.5 -262.5 43.5s-126.166 67.5 -161.499 115.5s-58 95.667 -68 143s-15 128 -15 242v629h-165zM1068 1651c0 -40 -14.167 -74.167 -42.5 -102.5
s-62.166 -42.5 -101.499 -42.5c-40 0 -74.167 14 -102.5 42s-42.5 62.333 -42.5 103c0 39.333 14.167 73.166 42.5 101.499s62.5 42.5 102.5 42.5c39.333 0 73.166 -14.167 101.499 -42.5s42.5 -62.166 42.5 -101.499zM614 1651c0 -40 -14.333 -74.166 -43 -102.499
s-62.667 -42.5 -102 -42.5c-40 0 -74.167 14.167 -102.5 42.5s-42.5 62.5 -42.5 102.5c0 39.333 14.167 73.166 42.5 101.499s62.5 42.5 102.5 42.5c39.333 0 73.333 -14 102 -42s43 -62 43 -102z" />
    <glyph glyph-name="Yacute" unicode="&#xdd;" horiz-adv-x="1430" 
d="M347 0v235h195v376l-377 545h-170v235h696v-235h-137l204 -340l207 340h-143v235h613v-235h-171l-360 -545v-376h194v-235h-751zM616 1524l152 318h376l-364 -318h-164z" />
    <glyph glyph-name="Thorn" unicode="&#xde;" horiz-adv-x="1366" 
d="M794 235v-235h-733v235h177v921h-177v235h733v-235h-194v-76h194c181.333 0 315.833 -37.5 403.5 -112.5s131.5 -165.833 131.5 -272.5c0 -98 -39.833 -186.5 -119.5 -265.5s-238.5 -118.5 -476.5 -118.5h-133v-76h194zM600 532h54.001c120 0 198.5 15.5 235.5 46.5
s55.5 70.5 55.5 118.5c0 38.667 -12.167 72 -36.5 100s-52.833 45.333 -85.5 52s-84.334 10 -155.001 10h-68v-327z" />
    <glyph glyph-name="germandbls" unicode="&#xdf;" horiz-adv-x="1323" 
d="M591 223v-222.999h-543v223h161v701c0 113.333 13.5 201.833 40.5 265.5s79.167 117.167 156.5 160.5s168.666 65 273.999 65c156.667 0 275.167 -31.833 355.5 -95.5s120.5 -143.834 120.5 -240.501c0 -132 -71.333 -227.667 -214 -287c186 -58 279 -186.333 279 -385
c0 -120.667 -32 -221 -96 -301s-158.667 -120 -284 -120c-51.333 0 -101.666 10 -150.999 30v207c20.667 -8.66699 41 -13 61 -13c106 0 159 66.667 159 200c0 167.333 -73.333 252.666 -220 255.999v225c42.667 0 79.5 14.167 110.5 42.5s46.5 64.5 46.5 108.5
c0 50.667 -16.5 90 -49.5 118s-70.5 42 -112.5 42s-76.833 -12.167 -104.5 -36.5s-45.167 -55.666 -52.5 -93.999s-11 -98.5 -11 -180.5v-668h74z" />
    <glyph glyph-name="agrave" unicode="&#xe0;" horiz-adv-x="1194" 
d="M1165 223v-223.001h-465v76c-83.333 -60 -171.333 -90 -264 -90c-96 0 -178.833 27.333 -248.5 82s-104.5 128 -104.5 220c0 92.667 36.667 170.334 110 233.001s168 94 284 94c64.667 0 139 -16.333 223 -49v59c0 49.333 -16.667 89.833 -50 121.5s-78 47.5 -134 47.5
c-69.333 0 -128.666 -25.333 -177.999 -76l-249 45c72 152.667 228.333 229 469 229c93.333 0 170.666 -10.5 231.999 -31.5s107 -48.167 137 -81.5s51.167 -69.833 63.5 -109.5s18.5 -104.167 18.5 -193.5v-353h156zM700 357.999
c-74.667 46.667 -134.333 69.999 -179 69.999c-35.333 0 -67.5 -10.333 -96.5 -31s-43.5 -50.667 -43.5 -90c0 -35.333 11.667 -65.666 35 -90.999s53.333 -38 90 -38c57.333 0 122 33.667 194 101v79zM745.001 1095h-165l-363 318h375z" />
    <glyph glyph-name="aacute" unicode="&#xe1;" horiz-adv-x="1194" 
d="M1165 223v-223.001h-465v76c-83.333 -60 -171.333 -90 -264 -90c-96 0 -178.833 27.333 -248.5 82s-104.5 128 -104.5 220c0 92.667 36.667 170.334 110 233.001s168 94 284 94c64.667 0 139 -16.333 223 -49v59c0 49.333 -16.667 89.833 -50 121.5s-78 47.5 -134 47.5
c-69.333 0 -128.666 -25.333 -177.999 -76l-249 45c72 152.667 228.333 229 469 229c93.333 0 170.666 -10.5 231.999 -31.5s107 -48.167 137 -81.5s51.167 -69.833 63.5 -109.5s18.5 -104.167 18.5 -193.5v-353h156zM700 357.999
c-74.667 46.667 -134.333 69.999 -179 69.999c-35.333 0 -67.5 -10.333 -96.5 -31s-43.5 -50.667 -43.5 -90c0 -35.333 11.667 -65.666 35 -90.999s53.333 -38 90 -38c57.333 0 122 33.667 194 101v79zM452.001 1095l152 318h376l-364 -318h-164z" />
    <glyph glyph-name="acircumflex" unicode="&#xe2;" horiz-adv-x="1194" 
d="M1165 223v-223.001h-465v76c-83.333 -60 -171.333 -90 -264 -90c-96 0 -178.833 27.333 -248.5 82s-104.5 128 -104.5 220c0 92.667 36.667 170.334 110 233.001s168 94 284 94c64.667 0 139 -16.333 223 -49v59c0 49.333 -16.667 89.833 -50 121.5s-78 47.5 -134 47.5
c-69.333 0 -128.666 -25.333 -177.999 -76l-249 45c72 152.667 228.333 229 469 229c93.333 0 170.666 -10.5 231.999 -31.5s107 -48.167 137 -81.5s51.167 -69.833 63.5 -109.5s18.5 -104.167 18.5 -193.5v-353h156zM700 357.999
c-74.667 46.667 -134.333 69.999 -179 69.999c-35.333 0 -67.5 -10.333 -96.5 -31s-43.5 -50.667 -43.5 -90c0 -35.333 11.667 -65.666 35 -90.999s53.333 -38 90 -38c57.333 0 122 33.667 194 101v79zM408.001 1437h300l243 -368h-175l-218 218l-218 -218h-175z" />
    <glyph glyph-name="atilde" unicode="&#xe3;" horiz-adv-x="1194" 
d="M1165 223v-223.001h-465v76c-83.333 -60 -171.333 -90 -264 -90c-96 0 -178.833 27.333 -248.5 82s-104.5 128 -104.5 220c0 92.667 36.667 170.334 110 233.001s168 94 284 94c64.667 0 139 -16.333 223 -49v59c0 49.333 -16.667 89.833 -50 121.5s-78 47.5 -134 47.5
c-69.333 0 -128.666 -25.333 -177.999 -76l-249 45c72 152.667 228.333 229 469 229c93.333 0 170.666 -10.5 231.999 -31.5s107 -48.167 137 -81.5s51.167 -69.833 63.5 -109.5s18.5 -104.167 18.5 -193.5v-353h156zM700 357.999
c-74.667 46.667 -134.333 69.999 -179 69.999c-35.333 0 -67.5 -10.333 -96.5 -31s-43.5 -50.667 -43.5 -90c0 -35.333 11.667 -65.666 35 -90.999s53.333 -38 90 -38c57.333 0 122 33.667 194 101v79zM819.001 1404h142.002v-24c0 -78.667 -21 -148.334 -63 -209.001
s-98.333 -91 -169 -91c-26 0 -49.167 3.83301 -69.5 11.5s-57.833 25.167 -112.5 52.5c-66.667 34 -112.334 51 -137.001 51c-51.333 0 -78.333 -36 -81 -108h-150c0 100.667 23 179.334 69 236.001s99 85 159 85c40.667 0 91.667 -15.667 153 -47
c90 -46.667 147.333 -70 172 -70c22 0 41.667 10.833 59 32.5s26.666 48.5 27.999 80.5z" />
    <glyph glyph-name="adieresis" unicode="&#xe4;" horiz-adv-x="1194" 
d="M1165 223v-223.001h-465v76c-83.333 -60 -171.333 -90 -264 -90c-96 0 -178.833 27.333 -248.5 82s-104.5 128 -104.5 220c0 92.667 36.667 170.334 110 233.001s168 94 284 94c64.667 0 139 -16.333 223 -49v59c0 49.333 -16.667 89.833 -50 121.5s-78 47.5 -134 47.5
c-69.333 0 -128.666 -25.333 -177.999 -76l-249 45c72 152.667 228.333 229 469 229c93.333 0 170.666 -10.5 231.999 -31.5s107 -48.167 137 -81.5s51.167 -69.833 63.5 -109.5s18.5 -104.167 18.5 -193.5v-353h156zM700 357.999
c-74.667 46.667 -134.333 69.999 -179 69.999c-35.333 0 -67.5 -10.333 -96.5 -31s-43.5 -50.667 -43.5 -90c0 -35.333 11.667 -65.666 35 -90.999s53.333 -38 90 -38c57.333 0 122 33.667 194 101v79zM930.001 1249c0 -40 -14.167 -74.167 -42.5 -102.5
s-62.166 -42.5 -101.499 -42.5c-40 0 -74.167 14 -102.5 42s-42.5 62.333 -42.5 103c0 39.333 14.167 73.166 42.5 101.499s62.5 42.5 102.5 42.5c39.333 0 73.166 -14.167 101.499 -42.5s42.5 -62.166 42.5 -101.499zM476.001 1249c0 -40 -14.333 -74.166 -43 -102.499
s-62.667 -42.5 -102 -42.5c-40 0 -74.167 14.167 -102.5 42.5s-42.5 62.5 -42.5 102.5c0 39.333 14.167 73.166 42.5 101.499s62.5 42.5 102.5 42.5c39.333 0 73.333 -14 102 -42s43 -62 43 -102z" />
    <glyph glyph-name="aring" unicode="&#xe5;" horiz-adv-x="1194" 
d="M1165 223v-223.001h-465v76c-83.333 -60 -171.333 -90 -264 -90c-96 0 -178.833 27.333 -248.5 82s-104.5 128 -104.5 220c0 92.667 36.667 170.334 110 233.001s168 94 284 94c64.667 0 139 -16.333 223 -49v59c0 49.333 -16.667 89.833 -50 121.5s-78 47.5 -134 47.5
c-69.333 0 -128.666 -25.333 -177.999 -76l-249 45c72 152.667 228.333 229 469 229c93.333 0 170.666 -10.5 231.999 -31.5s107 -48.167 137 -81.5s51.167 -69.833 63.5 -109.5s18.5 -104.167 18.5 -193.5v-353h156zM700 357.999
c-74.667 46.667 -134.333 69.999 -179 69.999c-35.333 0 -67.5 -10.333 -96.5 -31s-43.5 -50.667 -43.5 -90c0 -35.333 11.667 -65.666 35 -90.999s53.333 -38 90 -38c57.333 0 122 33.667 194 101v79zM805.001 1267c0 -56.667 -20.167 -106 -60.5 -148
s-90.5 -63 -150.5 -63c-58 0 -107.667 20.5 -149 61.5s-62 90.833 -62 149.5c0 58 20.5 107.667 61.5 149s90.833 62 149.5 62c58 0 107.667 -20.667 149 -62s62 -91 62 -149zM703.001 1267c0 28.667 -10.333 53.832 -31 75.499s-46.667 32.5 -78 32.5
c-30 0 -55.5 -10.667 -76.5 -32s-31.5 -46.666 -31.5 -75.999c0 -30 10.5 -55.667 31.5 -77s46.5 -32 76.5 -32s55.667 10.667 77 32s32 47 32 77z" />
    <glyph glyph-name="ae" unicode="&#xe6;" horiz-adv-x="1812" 
d="M1492 297l239.999 -74c-45.333 -78.667 -111.166 -139.167 -197.499 -181.5s-179.166 -63.5 -278.499 -63.5c-107.333 0 -197.166 20.667 -269.499 62s-127.833 88.333 -166.5 141c-134 -135.333 -264 -203 -390 -203c-93.333 0 -174.333 28.333 -243 85
s-103 132.334 -103 227.001c0 100.667 37.167 180.167 111.5 238.5s167.166 87.5 278.499 87.5c85.333 0 169 -16 251 -48c0.666992 12.667 1 24 1 34c0 59.333 -19.333 105.666 -58 138.999s-87.334 50 -146.001 50c-66.667 0 -131.334 -24 -194.001 -72l-245 46
c78 151.333 241 227 489 227c152.667 0 273.667 -32 363 -96c80 64 177 96 291 96c172.667 0 302.667 -51.333 390 -154s131 -229 131 -379c0 -8 -0.333008 -19.667 -1 -35h-710c4 -68.667 27.333 -125.5 70 -170.5s95.334 -67.5 158.001 -67.5c77.333 0 153.333 37 228 111
zM1433 595c-10 56.667 -33 102.333 -69 137s-81.667 52 -137 52c-52 0 -95.333 -17.5 -130 -52.5s-55 -80.5 -61 -136.5h397zM724.999 358.999c-78 48.667 -142.667 73.001 -194 73.001c-39.333 0 -74.666 -12.5 -105.999 -37.5s-47 -57.833 -47 -98.5
c0 -34.667 12 -62.834 36 -84.501s51.333 -32.5 82 -32.5c67.333 0 143.666 36 228.999 108v72z" />
    <glyph glyph-name="ccedilla" unicode="&#xe7;" horiz-adv-x="1153" 
d="M668 -21l-14.999 -62c114 -32.667 171 -92.667 171 -180c0 -64 -28.333 -112.5 -85 -145.5s-154.334 -49.5 -293.001 -49.5c-21.333 0 -46.333 0.666992 -75 2v101c92 2 148.833 8.16699 170.5 18.5s32.5 26.166 32.5 47.499c0 43.333 -40 67 -120 71l49 208
c-140.667 26 -246.667 83.833 -318 173.5s-107 196.834 -107 321.501c0 154 49.167 275.5 147.5 364.5s212.833 133.5 343.5 133.5c104.667 0 202.334 -31.667 293.001 -95v80h211v-393h-220c-50 108 -128.333 162 -235 162c-68 0 -122.167 -22.5 -162.5 -67.5
s-60.5 -105.167 -60.5 -180.5c0 -91.333 21.333 -158.833 64 -202.5s95 -65.5 157 -65.5c49.333 0 96 14.167 140 42.5s79.333 65.833 106 112.5l240 -106c-84.667 -185.333 -229.334 -282.333 -434.001 -291z" />
    <glyph glyph-name="egrave" unicode="&#xe8;" horiz-adv-x="1174" 
d="M853 292l239.999 -77c-100.667 -158 -258 -237 -472 -237c-170.667 0 -303.834 45 -399.501 135s-143.5 208.333 -143.5 355c0 149.333 49.333 274 148 374s224.334 150 377.001 150c110.667 0 206.334 -28 287.001 -84s136.667 -125.667 168 -209s47 -176.333 47 -279
h-721c4.66699 -88 32.5 -150.333 83.5 -187s104.833 -55 161.5 -55c74 0 148.667 38 224 114zM793.999 592c-7.33301 54 -28.5 100 -63.5 138s-82.833 57 -143.5 57c-113.333 0 -179.333 -65 -198 -195h405zM745.999 1095h-165l-363 318h375z" />
    <glyph glyph-name="eacute" unicode="&#xe9;" horiz-adv-x="1174" 
d="M853 292l239.999 -77c-100.667 -158 -258 -237 -472 -237c-170.667 0 -303.834 45 -399.501 135s-143.5 208.333 -143.5 355c0 149.333 49.333 274 148 374s224.334 150 377.001 150c110.667 0 206.334 -28 287.001 -84s136.667 -125.667 168 -209s47 -176.333 47 -279
h-721c4.66699 -88 32.5 -150.333 83.5 -187s104.833 -55 161.5 -55c74 0 148.667 38 224 114zM793.999 592c-7.33301 54 -28.5 100 -63.5 138s-82.833 57 -143.5 57c-113.333 0 -179.333 -65 -198 -195h405zM437.999 1095l152 318h376l-364 -318h-164z" />
    <glyph glyph-name="ecircumflex" unicode="&#xea;" horiz-adv-x="1174" 
d="M853 292l239.999 -77c-100.667 -158 -258 -237 -472 -237c-170.667 0 -303.834 45 -399.501 135s-143.5 208.333 -143.5 355c0 149.333 49.333 274 148 374s224.334 150 377.001 150c110.667 0 206.334 -28 287.001 -84s136.667 -125.667 168 -209s47 -176.333 47 -279
h-721c4.66699 -88 32.5 -150.333 83.5 -187s104.833 -55 161.5 -55c74 0 148.667 38 224 114zM793.999 592c-7.33301 54 -28.5 100 -63.5 138s-82.833 57 -143.5 57c-113.333 0 -179.333 -65 -198 -195h405zM441.999 1437h300l243 -368h-175l-218 218l-218 -218h-175z" />
    <glyph glyph-name="edieresis" unicode="&#xeb;" horiz-adv-x="1174" 
d="M853 292l239.999 -77c-100.667 -158 -258 -237 -472 -237c-170.667 0 -303.834 45 -399.501 135s-143.5 208.333 -143.5 355c0 149.333 49.333 274 148 374s224.334 150 377.001 150c110.667 0 206.334 -28 287.001 -84s136.667 -125.667 168 -209s47 -176.333 47 -279
h-721c4.66699 -88 32.5 -150.333 83.5 -187s104.833 -55 161.5 -55c74 0 148.667 38 224 114zM793.999 592c-7.33301 54 -28.5 100 -63.5 138s-82.833 57 -143.5 57c-113.333 0 -179.333 -65 -198 -195h405zM963.999 1249c0 -40 -14.167 -74.167 -42.5 -102.5
s-62.166 -42.5 -101.499 -42.5c-40 0 -74.167 14 -102.5 42s-42.5 62.333 -42.5 103c0 39.333 14.167 73.166 42.5 101.499s62.5 42.5 102.5 42.5c39.333 0 73.166 -14.167 101.499 -42.5s42.5 -62.166 42.5 -101.499zM509.999 1249c0 -40 -14.333 -74.166 -43 -102.499
s-62.667 -42.5 -102 -42.5c-40 0 -74.167 14.167 -102.5 42.5s-42.5 62.5 -42.5 102.5c0 39.333 14.167 73.166 42.5 101.499s62.5 42.5 102.5 42.5c39.333 0 73.333 -14 102 -42s43 -62 43 -102z" />
    <glyph glyph-name="igrave" unicode="&#xec;" 
d="M86 744v224h456v-745h144v-223h-600v223h147v521h-147zM540 1095h-165l-363 318h375z" />
    <glyph glyph-name="iacute" unicode="&#xed;" 
d="M86 744v224h456v-745h144v-223h-600v223h147v521h-147zM232 1095l152 318h376l-364 -318h-164z" />
    <glyph glyph-name="icircumflex" unicode="&#xee;" 
d="M86 744v224h456v-745h144v-223h-600v223h147v521h-147zM213 1437h300l243 -368h-175l-218 218l-218 -218h-175z" />
    <glyph glyph-name="idieresis" unicode="&#xef;" 
d="M86 744v224h456v-745h144v-223h-600v223h147v521h-147zM734 1249c0 -40 -14.167 -74.167 -42.5 -102.5s-62.166 -42.5 -101.499 -42.5c-40 0 -74.167 14 -102.5 42s-42.5 62.333 -42.5 103c0 39.333 14.167 73.166 42.5 101.499s62.5 42.5 102.5 42.5
c39.333 0 73.166 -14.167 101.499 -42.5s42.5 -62.166 42.5 -101.499zM280 1249c0 -40 -14.333 -74.166 -43 -102.499s-62.667 -42.5 -102 -42.5c-40 0 -74.167 14.167 -102.5 42.5s-42.5 62.5 -42.5 102.5c0 39.333 14.167 73.166 42.5 101.499s62.5 42.5 102.5 42.5
c39.333 0 73.333 -14 102 -42s43 -62 43 -102z" />
    <glyph glyph-name="eth" unicode="&#xf0;" horiz-adv-x="1174" 
d="M320 1415l304.999 -0.000976562c23.333 -18.667 44.333 -36.667 63 -54l177 54l40 -120l-115 -37c99.333 -105.333 176 -223.166 230 -353.499s81 -254.833 81 -373.5c0 -142 -44.333 -269.667 -133 -383s-221.667 -170 -399 -170c-91.333 0 -172.166 18.5 -242.499 55.5
s-130.166 94.5 -179.499 172.5s-74 169.667 -74 275c0 150.667 45 273.5 135 368.5s197.667 142.5 323 142.5c64.667 0 124 -15.667 178 -47c-46 86.667 -99.333 165.667 -160 237l-248 -80l-39 119l198 67c-32.667 38 -79.334 80.333 -140.001 127zM590.999 752.999
c-56.667 0 -104.5 -23.167 -143.5 -69.5s-58.5 -113.166 -58.5 -200.499c0 -79.333 16 -143.333 48 -192s79.333 -73 142 -73c62 0 112.167 24.667 150.5 74s57.5 119 57.5 209c0 79.333 -18.667 141.166 -56 185.499s-84 66.5 -140 66.5z" />
    <glyph glyph-name="ntilde" unicode="&#xf1;" horiz-adv-x="1280" 
d="M73 744v224h457v-90c93.333 70 188 105 284 105c195.333 0 293 -124.667 293 -374v-386h146v-223h-455v586c0 52.667 -7.16699 88.667 -21.5 108s-37.833 29 -70.5 29c-57.333 0 -116 -21 -176 -63v-437h149v-223h-606v223h148v521h-148zM912 1404h142.002v-24
c0 -78.667 -21 -148.334 -63 -209.001s-98.333 -91 -169 -91c-26 0 -49.167 3.83301 -69.5 11.5s-57.833 25.167 -112.5 52.5c-66.667 34 -112.334 51 -137.001 51c-51.333 0 -78.333 -36 -81 -108h-150c0 100.667 23 179.334 69 236.001s99 85 159 85
c40.667 0 91.667 -15.667 153 -47c90 -46.667 147.333 -70 172 -70c22 0 41.667 10.833 59 32.5s26.666 48.5 27.999 80.5z" />
    <glyph glyph-name="ograve" unicode="&#xf2;" horiz-adv-x="1174" 
d="M587 -22c-142.667 0 -263.167 45.167 -361.5 135.5s-147.5 214.166 -147.5 371.499s49.167 281.166 147.5 371.499s218.833 135.5 361.5 135.5c143.333 0 264 -45.167 362 -135.5s147 -214.166 147 -371.499c0 -155.333 -48.5 -278.666 -145.5 -369.999
s-218.167 -137 -363.5 -137zM586 218c57.333 0 103.833 22 139.5 66s53.5 113 53.5 207c0 82.667 -17.333 147.167 -52 193.5s-81.667 69.5 -141 69.5c-127.333 0 -191 -92 -191 -276c0 -75.333 15.833 -137.5 47.5 -186.5s79.5 -73.5 143.5 -73.5zM741 1095h-165l-363 318
h375z" />
    <glyph glyph-name="oacute" unicode="&#xf3;" horiz-adv-x="1174" 
d="M587 -22c-142.667 0 -263.167 45.167 -361.5 135.5s-147.5 214.166 -147.5 371.499s49.167 281.166 147.5 371.499s218.833 135.5 361.5 135.5c143.333 0 264 -45.167 362 -135.5s147 -214.166 147 -371.499c0 -155.333 -48.5 -278.666 -145.5 -369.999
s-218.167 -137 -363.5 -137zM586 218c57.333 0 103.833 22 139.5 66s53.5 113 53.5 207c0 82.667 -17.333 147.167 -52 193.5s-81.667 69.5 -141 69.5c-127.333 0 -191 -92 -191 -276c0 -75.333 15.833 -137.5 47.5 -186.5s79.5 -73.5 143.5 -73.5zM433 1095l152 318h376
l-364 -318h-164z" />
    <glyph glyph-name="ocircumflex" unicode="&#xf4;" horiz-adv-x="1174" 
d="M587 -22c-142.667 0 -263.167 45.167 -361.5 135.5s-147.5 214.166 -147.5 371.499s49.167 281.166 147.5 371.499s218.833 135.5 361.5 135.5c143.333 0 264 -45.167 362 -135.5s147 -214.166 147 -371.499c0 -155.333 -48.5 -278.666 -145.5 -369.999
s-218.167 -137 -363.5 -137zM586 218c57.333 0 103.833 22 139.5 66s53.5 113 53.5 207c0 82.667 -17.333 147.167 -52 193.5s-81.667 69.5 -141 69.5c-127.333 0 -191 -92 -191 -276c0 -75.333 15.833 -137.5 47.5 -186.5s79.5 -73.5 143.5 -73.5zM437 1437h300l243 -368
h-175l-218 218l-218 -218h-175z" />
    <glyph glyph-name="otilde" unicode="&#xf5;" horiz-adv-x="1174" 
d="M587 -22c-142.667 0 -263.167 45.167 -361.5 135.5s-147.5 214.166 -147.5 371.499s49.167 281.166 147.5 371.499s218.833 135.5 361.5 135.5c143.333 0 264 -45.167 362 -135.5s147 -214.166 147 -371.499c0 -155.333 -48.5 -278.666 -145.5 -369.999
s-218.167 -137 -363.5 -137zM586 218c57.333 0 103.833 22 139.5 66s53.5 113 53.5 207c0 82.667 -17.333 147.167 -52 193.5s-81.667 69.5 -141 69.5c-127.333 0 -191 -92 -191 -276c0 -75.333 15.833 -137.5 47.5 -186.5s79.5 -73.5 143.5 -73.5zM836 1404h142.002v-24
c0 -78.667 -21 -148.334 -63 -209.001s-98.333 -91 -169 -91c-26 0 -49.167 3.83301 -69.5 11.5s-57.833 25.167 -112.5 52.5c-66.667 34 -112.334 51 -137.001 51c-51.333 0 -78.333 -36 -81 -108h-150c0 100.667 23 179.334 69 236.001s99 85 159 85
c40.667 0 91.667 -15.667 153 -47c90 -46.667 147.333 -70 172 -70c22 0 41.667 10.833 59 32.5s26.666 48.5 27.999 80.5z" />
    <glyph glyph-name="odieresis" unicode="&#xf6;" horiz-adv-x="1174" 
d="M587 -22c-142.667 0 -263.167 45.167 -361.5 135.5s-147.5 214.166 -147.5 371.499s49.167 281.166 147.5 371.499s218.833 135.5 361.5 135.5c143.333 0 264 -45.167 362 -135.5s147 -214.166 147 -371.499c0 -155.333 -48.5 -278.666 -145.5 -369.999
s-218.167 -137 -363.5 -137zM586 218c57.333 0 103.833 22 139.5 66s53.5 113 53.5 207c0 82.667 -17.333 147.167 -52 193.5s-81.667 69.5 -141 69.5c-127.333 0 -191 -92 -191 -276c0 -75.333 15.833 -137.5 47.5 -186.5s79.5 -73.5 143.5 -73.5zM959 1249
c0 -40 -14.167 -74.167 -42.5 -102.5s-62.166 -42.5 -101.499 -42.5c-40 0 -74.167 14 -102.5 42s-42.5 62.333 -42.5 103c0 39.333 14.167 73.166 42.5 101.499s62.5 42.5 102.5 42.5c39.333 0 73.166 -14.167 101.499 -42.5s42.5 -62.166 42.5 -101.499zM505 1249
c0 -40 -14.333 -74.166 -43 -102.499s-62.667 -42.5 -102 -42.5c-40 0 -74.167 14.167 -102.5 42.5s-42.5 62.5 -42.5 102.5c0 39.333 14.167 73.166 42.5 101.499s62.5 42.5 102.5 42.5c39.333 0 73.333 -14 102 -42s43 -62 43 -102z" />
    <glyph glyph-name="divide" unicode="&#xf7;" horiz-adv-x="1368" 
d="M684 1263c40 0 74.333 -14.167 103 -42.5s43 -62.833 43 -103.5c0 -40 -14.167 -74.167 -42.5 -102.5s-62.833 -42.5 -103.5 -42.5c-40 0 -74.167 14 -102.5 42s-42.5 62.333 -42.5 103c0 42 14.5 76.833 43.5 104.5s62.833 41.5 101.5 41.5zM122 816h1124v-235h-1124
v235zM684 426c39.333 0 73.5 -13.833 102.5 -41.5s43.5 -62.5 43.5 -104.5c0 -40.667 -14.333 -75.167 -43 -103.5s-63 -42.5 -103 -42.5c-39.333 0 -73.333 14.167 -102 42.5s-43 62.833 -43 103.5c0 42 14.5 76.833 43.5 104.5s62.833 41.5 101.5 41.5z" />
    <glyph glyph-name="oslash" unicode="&#xf8;" horiz-adv-x="1174" 
d="M971 835c83.333 -87.333 125 -204 125 -350c0 -156 -48.5 -279.5 -145.5 -370.5s-218.167 -136.5 -363.5 -136.5c-105.333 0 -200.333 25.667 -285 77l-122 -142l-95 78l121 142c-85.333 87.333 -128 201.666 -128 342.999c0 162.667 48.667 289.334 146 380.001
s218.333 136 363 136c109.333 0 205 -26 287 -78l122 143l94 -83zM409 370l292 342.999c-32.667 27.333 -71 41 -115 41c-59.333 0 -106 -23.167 -140 -69.5s-51 -111.166 -51 -194.499c0 -40.667 4.66699 -80.667 14 -120zM767 596.999l-292 -341
c30.667 -25.333 67.667 -38 111 -38c59.333 0 106.333 22.667 141 68s52 110.333 52 195c0 42 -4 80.667 -12 116z" />
    <glyph glyph-name="ugrave" unicode="&#xf9;" horiz-adv-x="1280" 
d="M1230 223l-0.000976562 -222.999h-465v82c-92.667 -64 -186.667 -96 -282 -96c-93.333 0 -166.5 26.167 -219.5 78.5s-79.5 126.166 -79.5 221.499v458h-145v224h453v-603c0 -48 7.33301 -80.833 22 -98.5s41.334 -26.5 80.001 -26.5c52 0 109 23 171 69v435h-149v224
h458v-745h156zM788.999 1095h-165l-363 318h375z" />
    <glyph glyph-name="uacute" unicode="&#xfa;" horiz-adv-x="1280" 
d="M1230 223l-0.000976562 -222.999h-465v82c-92.667 -64 -186.667 -96 -282 -96c-93.333 0 -166.5 26.167 -219.5 78.5s-79.5 126.166 -79.5 221.499v458h-145v224h453v-603c0 -48 7.33301 -80.833 22 -98.5s41.334 -26.5 80.001 -26.5c52 0 109 23 171 69v435h-149v224
h458v-745h156zM480.999 1095l152 318h376l-364 -318h-164z" />
    <glyph glyph-name="ucircumflex" unicode="&#xfb;" horiz-adv-x="1280" 
d="M1230 223l-0.000976562 -222.999h-465v82c-92.667 -64 -186.667 -96 -282 -96c-93.333 0 -166.5 26.167 -219.5 78.5s-79.5 126.166 -79.5 221.499v458h-145v224h453v-603c0 -48 7.33301 -80.833 22 -98.5s41.334 -26.5 80.001 -26.5c52 0 109 23 171 69v435h-149v224
h458v-745h156zM483.999 1437h300l243 -368h-175l-218 218l-218 -218h-175z" />
    <glyph glyph-name="udieresis" unicode="&#xfc;" horiz-adv-x="1280" 
d="M1230 223l-0.000976562 -222.999h-465v82c-92.667 -64 -186.667 -96 -282 -96c-93.333 0 -166.5 26.167 -219.5 78.5s-79.5 126.166 -79.5 221.499v458h-145v224h453v-603c0 -48 7.33301 -80.833 22 -98.5s41.334 -26.5 80.001 -26.5c52 0 109 23 171 69v435h-149v224
h458v-745h156zM1007 1249c0 -40 -14.167 -74.167 -42.5 -102.5s-62.166 -42.5 -101.499 -42.5c-40 0 -74.167 14 -102.5 42s-42.5 62.333 -42.5 103c0 39.333 14.167 73.166 42.5 101.499s62.5 42.5 102.5 42.5c39.333 0 73.166 -14.167 101.499 -42.5
s42.5 -62.166 42.5 -101.499zM552.999 1249c0 -40 -14.333 -74.166 -43 -102.499s-62.667 -42.5 -102 -42.5c-40 0 -74.167 14.167 -102.5 42.5s-42.5 62.5 -42.5 102.5c0 39.333 14.167 73.166 42.5 101.499s62.5 42.5 102.5 42.5c39.333 0 73.333 -14 102 -42
s43 -62 43 -102z" />
    <glyph glyph-name="yacute" unicode="&#xfd;" horiz-adv-x="1217" 
d="M253 -437v223h186l64 173l-352 785h-140v224h580v-224h-114l161 -435l172 435h-126v224h509v-224h-138l-464 -1181h-338zM448 1095l152 318h376l-364 -318h-164z" />
    <glyph glyph-name="thorn" unicode="&#xfe;" horiz-adv-x="1280" 
d="M699 -214l-0.000976562 -223h-666v223h163v1382h-136v223h445v-544c86 90.667 182 136 288 136c128 0 228.833 -50.833 302.5 -152.5s110.5 -220.167 110.5 -355.5c0 -143.333 -38 -262 -114 -356s-177.333 -141 -304 -141c-103.333 0 -197.666 40.333 -282.999 121v-313
h194zM888.999 481c0 84.667 -17.499 148.001 -52.499 190.001s-81.167 63 -138.5 63c-58 0 -105.167 -21.5 -141.5 -64.5s-54.5 -107.167 -54.5 -192.5c0 -76.667 18 -138.334 54 -185.001s84 -70 144 -70c55.333 0 100.666 21 135.999 63s53 107.333 53 196z" />
    <glyph glyph-name="ydieresis" unicode="&#xff;" horiz-adv-x="1217" 
d="M253 -437v223h186l64 173l-352 785h-140v224h580v-224h-114l161 -435l172 435h-126v224h509v-224h-138l-464 -1181h-338zM974 1249c0 -40 -14.167 -74.167 -42.5 -102.5s-62.166 -42.5 -101.499 -42.5c-40 0 -74.167 14 -102.5 42s-42.5 62.333 -42.5 103
c0 39.333 14.167 73.166 42.5 101.499s62.5 42.5 102.5 42.5c39.333 0 73.166 -14.167 101.499 -42.5s42.5 -62.166 42.5 -101.499zM520 1249c0 -40 -14.333 -74.166 -43 -102.499s-62.667 -42.5 -102 -42.5c-40 0 -74.167 14.167 -102.5 42.5s-42.5 62.5 -42.5 102.5
c0 39.333 14.167 73.166 42.5 101.499s62.5 42.5 102.5 42.5c39.333 0 73.333 -14 102 -42s43 -62 43 -102z" />
    <glyph glyph-name="dotlessi" unicode="&#x131;" 
d="M86 744v224h456v-745h144v-223h-600v223h147v521h-147z" />
    <glyph glyph-name="OE" unicode="&#x152;" horiz-adv-x="2068" 
d="M1995 444l-0.00292969 -443.999h-1075c-121.333 0 -211.166 4 -269.499 12s-124.166 29.167 -197.499 63.5s-137.5 82 -192.5 143s-95.833 130.667 -122.5 209s-40 165.166 -40 260.499c0 136.667 24.833 256 74.5 358s108.334 176.833 176.001 224.5
s145.5 79.667 233.5 96s214 24.5 378 24.5h1035v-444h-265v209h-401v-322h322v-235h-322v-364h401v209h265zM966.997 1156c-110 0 -187 -4.16699 -231 -12.5s-87.333 -31.833 -130 -70.5s-75 -89.334 -97 -152.001s-33 -137 -33 -223c0 -118.667 23.667 -215 71 -289
s98 -120.667 152 -140s143.333 -30.666 268 -33.999v921z" />
    <glyph glyph-name="oe" unicode="&#x153;" horiz-adv-x="2068" 
d="M1745 296l240.999 -73.001c-30.667 -68 -89.834 -125.833 -177.501 -173.5s-194.5 -71.5 -320.5 -71.5c-188.667 0 -331.667 46.333 -429 139c-115.333 -92.667 -256.333 -139 -423 -139c-175.333 0 -312.166 49.333 -410.499 148s-147.5 217 -147.5 355
c0 141.333 50 261.833 150 361.5s237.667 149.5 413 149.5c157.333 0 296.666 -48.333 417.999 -145c93.333 96.667 223.333 145 390 145c160 0 291.667 -52.167 395 -156.5s155 -226.166 155 -365.499c0 -10.667 -0.333008 -26.667 -1 -48h-785
c5.33301 -72 33.833 -129.167 85.5 -171.5s114.834 -63.5 189.501 -63.5c112.667 0 198.334 36.333 257.001 109zM1686 592.999c-13.333 60.667 -42.1689 107.834 -86.502 141.501s-95.166 50.5 -152.499 50.5c-58 0 -108.667 -18.333 -152 -55
s-67.666 -82.334 -72.999 -137.001h464zM893.996 491.999c0 84.667 -23.499 154.5 -70.499 209.5s-105.833 82.5 -176.5 82.5c-72.667 0 -132.834 -28.667 -180.501 -86s-71.5 -127 -71.5 -209c0 -79.333 22.5 -150.166 67.5 -212.499s106.5 -93.5 184.5 -93.5
c78.667 0 139.5 30.667 182.5 92s64.5 133.666 64.5 216.999z" />
    <glyph glyph-name="Scaron" unicode="&#x160;" horiz-adv-x="1087" 
d="M97 0l-0.000976562 474h236c2.66699 -86.667 25.334 -150.5 68.001 -191.5s91.334 -61.5 146.001 -61.5c42.667 0 78.667 14.833 108 44.5s44 64.5 44 104.5c0 42.667 -14.333 78.5 -43 107.5s-81 62.167 -157 99.5c-160.667 78 -269.834 146.667 -327.501 206
s-86.5 139.333 -86.5 240c0 121.333 38 215.333 114 282s162.333 100 259 100c110.667 0 196.334 -43 257.001 -129v115h235v-423h-235c-7.33301 65.333 -29.833 115.833 -67.5 151.5s-81.5 53.5 -131.5 53.5c-38.667 0 -71.334 -10.333 -98.001 -31s-40 -47.667 -40 -81
c0 -28.667 11 -55.834 33 -81.501s86.333 -62.167 193 -109.5c102.667 -46 181.5 -87.5 236.5 -124.5s98.5 -85 130.5 -144s48 -127.167 48 -204.5c0 -137.333 -40 -240.666 -120 -309.999s-174.667 -104 -284 -104c-122 0 -216 45 -282 135v-118h-236zM701.999 1490h-300
l-243 368h175l218 -218l218 218h175z" />
    <glyph glyph-name="scaron" unicode="&#x161;" horiz-adv-x="1044" 
d="M119 0l0.00195312 333.004h226c2 -45.333 23 -81.5 63 -108.5s89.333 -40.5 148 -40.5c50.667 0 90.167 8.83301 118.5 26.5s42.5 40.167 42.5 67.5c0 25.333 -13 45 -39 59s-77 27.333 -153 40c-156.667 25.333 -269.667 63.833 -339 115.5s-104 120.167 -104 205.5
c0 80 32.667 147.5 98 202.5s152 82.5 260 82.5c87.333 0 169 -16 245 -48v33h221v-281h-221c-20 67.333 -90.667 101 -212 101c-89.333 0 -134 -24.667 -134 -74c0 -18.667 9.16699 -32.834 27.5 -42.501s65.166 -21.167 140.499 -34.5
c119.333 -20.667 208.666 -41.334 267.999 -62.001s106.833 -54.834 142.5 -102.501s53.5 -104.834 53.5 -171.501c0 -94.667 -33.833 -172.167 -101.5 -232.5s-163.5 -90.5 -287.5 -90.5c-115.333 0 -194.333 23.333 -237 70v-48h-226zM676.002 1069h-300l-243 368h175
l218 -218l218 218h175z" />
    <glyph glyph-name="Ydieresis" unicode="&#x178;" horiz-adv-x="1430" 
d="M347 0v235h195v376l-377 545h-170v235h696v-235h-137l204 -340l207 340h-143v235h613v-235h-171l-360 -545v-376h194v-235h-751zM1087 1651c0 -40 -14.167 -74.167 -42.5 -102.5s-62.166 -42.5 -101.499 -42.5c-40 0 -74.167 14 -102.5 42s-42.5 62.333 -42.5 103
c0 39.333 14.167 73.166 42.5 101.499s62.5 42.5 102.5 42.5c39.333 0 73.166 -14.167 101.499 -42.5s42.5 -62.166 42.5 -101.499zM633 1651c0 -40 -14.333 -74.166 -43 -102.499s-62.667 -42.5 -102 -42.5c-40 0 -74.167 14.167 -102.5 42.5s-42.5 62.5 -42.5 102.5
c0 39.333 14.167 73.166 42.5 101.499s62.5 42.5 102.5 42.5c39.333 0 73.333 -14 102 -42s43 -62 43 -102z" />
    <glyph glyph-name="florin" unicode="&#x192;" horiz-adv-x="1130" 
d="M276 851l36.002 211.001h202l16 89c18.667 100 36.5 169.167 53.5 207.5s48.5 70 94.5 95s107.333 37.5 184 37.5c98.667 0 192 -13.667 280 -41l-54 -226c-61.333 18.667 -114.666 28 -159.999 28c-36.667 0 -63.334 -8.66699 -80.001 -26s-30.334 -53.333 -41.001 -108
l-11 -56h208l-37 -211h-205l-173 -978c-13.333 -79.333 -31.333 -139 -54 -179s-56.334 -70.833 -101.001 -92.5s-102.667 -32.5 -174 -32.5c-104 0 -197.333 13.333 -280 40l57 221c71.333 -15.333 127.333 -23 168 -23s68.5 11.167 83.5 33.5s28.167 68.166 39.5 137.499
l150 873h-202z" />
    <glyph glyph-name="circumflex" unicode="&#x2c6;" horiz-adv-x="682" 
d="M191 1437h300l243 -368h-175l-218 218l-218 -218h-175z" />
    <glyph glyph-name="caron" unicode="&#x2c7;" horiz-adv-x="682" 
d="M491 1069h-300l-243 368h175l218 -218l218 218h175z" />
    <glyph glyph-name="uni02C9" unicode="&#x2c9;" horiz-adv-x="682" 
d="M-81 1111v207h844v-207h-844z" />
    <glyph glyph-name="breve" unicode="&#x2d8;" horiz-adv-x="682" 
d="M514 1432h214.999c-9.33301 -100 -51.833 -184.667 -127.5 -254s-162.5 -104 -260.5 -104c-97.333 0 -184 34.667 -260 104s-118.667 154 -128 254h216c28 -97.333 85.333 -146 172 -146s144.334 48.667 173.001 146z" />
    <glyph glyph-name="dotaccent" unicode="&#x2d9;" horiz-adv-x="682" 
d="M486 1249c0 -39.333 -14 -73.332 -42 -101.999s-62.333 -43 -103 -43c-40 0 -74.167 14.167 -102.5 42.5s-42.5 62.5 -42.5 102.5c0 39.333 14.167 73.166 42.5 101.499s62.5 42.5 102.5 42.5c41.333 0 75.833 -14.5 103.5 -43.5s41.5 -62.5 41.5 -100.5z" />
    <glyph glyph-name="ring" unicode="&#x2da;" horiz-adv-x="682" 
d="M552 1267c0 -56.667 -20.167 -106 -60.5 -148s-90.5 -63 -150.5 -63c-58 0 -107.667 20.5 -149 61.5s-62 90.833 -62 149.5c0 58 20.5 107.667 61.5 149s90.833 62 149.5 62c58 0 107.667 -20.667 149 -62s62 -91 62 -149zM450 1267c0 28.667 -10.333 53.832 -31 75.499
s-46.667 32.5 -78 32.5c-30 0 -55.5 -10.667 -76.5 -32s-31.5 -46.666 -31.5 -75.999c0 -30 10.5 -55.667 31.5 -77s46.5 -32 76.5 -32s55.667 10.667 77 32s32 47 32 77z" />
    <glyph glyph-name="ogonek" unicode="&#x2db;" horiz-adv-x="682" 
d="M195 0l185 -0.000976562c-25.333 -48.667 -38 -92 -38 -130c0 -25.333 9 -48.666 27 -69.999s42.667 -32 74 -32c32.667 0 70.667 6.66699 114 20v-225c-50.667 -14.667 -99 -22 -145 -22c-82 0 -149.5 26 -202.5 78s-79.5 113.667 -79.5 185c0 68 21.667 133.333 65 196
z" />
    <glyph glyph-name="tilde" unicode="&#x2dc;" horiz-adv-x="682" 
d="M590 1404h142.002v-24c0 -78.667 -21 -148.334 -63 -209.001s-98.333 -91 -169 -91c-26 0 -49.167 3.83301 -69.5 11.5s-57.833 25.167 -112.5 52.5c-66.667 34 -112.334 51 -137.001 51c-51.333 0 -78.333 -36 -81 -108h-150c0 100.667 23 179.334 69 236.001
s99 85 159 85c40.667 0 91.667 -15.667 153 -47c90 -46.667 147.333 -70 172 -70c22 0 41.667 10.833 59 32.5s26.666 48.5 27.999 80.5z" />
    <glyph glyph-name="hungarumlaut" unicode="&#x2dd;" horiz-adv-x="682" 
d="M-30 1095l152 318h376l-364 -318h-164zM453 1095l152 318h375l-363 -318h-164z" />
    <glyph glyph-name="pi" unicode="&#x3c0;" horiz-adv-x="1124" 
d="M0 1063h1124v-202h-169v-861h-288v861h-208v-861h-292v861h-167v202z" />
    <glyph glyph-name="endash" unicode="&#x2013;" horiz-adv-x="1024" 
d="M-12 637h1048v-250h-1048v250z" />
    <glyph glyph-name="emdash" unicode="&#x2014;" horiz-adv-x="2048" 
d="M-12 637h2072v-250h-2072v250z" />
    <glyph glyph-name="quoteleft" unicode="&#x2018;" 
d="M530 1391v-154c-109.333 -11.333 -164 -77.333 -164 -198v-18h164v-335h-334v311c0 159.333 29.5 264.833 88.5 316.5s140.833 77.5 245.5 77.5z" />
    <glyph glyph-name="quoteright" unicode="&#x2019;" 
d="M196 686l0.000976562 150.999c109.333 10.667 164 76.334 164 197.001v19h-164v338h334v-314c0 -96.667 -10.167 -172.167 -30.5 -226.5s-56.333 -95.333 -108 -123s-116.834 -41.5 -195.501 -41.5z" />
    <glyph glyph-name="quotesinglbase" unicode="&#x201a;" 
d="M196 -370v150.999c109.333 10.667 164 76.334 164 197.001v18h-164v339h334v-314c0 -158.667 -29.667 -263.5 -89 -314.5s-141 -76.5 -245 -76.5z" />
    <glyph glyph-name="quotedblleft" unicode="&#x201c;" horiz-adv-x="1217" 
d="M520 1391v-154c-109.333 -11.333 -164 -77.333 -164 -198v-18h164v-335h-334v311c0 159.333 29.5 264.833 88.5 316.5s140.833 77.5 245.5 77.5zM1032 1391v-154c-109.333 -11.333 -164 -77.333 -164 -198v-18h164v-335h-334v311c0 159.333 29.5 264.833 88.5 316.5
s140.833 77.5 245.5 77.5z" />
    <glyph glyph-name="quotedblright" unicode="&#x201d;" horiz-adv-x="1217" 
d="M187 690v150.999c109.333 10.667 164 76.334 164 197.001v18h-164v335h334v-310c0 -118 -13.667 -201.667 -41 -251s-65 -85 -113 -107s-108 -33 -180 -33zM693 689.999v150.999c109.333 10.667 164 76.334 164 197.001v18h-164v335h334v-310
c0 -158.667 -29.667 -263.5 -89 -314.5s-141 -76.5 -245 -76.5z" />
    <glyph glyph-name="quotedblbase" unicode="&#x201e;" horiz-adv-x="1217" 
d="M188 -366l0.000976562 150c109.333 11.333 164 77.333 164 198v18h-164v335h334v-311c0 -96 -10.167 -171.333 -30.5 -226s-56.333 -95.667 -108 -123s-116.834 -41 -195.501 -41zM691.001 -366v150.001c110 11.333 165 77.333 165 198v18h-165v335h334v-311
c0 -158.667 -29.5 -263.334 -88.5 -314.001s-140.833 -76 -245.5 -76z" />
    <glyph glyph-name="dagger" unicode="&#x2020;" horiz-adv-x="1004" 
d="M435 -415l-71.001 723.001v217c42.667 56.667 66.334 140.334 71.001 251.001c-118 0 -196.667 -17.667 -236 -53h-189v250h189c39.333 -28.667 118 -48.334 236 -59.001c1.33301 17.333 2 30.333 2 39c0 35.333 -6 75.833 -18 121.5s-30.333 83.5 -55 113.5v203h276
v-203c-48 -60 -72 -140 -72 -240c0 -6.66699 0.666992 -18 2 -34c118 11.333 196.667 31 236 59h189v-250h-189c-39.333 35.333 -118 53 -236 53c4 -110.667 27.333 -194.334 70 -251.001v-217l-70 -723h-135z" />
    <glyph glyph-name="daggerdbl" unicode="&#x2021;" horiz-adv-x="1004" 
d="M638 1391v-204.999c-44 -66.667 -66 -140 -66 -220v-17c71.333 0 135.666 18 192.999 54h194v-247h-194c-40 33.333 -104.333 51 -193 53c-2 -14.667 -3 -28.667 -3 -42c0 -110 33.667 -203.333 101 -280c-67.333 -72 -101 -165.333 -101 -280c0 -14 1 -28.333 3 -43
c90 2 154.333 20 193 54h194v-247h-194c-57.333 36 -121.666 54 -192.999 54c0 -92 22 -171 66 -237v-205h-272v205c44 64.667 66 143.667 66 237c-71.333 0 -135.666 -18 -192.999 -54h-194v247h194c38.667 -34 103 -52 193 -54c2 14.667 3 29 3 43
c0 114.667 -33.667 208 -101 280c67.333 71.333 101 164.666 101 279.999c0 13.333 -1 27.333 -3 42c-88.667 -2 -153 -19.667 -193 -53h-194v247h194c57.333 -36 121.666 -54 192.999 -54c-6 103.333 -28 182.333 -66 237v205h272z" />
    <glyph glyph-name="bullet" unicode="&#x2022;" 
d="M363 981c76.667 0 143.334 -27.001 200.001 -81.001s85 -122 85 -204c0 -78.667 -27.833 -146 -83.5 -202s-122.834 -84 -201.501 -84c-79.333 0 -146.833 27.833 -202.5 83.5s-83.5 123.167 -83.5 202.5c0 78.667 28 145.834 84 201.501s123.333 83.5 202 83.5z" />
    <glyph glyph-name="ellipsis" unicode="&#x2026;" horiz-adv-x="2048" 
d="M174 0v335h335v-335h-335zM857 0v335h335v-335h-335zM1540 0v335h335v-335h-335z" />
    <glyph glyph-name="perthousand" unicode="&#x2030;" horiz-adv-x="2390" 
d="M387 671c-196 0 -294 123.999 -294 371.999s98.333 372 295 372c96.667 0 169.667 -32.167 219 -96.5s74 -156.166 74 -275.499c0 -248 -98 -372 -294 -372zM385 798.999c56.667 0 85 81 85 243c0 163.333 -27.667 245 -83 245s-83 -81 -83 -243
c0 -163.333 27 -245 81 -245zM214 -0.000976562l1007 1391h178l-1007 -1391h-178zM2004 -18.001c-196 0 -294 124.001 -294 372.001s98.333 372 295 372c97.333 0 170.5 -32.333 219.5 -97s73.5 -156.334 73.5 -275.001c0 -248 -98 -372 -294 -372zM2002 110
c56.667 0 85 81 85 243c0 163.333 -27.333 245 -82 245c-55.333 0 -83 -81 -83 -243c0 -163.333 26.667 -245 80 -245zM1238 -18c-196 0 -294 124.001 -294 372.001s98.333 372 295 372c96.667 0 169.667 -32.333 219 -97s74 -156.334 74 -275.001
c0 -248 -98 -372 -294 -372zM1236 110.001c56.667 0 85 81 85 243c0 163.333 -27.667 245 -83 245s-83 -81 -83 -243c0 -163.333 27 -245 81 -245z" />
    <glyph glyph-name="guilsinglleft" unicode="&#x2039;" horiz-adv-x="555" 
d="M241 0l-231 484l231 484h296l-225 -484l225 -484h-296z" />
    <glyph glyph-name="guilsinglright" unicode="&#x203a;" horiz-adv-x="555" 
d="M313 0h-295l225 484l-225 484h295l232 -484z" />
    <glyph glyph-name="trademark" unicode="&#x2122;" horiz-adv-x="2048" 
d="M401 572v677h-253v142h665v-142h-246v-677h-166zM912 572v819h259l149 -564l150 564h259v-819h-158v653l-177 -653h-150l-176 653v-653h-156z" />
    <glyph glyph-name="Omega" unicode="&#x2126;" horiz-adv-x="1573" 
d="M462 206c-256.667 108 -384.999 309.667 -384.999 605c0 200.667 62.333 366.167 187 496.5s293.334 195.5 506.001 195.5c145.333 0 268.666 -22 369.999 -66s188.333 -121.5 261 -232.5s109 -242.167 109 -393.5c0 -154 -35.333 -280.5 -106 -379.5
s-162.667 -173.5 -276 -223.5l330 23h72v-231h-642v243c204 98 306 278.667 306 542c0 162 -37.667 285.667 -113 371s-174 128 -296 128c-125.333 0 -222.833 -47.167 -292.5 -141.5s-104.5 -211.5 -104.5 -351.5c0 -122.667 26.167 -233.5 78.5 -332.5
s130.166 -170.833 233.499 -215.5v-243h-645v230h98z" />
    <glyph glyph-name="partialdiff" unicode="&#x2202;" horiz-adv-x="1012" 
d="M377 1123l-136.998 84.001c34 98 85.333 169.833 154 215.5s140.667 68.5 216 68.5c104 0 190.833 -44 260.5 -132s104.5 -227 104.5 -417c0 -164.667 -25.833 -327.5 -77.5 -488.5s-125.834 -281 -222.501 -360s-203.667 -118.5 -321 -118.5
c-94.667 0 -170.334 31.333 -227.001 94s-85 149 -85 259c0 173.333 68 319.166 204 437.499s315.667 177.5 539 177.5c8 0 21 -0.333008 39 -1c0 119.333 -19.5 210.333 -58.5 273s-92.5 94 -160.5 94c-91.333 0 -167.333 -62 -228 -186zM812.002 758.001
c-19.333 0.666992 -32.665 1 -39.998 1c-152.667 0 -274.334 -41.5 -365.001 -124.5s-136 -181.833 -136 -296.5c0 -46.667 13.167 -87.167 39.5 -121.5s60.166 -51.5 101.499 -51.5c91.333 0 175 53.333 251 160s125.667 251 149 433z" />
    <glyph glyph-name="Delta" unicode="&#x2206;" horiz-adv-x="1259" 
d="M1229 0h-1200l628 1387zM993 82l-399 967l-440 -967h839z" />
    <glyph glyph-name="product" unicode="&#x220f;" horiz-adv-x="1686" 
d="M162 1415h1362v-1865h-193v1691h-976v-1691h-193v1865z" />
    <glyph glyph-name="summation" unicode="&#x2211;" horiz-adv-x="1460" 
d="M139 1415h1237v-164h-988l607 -747l-647 -790h1038v-164h-1264v187l620 759l-603 744v175z" />
    <glyph glyph-name="fraction" unicode="&#x2215;" horiz-adv-x="682" 
d="M-252 0l1007 1391h179l-1007 -1391h-179z" />
    <glyph glyph-name="periodcentered" unicode="&#x2219;" horiz-adv-x="748" 
d="M206 531v335h335v-335h-335z" />
    <glyph glyph-name="radical" unicode="&#x221a;" horiz-adv-x="1131" 
d="M1053 1869h74l-312 -1947l-496 1021l-198 -91l-34 64l301 151l405 -823z" />
    <glyph glyph-name="infinity" unicode="&#x221e;" horiz-adv-x="1195" 
d="M547 819c89.333 152.667 197 229 323 229c83.333 0 155.333 -30.167 216 -90.5s91 -146.5 91 -258.5s-30 -198.333 -90 -259s-132.333 -91 -217 -91c-126 0 -233.667 76.333 -323 229c-32.667 -50 -75.834 -91.167 -129.501 -123.5s-106.167 -48.5 -157.5 -48.5
c-71.333 0 -129.5 27.833 -174.5 83.5s-67.5 125.5 -67.5 209.5c0 83.333 22.333 152.833 67 208.5s103 83.5 175 83.5c108.667 0 204.334 -57.333 287.001 -172zM640 701c62.667 -99.333 109.001 -158.167 139.001 -176.5s61.333 -27.5 94 -27.5
c48.667 0 87.167 18.167 115.5 54.5s42.5 86.5 42.5 150.5c0 62 -14.333 110.667 -43 146s-66 53 -112 53c-74.667 0 -153.334 -66.667 -236.001 -200zM461.001 701.999c-64 94 -127.332 140.999 -189.999 140.999c-32.667 0 -59.667 -12.5 -81 -37.5s-32 -57.833 -32 -98.5
c0 -41.333 10 -76.166 30 -104.499s47.667 -42.5 83 -42.5c53.333 0 116.666 47.333 189.999 142z" />
    <glyph glyph-name="integral" unicode="&#x222b;" horiz-adv-x="555" 
d="M198 609l12.9971 422.996c4 130.667 12.833 221.667 26.5 273s27.167 90.833 40.5 118.5s35 51.334 65 71.001s59.667 29.5 89 29.5c36 0 65.833 -11.667 89.5 -35s35.5 -47.333 35.5 -72c0 -29.333 -8.5 -54 -25.5 -74s-39.167 -30 -66.5 -30
c-23.333 0 -48.666 12 -75.999 36c-15.333 13.333 -28.666 20 -39.999 20c-26.667 0 -40 -21.333 -40 -64c0 -28 3 -76.333 9 -145c24.667 -273.333 37 -501 37 -683c0 -33.333 -4 -184.166 -12 -452.499s-33.833 -432.666 -77.5 -492.999s-93.5 -90.5 -149.5 -90.5
c-32.667 0 -60.667 10.667 -84 32s-35 51 -35 89c0 28.667 8.33301 52.334 25 71.001s38.334 28 65.001 28s50 -11 70 -33c18.667 -20.667 34.667 -31 48 -31c26 0 39 20.333 39 61c0 28 -3 68 -9 120c-24.667 210 -37 487 -37 831z" />
    <glyph glyph-name="approxequal" unicode="&#x2248;" horiz-adv-x="1368" 
d="M1246 878c-108 -94 -214.331 -141 -318.998 -141c-42.667 0 -84.334 7 -125.001 21s-97 38.667 -169 74c-88.667 43.333 -156 65 -202 65c-100 0 -203 -50.333 -309 -151v255c109.333 94.667 218.666 142 327.999 142c65.333 0 155.333 -28.333 270 -85
c102 -50 178.333 -75 229 -75c86.667 0 185.667 50.333 297 151v-256zM1246 396c-108 -94.667 -214.332 -142 -318.999 -142c-46.667 0 -91.667 8.16699 -135 24.5s-96.333 39.833 -159 70.5c-88.667 43.333 -156 65 -202 65c-100 0 -203 -50.333 -309 -151v256
c109.333 94 218.666 141 327.999 141c65.333 0 155.333 -28.333 270 -85c102 -50 178.333 -75 229 -75c90 0 189 50.333 297 151v-255z" />
    <glyph glyph-name="notequal" unicode="&#x2260;" horiz-adv-x="1368" 
d="M933 1064h313v-248h-411l-92 -235h503v-248h-600l-204 -521h-211l205 521h-314v248h411l92 235h-503v248h600l205 521h210z" />
    <glyph glyph-name="lessequal" unicode="&#x2264;" horiz-adv-x="1368" 
d="M1246 319l-1124 467v224l1124 467v-266l-778 -313l778 -313v-266zM122 169h1124v-249h-1124v249z" />
    <glyph glyph-name="greaterequal" unicode="&#x2265;" horiz-adv-x="1368" 
d="M122 1477l1124 -467v-224l-1124 -467v266l778 313l-778 313v266zM122 169h1124v-249h-1124v249z" />
    <glyph glyph-name="lozenge" unicode="&#x25ca;" horiz-adv-x="1012" 
d="M548 1422l418 -713l-418 -709h-111l-391 709l391 713h111zM494 1325l-340 -616l340 -615l359 615z" />
    <glyph glyph-name="fi" unicode="&#xf001;" horiz-adv-x="1280" 
d="M59 0l0.000976562 222.999h153v521h-153v224h153v68c0 119.333 40.833 212.333 122.5 279s196.167 100 343.5 100c230.667 0 370 -82.333 418 -247l-306 -33c-20 52 -64.667 78 -134 78c-35.333 0 -63.333 -6.66699 -84 -20s-34.334 -30.166 -41.001 -50.499
s-10 -55.833 -10 -106.5v-68h575v-745h155v-223h-558v223h95v521h-267v-521h100v-223h-562z" />
    <glyph glyph-name="fl" unicode="&#xf002;" horiz-adv-x="1280" 
d="M1250 223l-0.000976562 -222.999h-559v223h98v914c-26.667 50.667 -69.667 76 -129 76c-49.333 0 -85 -13.5 -107 -40.5s-33 -78.833 -33 -155.5v-49h144v-224h-144v-521h100v-223h-560v223h151v521h-151v224h151v72c0 123.333 43.333 216.666 130 279.999
s196.334 95 329.001 95c66 0 130 -8 192 -24h234v-1168h154z" />
    <glyph glyph-name="glyph1" horiz-adv-x="0" 
 />
    <glyph glyph-name="glyph2" horiz-adv-x="512" 
 />
    </font>
</defs>
</svg>
