<?xml version="1.0" standalone="no"?>
<!DOCTYPE svg PUBLIC "-//W3C//DTD SVG 1.1//EN" "http://www.w3.org/Graphics/SVG/1.1/DTD/svg11.dtd" >
<svg xmlns="http://www.w3.org/2000/svg">
<metadata></metadata>
<defs>
<font id="nimbussannovdsembolregular" horiz-adv-x="1062" >
<font-face units-per-em="2048" ascent="1682" descent="-366" />
<missing-glyph horiz-adv-x="512" />
<glyph horiz-adv-x="2048" />
<glyph horiz-adv-x="2048" />
<glyph unicode="&#xd;" horiz-adv-x="2048" />
<glyph unicode=" "  horiz-adv-x="512" />
<glyph unicode="&#x09;" horiz-adv-x="512" />
<glyph unicode="&#xa0;" horiz-adv-x="512" />
<glyph unicode="!" horiz-adv-x="520" d="M156 0v242h250v-242h-250zM160 972v393h242v-391l-69 -596h-113z" />
<glyph unicode="&#x22;" horiz-adv-x="759" d="M67 1365h264l-42 -547h-180zM429 1365h263l-42 -547h-179z" />
<glyph unicode="#" d="M27 445l18 128h228l28 203h-228l18 128h228l48 337h130l-47 -337h214l48 337h131l-48 -337h241l-18 -128h-241l-28 -203h241l-18 -128h-241l-52 -367h-131l52 367h-214l-52 -367h-131l52 367h-228zM404 573h214l28 203h-214z" />
<glyph unicode="$" d="M41 427h221q2 -130 53.5 -196t159.5 -78v450q-167 37 -258 102q-143 101 -143 275q0 160 111.5 264.5t289.5 113.5v182h109v-182q179 -11 281 -113.5t103 -272.5h-213q-6 104 -47.5 156t-123.5 58v-401q182 -42 275 -104q150 -102 150 -296q0 -221 -184 -341 q-94 -61 -241 -68v-219h-109v219q-205 7 -325 135q-113 127 -109 316zM279 1006q0 -91 65 -142q37 -30 131 -57v383q-73 -6 -121 -41q-33 -24 -54 -64t-21 -79zM584 152q96 6 148 55q65 59 65 153q0 85 -47.5 134.5t-165.5 84.5v-427z" />
<glyph unicode="%" horiz-adv-x="1647" d="M52 970q0 181 83.5 278.5t238.5 97.5q148 0 226.5 -94t78.5 -271q0 -191 -80 -291.5t-232 -100.5q-154 0 -234.5 97.5t-80.5 283.5zM221 962q0 -128 34.5 -189t107.5 -61q76 0 112 65t36 203q0 122 -35 181t-108 61q-147 0 -147 -260zM375 0l757 1334h140l-753 -1334 h-144zM968 369q0 181 83.5 278t238.5 97q148 0 226.5 -94t78.5 -270q0 -191 -80 -291.5t-232 -100.5q-154 0 -234.5 97.5t-80.5 283.5zM1137 360q0 -127 34.5 -188t107.5 -61q76 0 112 65t36 202q0 123 -35 181.5t-108 60.5q-147 0 -147 -260z" />
<glyph unicode="&#x26;" horiz-adv-x="1250" d="M55 366q0 185 152 306q87 69 158 101q-136 166 -136 300q0 151 119 237q91 67 219 67q139 0 229 -79q100 -88 100 -225q0 -219 -241 -349l209 -258q36 74 47 187h192q-9 -98 -37.5 -185t-73.5 -152l268 -316h-268l-127 153q-31 -42 -97 -92q-121 -90 -286 -90 q-199 0 -318 120q-109 110 -109 275zM269 372q0 -90 66 -154t159 -64q140 0 255 147l-271 331q-65 -36 -101 -65q-108 -85 -108 -195zM425 1081q0 -45 26.5 -94t94.5 -130q159 96 159 213q0 63 -39.5 104t-99.5 41t-100.5 -38.5t-40.5 -95.5z" />
<glyph unicode="'" horiz-adv-x="397" d="M67 1365h264l-42 -547h-180z" />
<glyph unicode="(" horiz-adv-x="606" d="M78 487q0 287 101 550q33 83 82.5 177t91.5 151h176q-121 -213 -177 -422.5t-56 -449.5q0 -449 235 -859h-178q-89 152 -119 210t-61 139q-95 251 -95 504z" />
<glyph unicode=")" horiz-adv-x="606" d="M75 1365h178q89 -151 119.5 -210t60.5 -139q95 -250 95 -504q0 -286 -101 -550q-33 -83 -82.5 -177t-91.5 -151h-176q111 196 161 370q72 250 72 502q0 449 -235 859z" />
<glyph unicode="*" d="M211 1096l42 122l212 -81v228h131l-3 -228l212 81l46 -122l-217 -73l133 -180l-102 -77l-137 190l-130 -190l-107 77l133 180z" />
<glyph unicode="+" d="M74 591v157h380v373h157v-373h378v-157h-378v-373h-157v373h-380z" />
<glyph unicode="," horiz-adv-x="441" d="M90 0v253h259v-180q0 -191 -76 -273q-74 -81 -183 -102v116q116 36 122 186h-122z" />
<glyph unicode="-" horiz-adv-x="492" d="M0 411v198h492v-198h-492z" />
<glyph unicode="." horiz-adv-x="441" d="M87 0v258h266v-258h-266z" />
<glyph unicode="/" horiz-adv-x="854" d="M-72 -366l668 1731h190l-665 -1731h-193z" />
<glyph unicode="0" d="M67 664q0 293 87 466q115 227 380 227q229 0 345 -175.5t116 -522.5q0 -276 -84 -451q-111 -231 -376 -231q-232 0 -350 173t-118 514zM288 651q0 -204 37 -324q52 -167 209 -167q127 0 183.5 117.5t56.5 383.5q0 273 -55.5 391.5t-185.5 121.5q-133 0 -189 -120 t-56 -403z" />
<glyph unicode="1" d="M179 928v163q183 -2 291 75q73 55 103 186h174v-1352h-232v928h-95h-97h-99h-45z" />
<glyph unicode="2" d="M59 0q6 187 88.5 307t311.5 275q188 126 234 181q63 76 63 181q0 107 -58.5 168.5t-159.5 61.5q-118 0 -172.5 -75.5t-60.5 -247.5h-212v32q0 224 129 354q119 120 321 120q189 0 302 -99q132 -115 132 -304q0 -172 -116 -297q-66 -70 -251 -194q-230 -148 -291 -269h657 v-194h-917z" />
<glyph unicode="3" d="M48 416q0 10 1 28h210q9 -284 261 -284q123 0 188 74q58 67 58 167q0 109 -70.5 167t-202.5 58q-29 0 -70 -3v165q123 0 180 20q53 19 84 65.5t31 108.5q0 87 -56 139.5t-148 52.5q-105 0 -163 -67t-62 -194h-209q5 156 73 262q115 182 364 182q183 0 294 -94 q121 -104 121 -266q0 -97 -50.5 -171.5t-136.5 -102.5q114 -28 178 -111.5t64 -204.5q0 -193 -139 -316q-129 -114 -336 -114q-240 0 -371 158q-93 111 -93 281z" />
<glyph unicode="4" d="M46 318v215l573 819h207v-851h170v-183h-170v-318h-210v318h-570zM225 500h394l4 587z" />
<glyph unicode="5" d="M48 381h216q9 -101 75.5 -161t168.5 -60q121 0 187 74t66 211q0 121 -57 195q-69 89 -201 89q-141 0 -224 -123l-192 6l129 722h692v-188h-535l-66 -352q88 103 263 103q140 0 240 -72q172 -125 172 -368q0 -223 -149 -360q-130 -120 -331 -120q-198 0 -323 111t-131 293 z" />
<glyph unicode="6" d="M72 648q0 353 145 539q134 171 353 171q170 0 277 -94.5t126 -261.5h-212q-31 181 -203 181q-168 0 -232 -207q-24 -79 -33 -158q-1 -7 -5 -64q-1 -9 -3 -32q111 164 304 164q185 0 303 -125q111 -117 111 -315q0 -205 -134 -344q-122 -125 -318 -125q-231 0 -355 174 t-124 497zM314 441q0 -111 54 -190q63 -91 182 -91q115 0 177 87q55 77 55 190q0 123 -62.5 197t-168.5 77q-124 0 -188 -91q-49 -68 -49 -179z" />
<glyph unicode="7" d="M90 1132v202h912v-184q-77 -73 -159.5 -194.5t-147.5 -256.5q-81 -171 -127.5 -348.5t-54.5 -350.5h-237q1 139 62.5 347.5t147.5 367.5q71 131 157.5 250.5t144.5 166.5h-698z" />
<glyph unicode="8" d="M60 385q0 125 64 213t181 123q-91 32 -141.5 106t-50.5 174q0 166 129 266q115 90 295 90q189 0 305 -106q106 -95 106 -244q0 -207 -191 -286q73 -24 114 -52q131 -91 131 -272q0 -196 -142 -315q-126 -105 -332 -105q-211 0 -341 115q-127 113 -127 293zM281 398 q0 -114 69 -180t188 -66q114 0 178.5 63t64.5 176q0 111 -66.5 177t-180.5 68q-115 0 -184 -65t-69 -173zM318 988q0 -88 59.5 -142t155.5 -54t153 53t57 142t-55.5 141t-152.5 54q-112 0 -170 -64q-47 -52 -47 -130z" />
<glyph unicode="9" d="M60 888q0 215 140 348q128 121 315 121q238 0 367 -194q107 -160 107 -461q0 -268 -88 -454q-69 -145 -170 -209q-98 -62 -236 -62q-218 0 -334 155q-68 92 -74 203h209q13 -73 46 -112q60 -71 164 -71q96 0 155 68.5t89 213.5q18 91 21 184q-46 -66 -72 -88 q-95 -82 -227 -82q-197 0 -313 143q-99 122 -99 297zM281 892q0 -102 44 -171q62 -99 187 -99q105 0 169.5 74.5t64.5 196.5q0 126 -62.5 202t-169.5 79q-110 0 -172 -79q-61 -78 -61 -203z" />
<glyph unicode=":" horiz-adv-x="475" d="M122 0v258h266v-258h-266zM122 718v258h266v-258h-266z" />
<glyph unicode=";" horiz-adv-x="475" d="M122 718v258h266v-258h-266zM129 0v253h259v-180q0 -191 -76 -273q-74 -81 -183 -102v116q116 36 122 186h-122z" />
<glyph unicode="&#x3c;" horiz-adv-x="1024" d="M68 588v201l887 444v-237l-635 -308l635 -309v-235z" />
<glyph unicode="=" d="M74 438v153h915v-153h-915zM74 747v153h915v-153h-915z" />
<glyph unicode="&#x3e;" horiz-adv-x="1024" d="M69 144v237l635 308l-634 309v235l886 -444v-201z" />
<glyph unicode="?" horiz-adv-x="995" d="M68 931q8 177 78 280q60 88 156.5 134.5t217.5 46.5q196 0 315 -110q112 -104 112 -271q0 -107 -45.5 -182.5t-175.5 -184.5q-72 -60 -94.5 -111.5t-24.5 -161.5h-206q3 141 26 213q17 48 47 84t132 131q60 56 84.5 103t24.5 108q0 89 -53.5 142t-143.5 53 q-217 0 -230 -274h-220zM378 0v242h248v-242h-248z" />
<glyph unicode="@" horiz-adv-x="1495" d="M58 682q0 204 104 374q94 153 253 244q171 98 370 98q166 0 311 -71q169 -83 260 -233q81 -132 81 -287q0 -247 -193 -399q-134 -106 -268 -106q-54 0 -96 24.5t-58 65.5q-113 -92 -219 -92q-113 0 -185 78.5t-72 200.5q0 167 115 313q134 172 303 172q132 0 197 -98 l25 66h171l-172 -512q-17 -51 -17 -77q0 -44 51 -44q39 0 88.5 28t92.5 74q116 127 116 297q0 216 -171 360q-151 127 -359 127q-172 0 -316 -87q-130 -78 -205 -209q-79 -139 -79 -305q0 -244 164 -416q175 -184 433 -184q152 0 288 76t214 206h134q-35 -76 -71 -124 t-100 -101q-207 -174 -471 -174q-213 0 -392 115q-170 109 -258 292q-69 145 -69 308zM538 532q0 -62 25 -97.5t68 -35.5q65 0 114 51t88 161l48 133q23 65 23 104q0 48 -28 80t-70 32q-88 0 -169 -118q-41 -61 -70 -151t-29 -159z" />
<glyph unicode="A" horiz-adv-x="1307" d="M-1 0l528 1365h256l525 -1365h-256l-131 363h-540l-133 -363h-249zM443 545h415l-207 568z" />
<glyph unicode="B" horiz-adv-x="1291" d="M106 0v1365h589q204 0 300 -48q83 -42 131.5 -121t48.5 -174q0 -97 -52 -173.5t-143 -113.5q256 -74 256 -332q0 -111 -51 -201t-144 -144q-101 -58 -275 -58h-660zM346 194h337q160 0 221 36q92 55 92 179q0 70 -32.5 122t-90.5 73q-54 20 -214 20h-313v-430zM346 796 h304q120 0 173 17q51 18 81.5 64t30.5 107q0 132 -106 171q-42 16 -171 16h-312v-375z" />
<glyph unicode="C" horiz-adv-x="1330" d="M58 683q0 311 185 517q177 198 464 198q275 0 443 -181q117 -126 129 -286h-237q-26 124 -115.5 194.5t-223.5 70.5q-218 0 -323 -182q-82 -142 -82 -331q0 -204 85 -341q107 -173 318 -173q151 0 240 90t111 263h238q-13 -207 -137 -356q-165 -199 -458 -199 q-312 0 -487 227q-150 194 -150 489z" />
<glyph unicode="D" horiz-adv-x="1334" d="M106 0v1365h521q154 0 259 -33t187 -106q99 -89 151 -223t52 -298q0 -360 -193 -553q-84 -84 -183 -118t-259 -34h-535zM346 205h262q123 0 190.5 22t118.5 78q119 131 119 389q0 228 -108 347t-316 119h-266v-955z" />
<glyph unicode="E" horiz-adv-x="1152" d="M106 0v1365h984v-205h-744v-359h690v-194h-690v-402h757v-205h-997z" />
<glyph unicode="F" horiz-adv-x="1059" d="M106 0v1365h945v-205h-705v-369h619v-194h-619v-597h-240z" />
<glyph unicode="G" horiz-adv-x="1412" d="M58 673q0 322 191 529q182 196 477 196q274 0 438 -169q123 -127 140 -298h-233q-21 123 -114.5 194t-232.5 71q-207 0 -323 -154q-103 -136 -103 -366q0 -214 95 -346q116 -161 338 -161q230 0 327 181q39 73 47 196h-370v182h586v-728h-153l-38 163 q-158 -196 -424 -196q-320 0 -500 234q-148 193 -148 472z" />
<glyph unicode="H" horiz-adv-x="1317" d="M106 0v1365h240v-546h625v546h240v-1365h-240v614h-625v-614h-240z" />
<glyph unicode="I" horiz-adv-x="452" d="M106 0v1365h240v-1365h-240z" />
<glyph unicode="J" horiz-adv-x="937" d="M-3 428q0 18 1 53h226v-23q1 -118 11 -163q31 -131 188 -131q111 0 154 71q33 55 33 203v927h240v-921q0 -121 -14.5 -189t-52.5 -125q-108 -163 -354 -163q-284 0 -383 192q-49 96 -49 269z" />
<glyph unicode="K" horiz-adv-x="1241" d="M106 0v1365h240v-631l605 631h301l-546 -543l582 -822h-298l-448 653l-196 -193v-460h-240z" />
<glyph unicode="L" horiz-adv-x="1055" d="M106 0v1365h240v-1160h697v-205h-937z" />
<glyph unicode="M" horiz-adv-x="1632" d="M106 0v1365h335l383 -1068l367 1068h335v-1365h-229l10 1104l-389 -1104h-195l-398 1085l10 -1085h-229z" />
<glyph unicode="N" horiz-adv-x="1324" d="M106 0v1365h248l639 -1022l-4 1022h228v-1365h-247l-640 1018l4 -1018h-228z" />
<glyph unicode="O" horiz-adv-x="1427" d="M58 681q0 334 187 524q190 193 480 193q270 0 452 -188q192 -199 192 -527q0 -286 -147 -477q-185 -239 -508 -239q-325 0 -512 243q-144 187 -144 471zM298 685q0 -232 105 -368q54 -69 137.5 -108.5t176.5 -39.5q174 0 284 120q128 142 128 395q0 234 -114 373 q-108 134 -295 139q-189 0 -305 -135q-117 -137 -117 -376z" />
<glyph unicode="P" horiz-adv-x="1207" d="M106 0v1365h556q133 0 208.5 -16.5t137.5 -58.5q167 -114 167 -341q0 -221 -153 -337q-61 -47 -135.5 -66.5t-193.5 -19.5h-347v-526h-240zM346 720h315q134 0 195 46q79 59 79 177q0 125 -92 183q-61 38 -204 38h-293v-444z" />
<glyph unicode="Q" horiz-adv-x="1413" d="M58 683q0 321 188 519q186 196 468 196q298 0 479 -209q174 -201 174 -501q0 -164 -51 -302.5t-143 -224.5l179 -152l-117 -133l-203 175q-132 -84 -325 -84q-297 0 -479 211q-170 198 -170 505zM298 687q0 -229 101 -365q114 -153 317 -153q82 0 153 30l-141 120 l115 130l161 -141q57 73 77 122q46 110 46 257q0 226 -109 366q-112 143 -306 143q-191 0 -304 -143q-110 -137 -110 -366z" />
<glyph unicode="R" horiz-adv-x="1328" d="M106 0v1365h647q187 0 288 -60q172 -103 172 -319q0 -124 -58.5 -211t-167.5 -125q91 -16 147 -98q31 -47 41 -97.5t27 -240.5q14 -149 47 -196l15 -18h-259q-18 30 -25 73t-17 202q-10 168 -73 228.5t-227 60.5h-317v-564h-240zM346 741h315q162 0 226 41q86 55 86 177 q0 139 -114 185q-56 23 -167 23h-346v-426z" />
<glyph unicode="S" horiz-adv-x="1187" d="M20 455h236q4 -123 63 -189q95 -106 290 -106q140 0 215 57q79 60 79 159q0 54 -25.5 89.5t-84.5 65.5q-48 24 -209 64q-284 70 -373 127q-142 92 -142 274t138 290.5t369 108.5q307 0 438 -191q65 -94 70 -240h-228q-26 242 -296 242q-123 0 -192.5 -51t-69.5 -141 q0 -85 64 -121q60 -34 283 -86q236 -55 328 -114q165 -106 165 -295q0 -203 -159 -323q-140 -105 -384 -105q-270 0 -421 127.5t-154 357.5z" />
<glyph unicode="T" horiz-adv-x="1078" d="M-18 1160v205h1111v-205h-435v-1160h-240v1160h-436z" />
<glyph unicode="U" horiz-adv-x="1296" d="M86 569v796h240v-809q0 -107 9.5 -162t36.5 -102q73 -126 283 -126q198 0 266 117q47 82 47 274v808h240v-800q0 -178 -27 -266q-103 -332 -530 -332q-341 0 -481 210q-47 70 -65.5 157t-18.5 235z" />
<glyph unicode="V" horiz-adv-x="1191" d="M-1 1365h253l346 -1096l347 1096h247l-464 -1365h-268z" />
<glyph unicode="W" horiz-adv-x="1808" d="M12 1365h246l248 -1058l278 1058h243l275 -1054l253 1054h241l-370 -1365h-247l-278 1055l-276 -1055h-251z" />
<glyph unicode="X" horiz-adv-x="1216" d="M-20 0l488 709l-454 656h287l312 -481l319 481h271l-452 -656l486 -709h-294l-340 518l-345 -518h-278z" />
<glyph unicode="Y" horiz-adv-x="1178" d="M-44 1365h276l362 -597l360 597h267l-511 -823v-542h-240v544z" />
<glyph unicode="Z" horiz-adv-x="1185" d="M33 0v198l792 962h-733v205h1041v-189l-798 -971h820v-205h-1122z" />
<glyph unicode="[" horiz-adv-x="606" d="M137 -366v1731h429v-162h-231v-1407h231v-162h-429z" />
<glyph unicode="\" horiz-adv-x="854" d="M68 1365h191l667 -1731h-193z" />
<glyph unicode="]" horiz-adv-x="606" d="M41 -204h231v1407h-231v162h429v-1731h-429v162z" />
<glyph unicode="^" horiz-adv-x="1024" d="M47 740l332 631h266l333 -631h-216l-250 469l-251 -469h-214z" />
<glyph unicode="_" horiz-adv-x="1024" d="M0 -104h1024v-157h-1024v157z" />
<glyph unicode="`" horiz-adv-x="1024" d="M243 1419h238l137 -289h-145z" />
<glyph unicode="a" horiz-adv-x="1028" d="M40 266q0 143 100 218q55 41 111 56.5t232 37.5q159 20 194.5 39.5t35.5 88.5q0 150 -205 150q-106 0 -155.5 -39.5t-63.5 -133.5h-206q13 143 94 223q112 111 339 111q128 0 224 -33.5t142 -94.5t46 -186q0 -29 -4 -180l-2 -122q-3 -102 -3 -115q0 -98 8.5 -120 t47.5 -22q17 0 48 3v-153q-86 -22 -141 -22q-141 0 -161 119q-135 -120 -350 -120q-135 0 -222 64q-109 80 -109 231zM262 276q0 -70 47.5 -109t133.5 -39q79 0 147 29t97 75q23 37 23 146v116q-41 -21 -76 -29.5t-155 -24.5q-135 -18 -177 -60q-40 -40 -40 -104z" />
<glyph unicode="b" horiz-adv-x="1133" d="M97 0v1365h218v-504q115 156 324 156q197 0 320 -143q118 -136 118 -371q0 -229 -116 -375q-124 -155 -335 -155q-112 0 -195 41.5t-129 119.5v-134h-205zM309 495q0 -156 67 -246q75 -101 209 -101q128 0 200 102q71 99 71 249q0 164 -79 257q-70 83 -190 86 q-123 0 -200 -86q-78 -88 -78 -261z" />
<glyph unicode="c" horiz-adv-x="1036" d="M56 484q0 260 151 405q133 128 340 128q191 0 307.5 -95.5t136.5 -266.5h-218q-18 91 -75.5 139t-148.5 48q-126 0 -199 -93.5t-73 -255.5q0 -146 58 -235q71 -110 207 -110q99 0 161 57.5t79 164.5h215q-25 -187 -145.5 -292t-309.5 -105q-244 0 -376 167 q-110 137 -110 344z" />
<glyph unicode="d" horiz-adv-x="1132" d="M57 497q0 233 114 370q124 150 334 150q106 0 186 -40t126 -117v505h218v-1365h-205v136q-91 -163 -316 -163q-208 0 -333 142q-124 141 -124 382zM278 498q0 -162 75 -258q73 -92 199 -92q128 0 201 92q72 90 72 254q0 176 -80 264q-73 81 -192 84q-126 0 -198 -86 q-77 -92 -77 -258z" />
<glyph unicode="e" horiz-adv-x="1057" d="M56 483q0 226 128 376q135 158 351 158q176 0 300 -106q170 -145 170 -462v-7h-732q3 -81 24 -136q65 -172 250 -172q172 0 236 176h208q-20 -83 -66 -150q-128 -187 -381 -187q-230 0 -363 151q-125 143 -125 359zM277 588h509q-7 88 -43 149q-72 119 -210 119 q-107 0 -173 -69t-83 -199z" />
<glyph unicode="f" horiz-adv-x="543" d="M-26 830v160h164v59q0 97 11.5 145t42.5 86q78 93 251 93q49 0 117 -6v-169q-47 6 -92 6q-68 0 -91 -24t-23 -94v-96h187v-160h-185v-830h-218v830h-164z" />
<glyph unicode="g" horiz-adv-x="1107" d="M56 504q0 233 122 372q123 141 320 141q202 0 307 -165v139h205v-875q0 -123 -14 -193t-51 -128q-114 -181 -411 -181q-405 0 -444 301h220q30 -147 230 -147q136 0 198 69.5t62 222.5v116q-102 -167 -314 -167q-194 0 -312 134t-118 361zM277 519q0 -184 88 -268 q70 -67 171 -67q136 0 206 108q58 89 58 226q0 172 -87 258q-64 63 -171 67q-138 0 -207 -104q-58 -87 -58 -220z" />
<glyph unicode="h" horiz-adv-x="1060" d="M97 0v1365h218v-516q49 82 129.5 125t183.5 43q209 0 295 -145q45 -77 45 -238v-634h-218v601q0 118 -31 163q-49 70 -162 70q-153 0 -213 -130q-18 -39 -23.5 -84t-5.5 -146v-474h-218z" />
<glyph unicode="i" horiz-adv-x="412" d="M97 0v990h218v-990h-218zM97 1157v208h218v-208h-218z" />
<glyph unicode="j" horiz-adv-x="413" d="M-67 -195q32 -3 51 -3q52 0 75.5 12.5t30.5 43.5q8 32 8 170v962h218v-1003q0 -129 -11.5 -184.5t-46.5 -98.5q-67 -83 -234 -83q-40 0 -91 6v178zM98 1157v208h218v-208h-218z" />
<glyph unicode="k" horiz-adv-x="987" d="M97 0v1365h218v-769l395 394h269l-380 -363l415 -627h-267l-300 479l-132 -123v-356h-218z" />
<glyph unicode="l" horiz-adv-x="412" d="M97 0v1365h218v-1365h-218z" />
<glyph unicode="m" horiz-adv-x="1627" d="M97 0v990h205v-139q64 87 138.5 126.5t174.5 39.5q196 0 275 -168q123 168 321 168q114 0 199 -56q66 -44 95.5 -111.5t29.5 -174.5v-675h-218v607q0 105 -20 146q-40 81 -155 81q-143 0 -197 -121q-22 -49 -22 -182v-531h-218v620q0 98 -22 142q-37 72 -141 72 q-67 0 -120.5 -33t-80.5 -91q-26 -56 -26 -179v-531h-218z" />
<glyph unicode="n" horiz-adv-x="1059" d="M97 0v990h205v-146q120 174 330 174q128 0 218 -66q66 -48 91.5 -118t25.5 -203v-631h-218v576q0 113 -18 162q-17 45 -63 71t-108 26q-72 0 -129.5 -34.5t-84.5 -93.5q-31 -67 -31 -211v-496h-218z" />
<glyph unicode="o" horiz-adv-x="1112" d="M56 494q0 222 120 361q140 162 388 162q222 0 359 -145q132 -139 132 -377q0 -253 -149 -395q-133 -127 -349 -127q-239 0 -373 150q-128 144 -128 371zM277 494q0 -170 79 -260q76 -86 203 -86q116 0 187 76q88 93 88 273q0 166 -77 256q-72 86 -197 89 q-133 0 -208 -92.5t-75 -255.5z" />
<glyph unicode="p" horiz-adv-x="1134" d="M97 -366v1356h205v-132q107 159 324 159q199 0 322 -136q130 -144 130 -391q0 -227 -115 -368q-122 -149 -326 -149q-212 0 -322 157v-496h-218zM307 496q0 -175 80 -264q76 -84 198 -84q124 0 195 87q77 95 77 255q0 168 -79 264q-69 85 -193 88q-128 0 -204 -90 q-74 -87 -74 -256z" />
<glyph unicode="q" horiz-adv-x="1132" d="M57 491q0 248 130 392q123 134 322 134q227 0 321 -158v131h205v-1356h-218v498q-111 -159 -322 -159q-202 0 -324 147q-114 138 -114 371zM278 489q0 -161 75 -253q72 -88 197 -88q122 0 195 85q80 92 80 266q0 168 -75 254q-74 86 -198 89q-125 0 -197 -89 q-77 -96 -77 -264z" />
<glyph unicode="r" horiz-adv-x="650" d="M97 0v990h205v-197q107 219 335 219q13 0 40 -1v-211q-48 6 -77 6q-118 0 -194 -74q-53 -51 -72 -121t-19 -214v-397h-218z" />
<glyph unicode="s" horiz-adv-x="973" d="M35 317h210q8 -74 40 -112q61 -71 197 -71q104 0 158 41q55 41 55 102q0 57 -45 85t-190 62q-153 36 -196.5 49.5t-87.5 38.5q-118 66 -118 210q0 156 135 236q101 59 269 59q237 0 343 -122q60 -68 70 -193h-209q-8 59 -32 89q-52 65 -181 65q-84 0 -131 -30.5 t-47 -84.5q0 -57 44.5 -82t207.5 -60q201 -43 286 -102q98 -68 98 -200q0 -149 -116.5 -236.5t-315.5 -87.5q-210 0 -322.5 87t-121.5 257z" />
<glyph unicode="t" horiz-adv-x="568" d="M-38 830v160h165v296h218v-296h200v-160h-200v-521q0 -95 20.5 -120.5t96.5 -25.5q37 0 83 7v-172q-80 -9 -149 -9q-95 0 -150.5 21t-85.5 68q-21 35 -27 85t-6 196v471h-165z" />
<glyph unicode="u" horiz-adv-x="1056" d="M90 355v635h218v-565q0 -120 16 -167q33 -102 174 -102q144 0 211 127q33 62 33 222v485h218v-990h-205v147q-118 -174 -328 -174q-177 0 -270 113q-67 82 -67 269z" />
<glyph unicode="v" horiz-adv-x="922" d="M-20 990h238l253 -749l245 749h225l-355 -990h-244z" />
<glyph unicode="w" horiz-adv-x="1420" d="M-13 990h233l199 -731l182 731h219l187 -716l203 716h223l-311 -990h-224l-190 721l-182 -721h-226z" />
<glyph unicode="x" horiz-adv-x="954" d="M-30 0l372 522l-342 468h265l211 -299l214 299h253l-340 -458l382 -532h-266l-246 362l-246 -362h-257z" />
<glyph unicode="y" horiz-adv-x="943" d="M-20 990h241l263 -737l250 737h229l-367 -972q-55 -144 -81.5 -200.5t-57.5 -95.5q-82 -100 -230 -100q-56 0 -150 11v184q81 -12 112 -12q78 0 113 72q46 95 56 155z" />
<glyph unicode="z" horiz-adv-x="898" d="M26 0v167l547 648h-509v175h806v-153l-558 -662h588v-175h-874z" />
<glyph unicode="{" horiz-adv-x="606" d="M20 419v162q62 18 89 63t27 132v308q-1 159 79 223q44 37 96.5 46.5t215.5 11.5h5v-163h-26q-98 0 -135 -48.5t-37 -178.5v-237q0 -97 -25 -149t-90 -89q64 -39 89.5 -92.5t25.5 -151.5v-237q0 -82 9 -119.5t35 -64.5q16 -16 52.5 -27t76.5 -11h25v-163h-6 q-165 1 -217.5 11.5t-95.5 49.5q-76 70 -77 240v286q0 92 -26 136.5t-90 61.5z" />
<glyph unicode="|" horiz-adv-x="1024" d="M393 -341v1706h239v-1706h-239z" />
<glyph unicode="}" horiz-adv-x="606" d="M74 -203h26q98 0 135 48.5t37 178.5v237q0 98 25 149.5t90 89.5q-64 38 -89.5 92t-25.5 152v237q0 82 -9 119.5t-35 64.5q-16 16 -52.5 27t-76.5 11h-25v162h6q165 -1 217.5 -11.5t95.5 -48.5q41 -38 59 -94t18 -146v-286q0 -92 26 -136.5t90 -62.5v-162q-62 -18 -89 -63 t-27 -132v-308q1 -158 -79 -223q-44 -37 -96.5 -46.5t-215.5 -11.5h-5v163z" />
<glyph unicode="~" horiz-adv-x="1365" d="M192 1255q109 256 292 256q73 0 234 -75q84 -39 113.5 -49t58.5 -10q92 0 168 139l120 -97q-57 -134 -131 -193.5t-182 -59.5q-38 0 -78.5 14t-153.5 68q-105 49 -159 49q-86 0 -163 -139z" />
<glyph unicode="&#xa1;" horiz-adv-x="520" d="M156 1123v242h250v-242h-250zM160 0v391l69 596h113l60 -594v-393h-242z" />
<glyph unicode="&#xa2;" d="M67 692q0 220 109 354t317 169v168h109v-168q171 -11 277.5 -106.5t123.5 -253.5h-213q-12 80 -61 130t-127 63v-700q80 11 132 71t64 154h207q-17 -168 -126.5 -275.5t-276.5 -120.5v-203h-109v203q-171 16 -278 123q-148 146 -148 392zM281 700q0 -146 55 -237.5 t157 -114.5v696q-102 -25 -157 -115t-55 -229z" />
<glyph unicode="&#xa3;" d="M52 608v120h118q-86 118 -86 255q0 185 161 294q117 80 298 80q219 0 341.5 -115.5t123.5 -323.5h-217q-3 82 -31 139q-26 53 -83.5 83.5t-132.5 30.5q-100 0 -164.5 -54.5t-64.5 -138.5q0 -74 52 -172q27 -52 40 -78h280v-120h-232q28 -78 28 -128q0 -55 -15.5 -98 t-54.5 -96q-30 -41 -121 -122q107 48 197 48q63 0 143 -22q102 -28 142 -28q105 0 180 73l98 -162q-49 -49 -126 -77.5t-162 -28.5q-54 0 -87.5 6.5t-135.5 38.5q-105 33 -178 33q-51 0 -93.5 -15.5t-108.5 -59.5l-103 155q209 152 209 322q0 76 -42 161h-173z" />
<glyph unicode="&#xa4;" horiz-adv-x="1393" d="M89 1178l125 124l204 -203q90 53 148 71.5t131 18.5q74 0 128.5 -17.5t146.5 -71.5l203 201l124 -124l-199 -198q93 -143 93 -284q0 -70 -18.5 -128t-69.5 -146l199 -198l-123 -125l-198 198q-134 -93 -275 -93q-136 0 -296 92l-197 -196l-124 123l197 199 q-88 131 -88 278q0 71 20 131t72 147zM409 698q0 -119 84 -204q85 -85 204 -85t204 85q84 85 84 205q0 122 -84 205q-84 82 -201 85q-122 0 -207 -85q-84 -85 -84 -206z" />
<glyph unicode="&#xa5;" d="M39 1334h243l250 -562l252 562h239l-213 -441h191v-120h-249l-98 -205h281v-120h-299v-448h-210v448h-296v120h279l-97 205h-247v120h190z" />
<glyph unicode="&#xa6;" horiz-adv-x="1024" d="M393 314h239v-655h-239v655zM393 662v703h239v-703h-239z" />
<glyph unicode="&#xa7;" d="M45 604q0 98 55 172.5t147 101.5q-84 90 -84 196q0 121 84 206q106 107 293 107q223 0 320 -151q56 -87 56 -200h-202q-12 182 -177 182q-73 0 -117.5 -37.5t-44.5 -98.5q0 -56 37.5 -93.5t160.5 -104.5q228 -124 304 -179q139 -102 139 -246q0 -95 -52.5 -169.5 t-146.5 -111.5q59 -54 82.5 -103t23.5 -118q0 -143 -115 -238q-104 -85 -270 -85q-186 0 -292.5 97t-111.5 270h204q11 -101 60 -147.5t142 -46.5q75 0 122 39.5t47 103.5q0 43 -24 76.5t-84 74.5q-62 42 -268 152q-150 79 -210 143q-78 83 -78 208zM238 622q0 -63 51 -106 t260 -156q56 -30 78 -44q50 -31 71 -40q52 17 86 60t34 91q0 65 -65 116.5t-317 186.5l-59 35l-18 10q-55 -18 -88 -60t-33 -93z" />
<glyph unicode="&#xa8;" horiz-adv-x="1024" d="M214 1170v209h212v-209h-212zM597 1170v209h212v-209h-212z" />
<glyph unicode="&#xa9;" horiz-adv-x="1543" d="M59 681q0 204 105 377q103 169 286 263q151 77 332 77q191 0 362 -106q171 -105 262 -284q78 -154 78 -326q0 -201 -105 -373q-104 -172 -282 -263q-153 -79 -324 -79q-200 0 -372 105t-264 285q-78 153 -78 324zM186 681q0 -167 87 -312q87 -144 235 -220 q125 -65 265 -65q242 0 413 175q171 176 171 423q0 168 -86 314q-84 141 -233 220q-116 61 -258 65q-249 0 -421 -174q-83 -83 -128 -195q-45 -111 -45 -231zM384 683q0 181 111.5 295.5t287.5 114.5q147 0 246 -78.5t108 -202.5h-160q-15 72 -66 110.5t-131 38.5 q-124 0 -185 -97q-48 -77 -48 -181q0 -128 62.5 -203t170.5 -75q177 0 202 197h161q-9 -151 -108.5 -240t-258.5 -89q-191 0 -300 130q-92 111 -92 280z" />
<glyph unicode="&#xaa;" horiz-adv-x="704" d="M40 711q0 88 66 134q35 25 73 34.5t146 22.5q98 11 119 21.5t21 46.5q0 83 -122 83q-66 0 -95 -22.5t-38 -81.5h-143q18 210 280 210q174 0 236 -78q31 -38 31 -115q0 -17 -3 -106q-3 -137 -3 -139q0 -56 4 -66.5t24 -10.5q15 0 38 3v-103q-59 -15 -96 -15q-81 0 -105 65 q-87 -65 -218 -65q-98 0 -156.5 49.5t-58.5 132.5zM193 716q0 -81 108 -81q53 0 97 19.5t57 49.5q8 18 8 72v58q-32 -15 -139 -28q-74 -9 -102.5 -29t-28.5 -61z" />
<glyph unicode="&#xab;" horiz-adv-x="800" d="M49 408v208l300 232v-195l-185 -139l185 -143v-201zM427 405v211l296 232v-198l-181 -139l181 -142v-197z" />
<glyph unicode="&#xac;" horiz-adv-x="1024" d="M68 374v208h887v-582h-232v374h-655z" />
<glyph unicode="&#xad;" horiz-adv-x="492" d="M0 411v198h492v-198h-492z" />
<glyph unicode="&#xae;" horiz-adv-x="1543" d="M59 681q0 204 105 377q103 169 286 263q151 77 332 77q191 0 362 -106q171 -105 262 -284q78 -154 78 -326q0 -201 -105 -373q-104 -172 -282 -263q-153 -79 -324 -79q-200 0 -372 105t-264 285q-78 153 -78 324zM186 681q0 -167 87 -312q87 -144 235 -220 q125 -65 265 -65q242 0 413 175q171 176 171 423q0 168 -86 314q-84 141 -233 220q-116 61 -258 65q-249 0 -421 -174q-83 -83 -128 -195q-45 -111 -45 -231zM427 291v784h398q114 0 177 -35q108 -60 108 -187q0 -130 -114 -187q56 -24 75.5 -67.5t32.5 -177.5 q7 -80 25 -104l24 -26h-182q-14 20 -18.5 45t-11.5 117q-6 90 -41 121.5t-130 31.5h-180v-315h-163zM590 725h179q98 0 138 25.5t40 86.5q0 57 -37.5 82.5t-121.5 25.5h-198v-220z" />
<glyph unicode="&#xaf;" horiz-adv-x="1024" d="M0 1470v157h1024v-157h-1024z" />
<glyph unicode="&#xb0;" horiz-adv-x="762" d="M67 1056q0 148 107 238q90 76 208 78q133 0 227 -99q86 -90 86 -220q0 -129 -94 -222q-91 -90 -219 -90q-140 0 -233 103q-82 90 -82 212zM179 1057q0 -77 49 -136q60 -71 153 -71q82 0 142 60t60 142q0 89 -59 149.5t-145 61.5q-77 0 -133 -54q-67 -64 -67 -152z" />
<glyph unicode="&#xb1;" d="M74 0v157h915v-157h-915zM74 591v157h380v373h157v-373h378v-157h-378v-359h-157v359h-380z" />
<glyph unicode="&#xb2;" horiz-adv-x="715" d="M53 546q4 117 56.5 189.5t199.5 165.5q117 74 150.5 112t33.5 97q0 60 -35 94t-96 34q-73 0 -104.5 -42.5t-35.5 -146.5h-147v25q0 132 78.5 209.5t211.5 77.5q122 0 195 -59q86 -70 86 -186q0 -106 -75 -180q-44 -43 -160 -115q-130 -80 -176 -147h410v-128h-592z" />
<glyph unicode="&#xb3;" horiz-adv-x="714" d="M46 800v22h146q5 -166 158 -166q68 0 108 36.5t40 98.5q0 60 -42.5 92.5t-121.5 32.5q-21 0 -52 -2v111h20q88 0 123 23q43 29 43 85q0 49 -33.5 78.5t-88.5 29.5q-130 0 -135 -156h-145q3 101 47 166q75 110 235 110q118 0 190 -57q79 -63 79 -163q0 -105 -102 -160 q136 -48 136 -187q0 -116 -85 -188.5t-221 -72.5q-154 0 -238 95q-61 68 -61 172z" />
<glyph unicode="&#xb4;" horiz-adv-x="1024" d="M407 1130l137 289h238l-231 -289h-144z" />
<glyph unicode="&#xb5;" horiz-adv-x="1024" d="M83 -344v1327h202v-535q0 -89 10.5 -133t40.5 -82q70 -86 170 -86q125 0 185 113q48 90 48 202v521h202v-983h-202v162q-31 -79 -71 -118q-67 -67 -165 -67q-73 0 -124 32t-94 105v-458h-202z" />
<glyph unicode="&#xb6;" d="M49 1003q0 102 42 183t118 125q92 54 270 54h497v-130h-90v-1601h-152v1601h-160v-1601h-152v1016h-28q-137 0 -231 80q-114 98 -114 273z" />
<glyph unicode="&#xb7;" horiz-adv-x="441" d="M87 381v258h266v-258h-266z" />
<glyph unicode="&#xb8;" horiz-adv-x="1024" d="M301 -374l35 77q70 -31 139 -31q42 0 69.5 21t27.5 54q0 29 -26.5 48.5t-67.5 19.5q-28 0 -69 -14l-34 37l114 162h87l-80 -118q44 10 73 10q64 0 108 -38t44 -94q0 -80 -60 -127t-163 -47q-87 0 -197 40z" />
<glyph unicode="&#xb9;" horiz-adv-x="715" d="M130 1094v109q117 1 172 35t77 119h122v-811h-160v548h-53h-61h-62h-35z" />
<glyph unicode="&#xba;" horiz-adv-x="739" d="M49 844q0 134 77 217q90 98 250 98q142 0 230 -87q85 -85 85 -228q0 -151 -96 -237q-85 -77 -224 -77q-152 0 -239 91q-83 86 -83 223zM202 845q0 -93 45 -145.5t125 -52.5q78 0 122 53t44 146q0 92 -43.5 143.5t-122.5 53.5q-80 0 -125 -52.5t-45 -145.5z" />
<glyph unicode="&#xbb;" horiz-adv-x="800" d="M76 173v194l182 139l-182 141v199l296 -234v-208zM450 170v195l185 139l-185 145v200l300 -240v-207z" />
<glyph unicode="&#xbc;" horiz-adv-x="1747" d="M122 1094v109q118 1 173 35t77 119h122v-811h-160v548h-53h-61h-63h-35zM421 0l765 1346h140l-761 -1346h-144zM1088 187v137l365 487h140v-501h108v-123h-108v-187h-146v187h-359zM1211 305h244v332z" />
<glyph unicode="&#xbd;" horiz-adv-x="1747" d="M122 1094v109q118 1 173 35t77 119h122v-811h-160v548h-53h-61h-63h-35zM421 0l765 1346h140l-761 -1346h-144zM1093 0q4 117 56.5 190t199.5 165q117 74 150.5 112t33.5 97q0 60 -34.5 94t-96.5 34q-73 0 -104.5 -43t-35.5 -147h-147v25q0 132 78.5 210t211.5 78 q121 0 195 -60q86 -69 86 -185q0 -106 -75 -180q-44 -43 -160 -116q-129 -79 -176 -146h410v-128h-592z" />
<glyph unicode="&#xbe;" horiz-adv-x="1746" d="M37 800v22h146q5 -166 158 -166q68 0 108 36.5t40 98.5q0 60 -42.5 92.5t-121.5 32.5q-21 0 -52 -2v111h20q88 0 123 23q43 29 43 85q0 49 -33.5 78.5t-88.5 29.5q-130 0 -135 -156h-145q3 101 47 166q75 110 235 110q118 0 190 -57q79 -63 79 -163q0 -105 -102 -160 q136 -48 136 -187q0 -116 -85 -188.5t-221 -72.5q-154 0 -238 95q-61 68 -61 172zM420 0l765 1346h140l-762 -1346h-143zM1086 187v137l366 487h140v-501h107v-123h-107v-187h-146v187h-360zM1210 305h244v332z" />
<glyph unicode="&#xbf;" horiz-adv-x="996" d="M68 354q0 107 45.5 182.5t175.5 183.5q72 61 94.5 112.5t24.5 161.5h207q-2 -141 -26 -213q-17 -49 -46 -83.5t-134 -131.5q-60 -56 -84.5 -103t-24.5 -108q0 -89 53.5 -142t143.5 -53q219 0 232 274h219q-8 -177 -78 -280q-60 -88 -156.5 -134.5t-217.5 -46.5 q-197 0 -316 110q-112 104 -112 271zM389 1123v242h250v-242h-250z" />
<glyph unicode="&#xc0;" horiz-adv-x="1307" d="M-1 0l528 1365h256l525 -1365h-256l-131 363h-540l-133 -363h-249zM331 1742h256l159 -261h-157zM443 545h415l-207 568z" />
<glyph unicode="&#xc1;" horiz-adv-x="1307" d="M-1 0l528 1365h256l525 -1365h-256l-131 363h-540l-133 -363h-249zM443 545h415l-207 568zM569 1481l160 261h255l-257 -261h-158z" />
<glyph unicode="&#xc2;" horiz-adv-x="1307" d="M-1 0l528 1365h256l525 -1365h-256l-131 363h-540l-133 -363h-249zM339 1481l205 261h219l205 -261h-183l-131 165l-132 -165h-183zM443 545h415l-207 568z" />
<glyph unicode="&#xc3;" horiz-adv-x="1307" d="M-1 0l528 1365h256l525 -1365h-256l-131 363h-540l-133 -363h-249zM314 1496q19 109 73 166t139 57q41 0 72.5 -9.5t133.5 -51.5q30 -12 62 -12q68 0 92 83h108q-42 -221 -204 -221q-46 0 -187 49q-64 22 -95 22q-62 0 -89 -83h-105zM443 545h415l-207 568z" />
<glyph unicode="&#xc4;" horiz-adv-x="1307" d="M-1 0l528 1365h256l525 -1365h-256l-131 363h-540l-133 -363h-249zM332 1506v203h218v-203h-218zM443 545h415l-207 568zM758 1506v203h218v-203h-218z" />
<glyph unicode="&#xc5;" horiz-adv-x="1307" d="M-1 0l528 1365h256l525 -1365h-256l-131 363h-540l-133 -363h-249zM442 1661q0 91 70 155q60 55 145 55q90 0 154 -70q54 -61 54 -142q0 -94 -70 -158q-60 -54 -142 -54q-94 0 -157 70q-54 61 -54 144zM443 545h415l-207 568zM550 1660q0 -44 30 -74.5t73 -30.5 t73.5 30.5t30.5 73.5t-29.5 72.5t-72.5 31.5q-44 0 -74.5 -30t-30.5 -73z" />
<glyph unicode="&#xc6;" horiz-adv-x="1806" d="M-43 0l683 1365h1103v-205h-662v-359h623v-194h-623v-402h676v-205h-908v350h-456l-169 -350h-267zM477 532h372v628h-70z" />
<glyph unicode="&#xc7;" horiz-adv-x="1331" d="M58 680q0 320 189 527q175 191 463 191q273 0 439 -182q110 -119 130 -283h-240q-15 88 -80 160q-92 103 -255 103q-213 0 -324 -182q-82 -134 -82 -327q0 -209 88 -348q107 -170 317 -170q149 0 241 93.5t107 260.5h239q-19 -244 -177 -396.5t-398 -157.5l-60 -87 q46 10 71 10q68 0 113.5 -38.5t45.5 -95.5q0 -79 -62.5 -127.5t-164.5 -48.5q-87 0 -198 40l34 77q72 -31 139 -31q43 0 70 21.5t27 55.5q0 30 -26 50t-67 20q-28 0 -69 -14l-34 36l93 134q-221 14 -372 171q-197 204 -197 538z" />
<glyph unicode="&#xc8;" horiz-adv-x="1152" d="M106 0v1365h984v-205h-744v-359h690v-194h-690v-402h757v-205h-997zM342 1742h256l159 -261h-157z" />
<glyph unicode="&#xc9;" horiz-adv-x="1152" d="M106 0v1365h984v-205h-744v-359h690v-194h-690v-402h757v-205h-997zM479 1481l160 261h255l-257 -261h-158z" />
<glyph unicode="&#xca;" horiz-adv-x="1152" d="M106 0v1365h984v-205h-744v-359h690v-194h-690v-402h757v-205h-997zM290 1481l205 261h219l205 -261h-183l-131 165l-132 -165h-183z" />
<glyph unicode="&#xcb;" horiz-adv-x="1152" d="M106 0v1365h984v-205h-744v-359h690v-194h-690v-402h757v-205h-997zM281 1506v203h218v-203h-218zM707 1506v203h218v-203h-218z" />
<glyph unicode="&#xcc;" horiz-adv-x="453" d="M-50 1742h249l132 -261h-157zM106 0v1365h240v-1365h-240z" />
<glyph unicode="&#xcd;" horiz-adv-x="453" d="M106 0v1365h240v-1365h-240zM128 1481l132 261h249l-224 -261h-157z" />
<glyph unicode="&#xce;" horiz-adv-x="452" d="M-54 1481l171 261h219l171 -261h-176l-104 165l-104 -165h-177zM106 0v1365h240v-1365h-240z" />
<glyph unicode="&#xcf;" horiz-adv-x="452" d="M-24 1506v203h201v-203h-201zM106 0v1365h240v-1365h-240zM275 1506v203h201v-203h-201z" />
<glyph unicode="&#xd0;" horiz-adv-x="1337" d="M-24 631v171h130v563h521q154 0 259 -33t187 -106q203 -182 203 -521q0 -361 -193 -553q-84 -84 -183 -118t-259 -34h-535v631h-130zM345 205h263q122 0 189 22t119 78q118 131 118 388q0 229 -107.5 348t-314.5 119h-267v-358h299v-171h-299v-426z" />
<glyph unicode="&#xd1;" horiz-adv-x="1324" d="M106 0v1365h248l639 -1022l-4 1022h228v-1365h-247l-640 1018l4 -1018h-228zM336 1496q19 109 73 166t139 57q41 0 72.5 -9.5t133.5 -51.5q30 -12 62 -12q68 0 92 83h108q-42 -221 -204 -221q-46 0 -187 49q-64 22 -95 22q-62 0 -89 -83h-105z" />
<glyph unicode="&#xd2;" horiz-adv-x="1427" d="M58 681q0 334 187 524q190 193 480 193q270 0 452 -188q192 -199 192 -527q0 -286 -147 -477q-185 -239 -508 -239q-325 0 -512 243q-144 187 -144 471zM298 685q0 -232 105 -368q54 -69 137.5 -108.5t176.5 -39.5q174 0 284 120q128 142 128 395q0 234 -114 373 q-108 134 -295 139q-189 0 -305 -135q-117 -137 -117 -376zM437 1742h256l159 -261h-157z" />
<glyph unicode="&#xd3;" horiz-adv-x="1427" d="M58 681q0 334 187 524q190 193 480 193q270 0 452 -188q192 -199 192 -527q0 -286 -147 -477q-185 -239 -508 -239q-325 0 -512 243q-144 187 -144 471zM298 685q0 -232 105 -368q54 -69 137.5 -108.5t176.5 -39.5q174 0 284 120q128 142 128 395q0 234 -114 373 q-108 134 -295 139q-189 0 -305 -135q-117 -137 -117 -376zM608 1481l160 261h255l-257 -261h-158z" />
<glyph unicode="&#xd4;" horiz-adv-x="1427" d="M58 681q0 334 187 524q190 193 480 193q270 0 452 -188q192 -199 192 -527q0 -286 -147 -477q-185 -239 -508 -239q-325 0 -512 243q-144 187 -144 471zM298 685q0 -232 105 -368q54 -69 137.5 -108.5t176.5 -39.5q174 0 284 120q128 142 128 395q0 234 -114 373 q-108 134 -295 139q-189 0 -305 -135q-117 -137 -117 -376zM399 1481l205 261h219l205 -261h-183l-131 165l-132 -165h-183z" />
<glyph unicode="&#xd5;" horiz-adv-x="1427" d="M58 681q0 334 187 524q190 193 480 193q270 0 452 -188q192 -199 192 -527q0 -286 -147 -477q-185 -239 -508 -239q-325 0 -512 243q-144 187 -144 471zM298 685q0 -232 105 -368q54 -69 137.5 -108.5t176.5 -39.5q174 0 284 120q128 142 128 395q0 234 -114 373 q-108 134 -295 139q-189 0 -305 -135q-117 -137 -117 -376zM380 1496q19 109 73 166t139 57q41 0 72.5 -9.5t133.5 -51.5q30 -12 62 -12q68 0 92 83h108q-42 -221 -204 -221q-46 0 -187 49q-64 22 -95 22q-62 0 -89 -83h-105z" />
<glyph unicode="&#xd6;" horiz-adv-x="1427" d="M58 681q0 334 187 524q190 193 480 193q270 0 452 -188q192 -199 192 -527q0 -286 -147 -477q-185 -239 -508 -239q-325 0 -512 243q-144 187 -144 471zM298 685q0 -232 105 -368q54 -69 137.5 -108.5t176.5 -39.5q174 0 284 120q128 142 128 395q0 234 -114 373 q-108 134 -295 139q-189 0 -305 -135q-117 -137 -117 -376zM391 1506v203h218v-203h-218zM817 1506v203h218v-203h-218z" />
<glyph unicode="&#xd7;" d="M123 372l297 297l-293 293l111 111l293 -293l297 297l111 -111l-297 -297l292 -293l-111 -111l-292 293l-297 -297z" />
<glyph unicode="&#xd8;" horiz-adv-x="1431" d="M37 38l161 179q-72 110 -104 220t-32 251q0 319 184 516q87 93 209.5 143.5t261.5 50.5q242 0 407 -140l154 168l101 -92l-159 -177q78 -91 115 -207t37 -268q0 -305 -170 -500q-187 -215 -482 -215q-128 0 -218 32.5t-210 122.5l-155 -176zM302 680q0 -142 60 -278 l621 694q-108 100 -268 100q-179 0 -295 -132q-118 -133 -118 -384zM436 280q129 -111 287 -111q190 0 299.5 139.5t109.5 379.5q0 93 -14.5 154.5t-54.5 140.5z" />
<glyph unicode="&#xd9;" horiz-adv-x="1296" d="M86 569v796h240v-809q0 -107 9.5 -162t36.5 -102q73 -126 283 -126q198 0 266 117q47 82 47 274v808h240v-800q0 -178 -27 -266q-103 -332 -530 -332q-341 0 -481 210q-47 70 -65.5 157t-18.5 235zM378 1742h256l159 -261h-157z" />
<glyph unicode="&#xda;" horiz-adv-x="1296" d="M86 569v796h240v-809q0 -107 9.5 -162t36.5 -102q73 -126 283 -126q198 0 266 117q47 82 47 274v808h240v-800q0 -178 -27 -266q-103 -332 -530 -332q-341 0 -481 210q-47 70 -65.5 157t-18.5 235zM535 1481l160 261h255l-257 -261h-158z" />
<glyph unicode="&#xdb;" horiz-adv-x="1296" d="M86 569v796h240v-809q0 -107 9.5 -162t36.5 -102q73 -126 283 -126q198 0 266 117q47 82 47 274v808h240v-800q0 -178 -27 -266q-103 -332 -530 -332q-341 0 -481 210q-47 70 -65.5 157t-18.5 235zM332 1481l205 261h219l205 -261h-183l-131 165l-132 -165h-183z" />
<glyph unicode="&#xdc;" horiz-adv-x="1296" d="M86 569v796h240v-809q0 -107 9.5 -162t36.5 -102q73 -126 283 -126q198 0 266 117q47 82 47 274v808h240v-800q0 -178 -27 -266q-103 -332 -530 -332q-341 0 -481 210q-47 70 -65.5 157t-18.5 235zM326 1506v203h218v-203h-218zM752 1506v203h218v-203h-218z" />
<glyph unicode="&#xdd;" horiz-adv-x="1178" d="M-44 1365h276l362 -597l360 597h267l-511 -823v-542h-240v544zM484 1481l160 261h255l-257 -261h-158z" />
<glyph unicode="&#xde;" horiz-adv-x="1212" d="M106 0v1365h239v-204h315q133 0 209 -16.5t138 -58.5q167 -114 167 -341q0 -222 -153 -339q-61 -46 -135.5 -65.5t-193.5 -19.5h-347v-321h-239zM345 515h315q136 0 197 46q79 59 79 178q0 125 -92 183q-62 38 -206 38h-293v-445z" />
<glyph unicode="&#xdf;" horiz-adv-x="1041" d="M97 0v881q0 145 13.5 215.5t51.5 127.5q52 78 145 120.5t209 42.5q168 0 280 -87q121 -95 121 -259q0 -100 -50 -174.5t-136 -101.5q69 -15 118 -49q136 -97 136 -299q0 -212 -156 -343q-112 -94 -292 -94q-44 0 -95 9v172q38 -7 65 -7q116 0 182 67q75 74 75 201 q0 130 -71.5 191.5t-223.5 61.5h-27v151q22 -1 28 -1q112 0 169 45q66 51 66 154q0 85 -53 136.5t-141 51.5q-119 0 -164 -79q-19 -34 -25.5 -77t-6.5 -136v-920h-218z" />
<glyph unicode="&#xe0;" horiz-adv-x="1028" d="M40 266q0 143 100 218q55 41 111 56.5t232 37.5q159 20 194.5 39.5t35.5 88.5q0 150 -205 150q-106 0 -155.5 -39.5t-63.5 -133.5h-206q13 143 94 223q112 111 339 111q128 0 224 -33.5t142 -94.5t46 -186q0 -29 -4 -180l-2 -122q-3 -102 -3 -115q0 -98 8.5 -120 t47.5 -22q17 0 48 3v-153q-86 -22 -141 -22q-141 0 -161 119q-135 -120 -350 -120q-135 0 -222 64q-109 80 -109 231zM262 276q0 -70 47.5 -109t133.5 -39q79 0 147 29t97 75q23 37 23 146v116q-41 -21 -76 -29.5t-155 -24.5q-135 -18 -177 -60q-40 -40 -40 -104zM286 1419 h238l137 -289h-145z" />
<glyph unicode="&#xe1;" horiz-adv-x="1028" d="M40 266q0 143 100 218q55 41 111 56.5t232 37.5q159 20 194.5 39.5t35.5 88.5q0 150 -205 150q-106 0 -155.5 -39.5t-63.5 -133.5h-206q13 143 94 223q112 111 339 111q128 0 224 -33.5t142 -94.5t46 -186q0 -29 -4 -180l-2 -122q-3 -102 -3 -115q0 -98 8.5 -120 t47.5 -22q17 0 48 3v-153q-86 -22 -141 -22q-141 0 -161 119q-135 -120 -350 -120q-135 0 -222 64q-109 80 -109 231zM262 276q0 -70 47.5 -109t133.5 -39q79 0 147 29t97 75q23 37 23 146v116q-41 -21 -76 -29.5t-155 -24.5q-135 -18 -177 -60q-40 -40 -40 -104zM415 1130 l137 289h238l-231 -289h-144z" />
<glyph unicode="&#xe2;" horiz-adv-x="1028" d="M40 266q0 143 100 218q55 41 111 56.5t232 37.5q159 20 194.5 39.5t35.5 88.5q0 150 -205 150q-106 0 -155.5 -39.5t-63.5 -133.5h-206q13 143 94 223q112 111 339 111q128 0 224 -33.5t142 -94.5t46 -186q0 -29 -4 -180l-2 -122q-3 -102 -3 -115q0 -98 8.5 -120 t47.5 -22q17 0 48 3v-153q-86 -22 -141 -22q-141 0 -161 119q-135 -120 -350 -120q-135 0 -222 64q-109 80 -109 231zM243 1130l185 289h198l186 -289h-185l-104 174l-109 -174h-171zM262 276q0 -70 47.5 -109t133.5 -39q79 0 147 29t97 75q23 37 23 146v116 q-41 -21 -76 -29.5t-155 -24.5q-135 -18 -177 -60q-40 -40 -40 -104z" />
<glyph unicode="&#xe3;" horiz-adv-x="1028" d="M40 266q0 143 100 218q55 41 111 56.5t232 37.5q159 20 194.5 39.5t35.5 88.5q0 150 -205 150q-106 0 -155.5 -39.5t-63.5 -133.5h-206q13 143 94 223q112 111 339 111q128 0 224 -33.5t142 -94.5t46 -186q0 -29 -4 -180l-2 -122q-3 -102 -3 -115q0 -98 8.5 -120 t47.5 -22q17 0 48 3v-153q-86 -22 -141 -22q-141 0 -161 119q-135 -120 -350 -120q-135 0 -222 64q-109 80 -109 231zM224 1152q12 106 63.5 167t129.5 61q34 0 64 -9.5t132 -54.5q23 -10 47 -10q57 0 77 84h105q-13 -108 -61.5 -167.5t-123.5 -59.5q-52 0 -169 50 q-56 23 -82 23q-58 0 -79 -84h-103zM262 276q0 -70 47.5 -109t133.5 -39q79 0 147 29t97 75q23 37 23 146v116q-41 -21 -76 -29.5t-155 -24.5q-135 -18 -177 -60q-40 -40 -40 -104z" />
<glyph unicode="&#xe4;" horiz-adv-x="1028" d="M40 266q0 143 100 218q55 41 111 56.5t232 37.5q159 20 194.5 39.5t35.5 88.5q0 150 -205 150q-106 0 -155.5 -39.5t-63.5 -133.5h-206q13 143 94 223q112 111 339 111q128 0 224 -33.5t142 -94.5t46 -186q0 -29 -4 -180l-2 -122q-3 -102 -3 -115q0 -98 8.5 -120 t47.5 -22q17 0 48 3v-153q-86 -22 -141 -22q-141 0 -161 119q-135 -120 -350 -120q-135 0 -222 64q-109 80 -109 231zM230 1170v209h212v-209h-212zM262 276q0 -70 47.5 -109t133.5 -39q79 0 147 29t97 75q23 37 23 146v116q-41 -21 -76 -29.5t-155 -24.5q-135 -18 -177 -60 q-40 -40 -40 -104zM613 1170v209h212v-209h-212z" />
<glyph unicode="&#xe5;" horiz-adv-x="1028" d="M40 266q0 143 100 218q55 41 111 56.5t232 37.5q159 20 194.5 39.5t35.5 88.5q0 150 -205 150q-106 0 -155.5 -39.5t-63.5 -133.5h-206q13 143 94 223q112 111 339 111q128 0 224 -33.5t142 -94.5t46 -186q0 -29 -4 -180l-2 -122q-3 -102 -3 -115q0 -98 8.5 -120 t47.5 -22q17 0 48 3v-153q-86 -22 -141 -22q-141 0 -161 119q-135 -120 -350 -120q-135 0 -222 64q-109 80 -109 231zM262 276q0 -70 47.5 -109t133.5 -39q79 0 147 29t97 75q23 37 23 146v116q-41 -21 -76 -29.5t-155 -24.5q-135 -18 -177 -60q-40 -40 -40 -104zM322 1299 q0 88 68 150q57 53 140 53q87 0 148 -68q53 -58 53 -137q0 -91 -68 -152q-58 -53 -137 -53q-90 0 -152 68q-52 58 -52 139zM426 1298q0 -42 29.5 -72t70.5 -30q42 0 71.5 29.5t29.5 71.5q0 41 -28.5 70.5t-70.5 30.5q-42 0 -72 -29.5t-30 -70.5z" />
<glyph unicode="&#xe6;" horiz-adv-x="1679" d="M43 268q0 82 38 146.5t105 96.5q55 27 112 39t246 36q100 13 137 39t37 85q0 146 -202 146q-107 0 -159.5 -42t-61.5 -134h-211q14 151 101 228q123 109 338 109q246 0 329 -137q52 65 133 101t177 36q215 0 344 -148q120 -138 120 -381q0 -18 -1 -46h-711 q0 -105 36 -177q66 -131 218 -131q173 0 237 177h210q-29 -119 -107 -202q-127 -136 -343 -136q-252 0 -355 182q-129 -182 -408 -182q-173 0 -270 82q-89 76 -89 213zM268 279q0 -74 48.5 -115.5t134.5 -41.5q120 0 199 72q66 59 66 166v133q-35 -22 -68.5 -30t-148.5 -24 q-131 -17 -181 -51.5t-50 -108.5zM912 588h496q-6 105 -50 168q-71 100 -198 100q-63 0 -117 -29t-86 -80q-34 -56 -45 -159z" />
<glyph unicode="&#xe7;" horiz-adv-x="1036" d="M56 484q0 260 151 405q133 128 340 128q191 0 307.5 -95.5t136.5 -266.5h-218q-15 73 -53 116q-63 71 -171 71q-126 0 -199 -93.5t-73 -255.5q0 -147 58 -236q71 -110 207 -110q99 0 161 58t79 165h215q-20 -179 -147 -292q-60 -52 -125 -76t-165 -29l-61 -91 q44 10 73 10q64 0 108 -38t44 -94q0 -80 -60 -127t-162 -47q-88 0 -198 40l35 77q71 -31 139 -31q42 0 69.5 21t27.5 54q0 29 -26.5 48.5t-66.5 19.5q-28 0 -69 -14l-35 37l97 138q-144 17 -240 93q-179 144 -179 415z" />
<glyph unicode="&#xe8;" horiz-adv-x="1057" d="M56 483q0 226 128 376q135 158 351 158q176 0 300 -106q172 -147 170 -469h-732q3 -81 24 -136q65 -172 250 -172q172 0 236 176h208q-20 -83 -66 -150q-128 -187 -381 -187q-230 0 -363 151q-125 143 -125 359zM277 588h509q-7 88 -43 149q-72 119 -210 119 q-107 0 -173 -69t-83 -199zM293 1419h238l137 -289h-145z" />
<glyph unicode="&#xe9;" horiz-adv-x="1057" d="M56 483q0 226 128 376q135 158 351 158q176 0 300 -106q172 -147 170 -469h-732q3 -81 24 -136q65 -172 250 -172q172 0 236 176h208q-20 -83 -66 -150q-128 -187 -381 -187q-230 0 -363 151q-125 143 -125 359zM277 588h509q-7 88 -43 149q-72 119 -210 119 q-107 0 -173 -69t-83 -199zM429 1130l137 289h238l-231 -289h-144z" />
<glyph unicode="&#xea;" horiz-adv-x="1057" d="M56 483q0 226 128 376q135 158 351 158q176 0 300 -106q172 -147 170 -469h-732q3 -81 24 -136q65 -172 250 -172q172 0 236 176h208q-20 -83 -66 -150q-128 -187 -381 -187q-230 0 -363 151q-125 143 -125 359zM250 1130l185 289h198l186 -289h-185l-104 174l-109 -174 h-171zM277 588h509q-7 88 -43 149q-72 119 -210 119q-107 0 -173 -69t-83 -199z" />
<glyph unicode="&#xeb;" horiz-adv-x="1057" d="M56 483q0 226 128 376q135 158 351 158q176 0 300 -106q172 -147 170 -469h-732q3 -81 24 -136q65 -172 250 -172q172 0 236 176h208q-20 -83 -66 -150q-128 -187 -381 -187q-230 0 -363 151q-125 143 -125 359zM237 1170v209h212v-209h-212zM277 588h509q-7 88 -43 149 q-72 119 -210 119q-107 0 -173 -69t-83 -199zM620 1170v209h212v-209h-212z" />
<glyph unicode="&#xec;" horiz-adv-x="412" d="M-69 1419h238l137 -289h-145zM96 0v990h218v-990h-218z" />
<glyph unicode="&#xed;" horiz-adv-x="412" d="M97 0v990h218v-990h-218zM109 1130l137 289h238l-231 -289h-144z" />
<glyph unicode="&#xee;" horiz-adv-x="412" d="M-45 1130l158 289h191l152 -289h-171l-77 174l-82 -174h-171zM95 0v990h218v-990h-218z" />
<glyph unicode="&#xef;" horiz-adv-x="412" d="M-25 1170v209h187v-209h-187zM95 0v990h218v-990h-218zM247 1170v209h187v-209h-187z" />
<glyph unicode="&#xf0;" horiz-adv-x="1112" d="M56 494q0 246 148 393q62 61 147.5 96t173.5 35q48 0 124 -15l-78 151l-165 -69l-42 99l161 68l-62 123l131 58l75 -123l160 69l45 -97l-145 -65l167 -269q90 -143 124.5 -241.5t34.5 -211.5q0 -236 -137 -380q-136 -143 -360 -143q-250 0 -386 167q-116 142 -116 355z M277 494q0 -170 79 -260q76 -86 203 -86q116 0 187 76q88 93 88 273q0 166 -77 257q-72 86 -197 89q-133 0 -208 -92.5t-75 -256.5z" />
<glyph unicode="&#xf1;" horiz-adv-x="1059" d="M97 0v990h205v-146q120 174 330 174q128 0 218 -66q66 -48 91.5 -118t25.5 -203v-631h-218v576q0 113 -18 162q-17 45 -63 71t-108 26q-72 0 -129.5 -34.5t-84.5 -93.5q-31 -67 -31 -211v-496h-218zM236 1152q12 106 63.5 167t129.5 61q34 0 64 -9.5t132 -54.5 q23 -10 47 -10q57 0 77 84h105q-13 -108 -61.5 -167.5t-123.5 -59.5q-52 0 -169 50q-56 23 -82 23q-58 0 -79 -84h-103z" />
<glyph unicode="&#xf2;" horiz-adv-x="1112" d="M56 494q0 222 120 361q140 162 388 162q222 0 359 -145q132 -139 132 -377q0 -253 -149 -395q-133 -127 -349 -127q-239 0 -373 150q-128 144 -128 371zM277 494q0 -170 79 -260q76 -86 203 -86q116 0 187 76q88 93 88 273q0 166 -77 256q-72 86 -197 89 q-133 0 -208 -92.5t-75 -255.5zM307 1419h238l137 -289h-145z" />
<glyph unicode="&#xf3;" horiz-adv-x="1112" d="M56 494q0 222 120 361q140 162 388 162q222 0 359 -145q132 -139 132 -377q0 -253 -149 -395q-133 -127 -349 -127q-239 0 -373 150q-128 144 -128 371zM277 494q0 -170 79 -260q76 -86 203 -86q116 0 187 76q88 93 88 273q0 166 -77 256q-72 86 -197 89 q-133 0 -208 -92.5t-75 -255.5zM450 1130l137 289h238l-231 -289h-144z" />
<glyph unicode="&#xf4;" horiz-adv-x="1112" d="M56 494q0 222 120 361q140 162 388 162q222 0 359 -145q132 -139 132 -377q0 -253 -149 -395q-133 -127 -349 -127q-239 0 -373 150q-128 144 -128 371zM271 1130l185 289h198l186 -289h-185l-104 174l-109 -174h-171zM277 494q0 -170 79 -260q76 -86 203 -86 q116 0 187 76q88 93 88 273q0 166 -77 256q-72 86 -197 89q-133 0 -208 -92.5t-75 -255.5z" />
<glyph unicode="&#xf5;" horiz-adv-x="1112" d="M56 494q0 222 120 361q140 162 388 162q222 0 359 -145q132 -139 132 -377q0 -253 -149 -395q-133 -127 -349 -127q-239 0 -373 150q-128 144 -128 371zM251 1152q12 106 63.5 167t129.5 61q34 0 64 -9.5t132 -54.5q23 -10 47 -10q57 0 77 84h105q-13 -108 -61.5 -167.5 t-123.5 -59.5q-52 0 -169 50q-56 23 -82 23q-58 0 -79 -84h-103zM277 494q0 -170 79 -260q76 -86 203 -86q116 0 187 76q88 93 88 273q0 166 -77 256q-72 86 -197 89q-133 0 -208 -92.5t-75 -255.5z" />
<glyph unicode="&#xf6;" horiz-adv-x="1112" d="M56 494q0 222 120 361q140 162 388 162q222 0 359 -145q132 -139 132 -377q0 -253 -149 -395q-133 -127 -349 -127q-239 0 -373 150q-128 144 -128 371zM258 1170v209h212v-209h-212zM277 494q0 -170 79 -260q76 -86 203 -86q116 0 187 76q88 93 88 273q0 166 -77 256 q-72 86 -197 89q-133 0 -208 -92.5t-75 -255.5zM641 1170v209h212v-209h-212z" />
<glyph unicode="&#xf7;" d="M74 591v157h915v-157h-915zM403 335q0 52 38 89t92 37q51 0 88 -37.5t37 -89.5q0 -53 -37.5 -90.5t-89.5 -37.5q-53 0 -90.5 37.5t-37.5 91.5zM404 1006q0 52 37.5 89t91.5 37q51 0 88 -37.5t37 -89.5t-37.5 -89.5t-89.5 -37.5q-53 0 -90 37.5t-37 90.5z" />
<glyph unicode="&#xf8;" horiz-adv-x="1139" d="M60 24l115 127q-106 149 -106 348q0 233 140 376q139 142 367 142q181 0 306 -99l114 123l83 -76l-116 -124q58 -77 82.5 -152.5t24.5 -178.5q0 -239 -120 -377q-138 -160 -381 -160q-94 0 -164 22t-150 76l-112 -125zM290 499q0 -103 35 -190l425 467q-81 66 -178 66 q-67 0 -125 -30t-94 -83q-63 -93 -63 -230zM391 215q75 -67 182 -67q128 0 202 91t74 249q0 95 -32 192z" />
<glyph unicode="&#xf9;" horiz-adv-x="1056" d="M90 355v635h218v-565q0 -120 16 -167q33 -102 174 -102q144 0 211 127q33 62 33 222v485h218v-990h-205v147q-118 -174 -328 -174q-177 0 -270 113q-67 82 -67 269zM267 1419h238l137 -289h-145z" />
<glyph unicode="&#xfa;" horiz-adv-x="1056" d="M90 355v635h218v-565q0 -120 16 -167q33 -102 174 -102q144 0 211 127q33 62 33 222v485h218v-990h-205v147q-118 -174 -328 -174q-177 0 -270 113q-67 82 -67 269zM424 1130l137 289h238l-231 -289h-144z" />
<glyph unicode="&#xfb;" horiz-adv-x="1056" d="M90 355v635h218v-565q0 -120 16 -167q33 -102 174 -102q144 0 211 127q33 62 33 222v485h218v-990h-205v147q-118 -174 -328 -174q-177 0 -270 113q-67 82 -67 269zM245 1130l185 289h198l186 -289h-185l-104 174l-109 -174h-171z" />
<glyph unicode="&#xfc;" horiz-adv-x="1056" d="M90 355v635h218v-565q0 -120 16 -167q33 -102 174 -102q144 0 211 127q33 62 33 222v485h218v-990h-205v147q-118 -174 -328 -174q-177 0 -270 113q-67 82 -67 269zM228 1170v209h212v-209h-212zM611 1170v209h212v-209h-212z" />
<glyph unicode="&#xfd;" horiz-adv-x="943" d="M-20 990h241l263 -737l250 737h229l-367 -972q-55 -144 -81.5 -200.5t-57.5 -95.5q-82 -100 -230 -100q-56 0 -150 11v184q81 -12 112 -12q78 0 113 72q46 95 56 155zM373 1130l137 289h238l-231 -289h-144z" />
<glyph unicode="&#xfe;" horiz-adv-x="1134" d="M97 -366v1731h218v-507q106 159 313 159q197 0 320 -136q130 -144 130 -391q0 -227 -115 -368q-122 -149 -326 -149q-212 0 -322 157v-496h-218zM307 496q0 -174 80 -264q76 -84 198 -84q124 0 195 87q77 93 77 255q0 168 -79 264q-69 85 -193 88q-127 0 -203 -90 q-75 -88 -75 -256z" />
<glyph unicode="&#xff;" horiz-adv-x="943" d="M-20 990h241l263 -737l250 737h229l-367 -972q-55 -144 -81.5 -200.5t-57.5 -95.5q-82 -100 -230 -100q-56 0 -150 11v184q81 -12 112 -12q78 0 113 72q46 95 56 155zM173 1170v209h212v-209h-212zM556 1170v209h212v-209h-212z" />
<glyph unicode="&#x152;" horiz-adv-x="2047" d="M58 673q0 320 181 519q185 202 461 202q249 0 349 -139v110h935v-205h-712v-359h652v-194h-652v-402h726v-205h-950v123q-127 -153 -362 -153q-293 0 -475 226q-153 191 -153 477zM298 681q0 -231 119 -374q113 -135 296 -135q149 0 238 82t89 220v423q0 71 -11 108 t-43 76q-93 111 -259 111q-211 0 -330 -164q-99 -136 -99 -347z" />
<glyph unicode="&#x153;" horiz-adv-x="1729" d="M56 494q0 235 131 381q128 142 345 142q237 0 341 -168q116 168 341 168q161 0 276 -86q188 -139 186 -489h-714q0 -59 11 -102q21 -86 77 -140q69 -66 172 -66q86 0 142 43.5t92 136.5h210q-43 -163 -160.5 -252t-291.5 -89q-249 0 -351 182q-98 -182 -344 -182 q-222 0 -353 160q-110 134 -110 361zM277 493q0 -155 62 -248q64 -97 189 -97q128 0 186 101q57 97 57 256q0 161 -63 250q-59 84 -176 87q-120 0 -185 -88q-70 -96 -70 -261zM961 588h496q-7 100 -43 157q-72 111 -205 111q-68 0 -125 -33.5t-87 -91.5q-28 -53 -36 -143z " />
<glyph unicode="&#x178;" horiz-adv-x="1178" d="M-44 1365h276l362 -597l360 597h267l-511 -823v-542h-240v544zM267 1506v203h218v-203h-218zM693 1506v203h218v-203h-218z" />
<glyph unicode="&#x2c6;" horiz-adv-x="1024" d="M227 1130l185 289h198l186 -289h-185l-104 174l-109 -174h-171z" />
<glyph unicode="&#x2dc;" horiz-adv-x="1024" d="M203 1152q12 106 63.5 167t129.5 61q34 0 64 -9.5t132 -54.5q23 -10 47 -10q57 0 77 84h105q-13 -108 -61.5 -167.5t-123.5 -59.5q-52 0 -169 50q-56 23 -82 23q-58 0 -79 -84h-103z" />
<glyph unicode="&#x2000;" horiz-adv-x="935" />
<glyph unicode="&#x2001;" horiz-adv-x="1871" />
<glyph unicode="&#x2002;" horiz-adv-x="935" />
<glyph unicode="&#x2003;" horiz-adv-x="1871" />
<glyph unicode="&#x2004;" horiz-adv-x="623" />
<glyph unicode="&#x2005;" horiz-adv-x="467" />
<glyph unicode="&#x2006;" horiz-adv-x="311" />
<glyph unicode="&#x2007;" horiz-adv-x="311" />
<glyph unicode="&#x2008;" horiz-adv-x="233" />
<glyph unicode="&#x2009;" horiz-adv-x="374" />
<glyph unicode="&#x200a;" horiz-adv-x="103" />
<glyph unicode="&#x2010;" horiz-adv-x="492" d="M0 411v198h492v-198h-492z" />
<glyph unicode="&#x2011;" horiz-adv-x="492" d="M0 411v198h492v-198h-492z" />
<glyph unicode="&#x2012;" horiz-adv-x="492" d="M0 411v198h492v-198h-492z" />
<glyph unicode="&#x2013;" d="M94 411v198h874v-198h-874z" />
<glyph unicode="&#x2014;" horiz-adv-x="1438" d="M0 411v198h1438v-198h-1438z" />
<glyph unicode="&#x2018;" horiz-adv-x="479" d="M117 832v192q-8 311 259 362v-115q-119 -37 -122 -186h122v-253h-259z" />
<glyph unicode="&#x2019;" horiz-adv-x="479" d="M109 812v114q119 38 122 186h-122v253h259v-192q8 -310 -259 -361z" />
<glyph unicode="&#x201a;" horiz-adv-x="479" d="M109 0v253h259v-192q8 -310 -259 -362v115q119 37 122 186h-122z" />
<glyph unicode="&#x201c;" horiz-adv-x="811" d="M109 835v205q0 141 62 230t178 115v-110q-117 -39 -116 -187h116v-253h-240zM460 835v205q0 141 62 230t178 115v-110q-117 -39 -116 -187h116v-253h-240z" />
<glyph unicode="&#x201d;" horiz-adv-x="811" d="M109 815v109q118 40 116 188h-116v253h240v-205q0 -141 -62 -230t-178 -115zM460 815v109q118 40 116 188h-116v253h240v-205q0 -141 -62 -230t-178 -115z" />
<glyph unicode="&#x201e;" horiz-adv-x="811" d="M109 0v253h240v-205q0 -141 -62 -230t-178 -115v109q118 40 116 188h-116zM460 0v253h240v-205q0 -141 -62 -230t-178 -115v109q118 40 116 188h-116z" />
<glyph unicode="&#x2022;" horiz-adv-x="1365" d="M401 694q0 121 84 202q86 82 204 82q113 0 196 -83q84 -83 84 -201t-83 -201t-201 -83q-116 0 -199 82q-85 84 -85 202z" />
<glyph unicode="&#x2026;" horiz-adv-x="1323" d="M87 0v258h266v-258h-266zM528 0v258h266v-258h-266zM969 0v258h266v-258h-266z" />
<glyph unicode="&#x202f;" horiz-adv-x="374" />
<glyph unicode="&#x2039;" horiz-adv-x="422" d="M49 407v209l296 231v-196l-182 -138l182 -143v-199z" />
<glyph unicode="&#x203a;" horiz-adv-x="421" d="M76 172v195l181 140l-181 141v199l295 -234v-212z" />
<glyph unicode="&#x205f;" horiz-adv-x="467" />
<glyph unicode="&#x2122;" horiz-adv-x="1718" d="M-1 1237v128h680v-128h-261v-650h-158v650h-261zM753 587v778h211l225 -571l215 571h213v-778h-150v566l-217 -566h-127l-222 549v-549h-148z" />
<glyph unicode="&#xe000;" horiz-adv-x="990" d="M0 0v990h990v-990h-990z" />
</font>
</defs>
</svg>
