<?xml version="1.0" standalone="no"?>
<!DOCTYPE svg PUBLIC "-//W3C//DTD SVG 1.1//EN" "http://www.w3.org/Graphics/SVG/1.1/DTD/svg11.dtd" >
<svg xmlns="http://www.w3.org/2000/svg">
<metadata></metadata>
<defs>
<font id="nimbussannovtmedregular" horiz-adv-x="1092" >
<font-face units-per-em="2048" ascent="1641" descent="-407" />
<missing-glyph horiz-adv-x="512" />
<glyph horiz-adv-x="2048" />
<glyph horiz-adv-x="2048" />
<glyph unicode="&#xd;" horiz-adv-x="2048" />
<glyph unicode=" "  horiz-adv-x="512" />
<glyph unicode="&#x09;" horiz-adv-x="512" />
<glyph unicode="&#xa0;" horiz-adv-x="512" />
<glyph unicode="!" horiz-adv-x="583" d="M212 0v193h201v-193h-201zM223 947v418h180v-418l-47 -607h-88z" />
<glyph unicode="&#x22;" horiz-adv-x="669" d="M93 1365h134l-28 -549h-79zM443 1365h133l-28 -549h-78z" />
<glyph unicode="#" d="M48 460l15 105h241l31 216h-242l15 105h242l50 356h107l-50 -356h228l50 356h108l-50 -356h251l-15 -105h-251l-31 -216h252l-15 -105h-251l-55 -388h-107l54 388h-228l-54 -388h-108l55 388h-242zM412 565h228l30 216h-228z" />
<glyph unicode="$" d="M70 416h159q0 -284 256 -298v516q-142 24 -241 87q-149 94 -149 279q0 135 83 233q103 122 307 132v167h102v-167q173 -10 269 -104q73 -71 92 -183q6 -33 5 -73h-157q-14 221 -209 229v-468q83 -21 119 -32q284 -86 284 -362q0 -214 -173 -324q-84 -53 -230 -63v-205 h-102v205q-211 14 -312 126q-107 119 -103 305zM252 1014q0 -113 90 -175q47 -32 143 -48v444q-89 -3 -141 -39q-92 -63 -92 -182zM587 118q98 0 168 60q78 67 78 178q0 140 -101 204q-56 35 -145 52v-494z" />
<glyph unicode="%" horiz-adv-x="1696" d="M79 982q0 190 90 289q82 91 229 91t228 -102q70 -89 70 -264q0 -196 -82 -302q-77 -99 -227 -99q-308 0 -308 387zM224 972q0 -268 163 -268q98 0 138 98q29 72 29 188q0 132 -43 200q-38 61 -125 61q-162 0 -162 -279zM400 -66l769 1467h127l-765 -1467h-131zM999 342 q0 189 74 288q84 110 247 110q82 0 147 -35.5t101 -99.5q49 -87 49 -230q0 -214 -89 -312q-81 -90 -222 -90q-159 0 -237 105q-70 93 -70 264zM1145 352q0 -271 164 -271q163 0 163 277q0 273 -164 273q-90 0 -132 -84q-31 -63 -31 -195z" />
<glyph unicode="&#x26;" horiz-adv-x="1280" d="M82 356q0 183 154 305q92 73 165 106q-60 73 -96 136q-52 91 -52 181q0 114 71 191q90 98 247 98q135 0 220 -75q92 -81 92 -209q0 -216 -250 -354l247 -302q41 105 45 214h156q-2 -72 -31 -183q-30 -106 -63 -156l266 -308h-212l-145 172q-25 -43 -91 -98 q-121 -103 -307 -103q-197 0 -316 122q-100 102 -100 263zM251 362q0 -96 73 -174q74 -78 189 -78q129 0 228 98q26 25 63 75l-314 379l-11 -6q-92 -53 -142 -102q-86 -83 -86 -192zM409 1090q0 -66 60 -151q16 -22 77 -99q179 106 179 235q0 68 -45 117q-42 47 -112 47 q-67 0 -111 -41q-48 -44 -48 -108z" />
<glyph unicode="'" horiz-adv-x="319" d="M93 1365h134l-28 -549h-79z" />
<glyph unicode="(" horiz-adv-x="600" d="M82 480q0 285 108 546q80 193 190 339h125q-254 -392 -254 -881q0 -467 254 -869h-125l-9 15q-117 187 -156 271q-133 288 -133 579z" />
<glyph unicode=")" horiz-adv-x="601" d="M96 -385q110 170 174 371q80 250 80 511q0 466 -254 868h125l9 -15q117 -187 156 -270q133 -288 133 -580q0 -285 -108 -546q-81 -194 -190 -339h-125z" />
<glyph unicode="*" d="M254 1131l33 94l205 -78v218h104v-218l203 78l38 -94l-209 -73l127 -173l-79 -58l-133 182l-126 -182l-84 58l124 173z" />
<glyph unicode="+" d="M102 605v130h380v378h130v-378h377v-130h-377v-380h-130v380h-380z" />
<glyph unicode="," horiz-adv-x="511" d="M146 0v205h218v-122q0 -123 -19 -184q-47 -147 -199 -184v97q107 31 111 188h-111z" />
<glyph unicode="-" horiz-adv-x="464" d="M0 427v164h464v-164h-464z" />
<glyph unicode="." horiz-adv-x="511" d="M143 0v213h224v-213h-224z" />
<glyph unicode="/" horiz-adv-x="827" d="M-81 -385l703 1750h133l-698 -1750h-138z" />
<glyph unicode="0" d="M93 650q0 193 20 320q28 178 131 283q111 112 307 112q184 0 295 -112q103 -103 133 -287q21 -125 21 -318q0 -280 -65 -432q-104 -243 -383 -243q-293 0 -396 242q-63 149 -63 435zM264 654q0 -228 38 -351q29 -93 98 -143q64 -45 150 -45q120 0 189 89q60 79 78 229 q12 98 12 226q0 251 -39 376q-59 188 -248 188q-186 0 -241 -186q-37 -125 -37 -383z" />
<glyph unicode="1" d="M213 990v123q185 -2 291 73q68 50 104 179h127v-1365h-177v990h-101h-96h-104h-44z" />
<glyph unicode="2" d="M104 0q6 195 105 328q46 65 132 133q50 38 168 112q192 120 245 182q78 91 78 207q0 114 -74 189q-70 72 -187 72q-97 0 -164 -59q-94 -83 -102 -286h-163q-1 23 -1 34q0 209 128 337q116 116 310 116q181 0 295 -96q60 -50 93 -129q36 -82 36 -175q0 -175 -121 -303 q-80 -85 -286 -209q-160 -95 -223 -159q-64 -69 -80 -148q21 0 69 1h630v-147h-888z" />
<glyph unicode="3" d="M82 396q0 10 1 30h161q4 -104 44 -176q75 -135 251 -135q137 0 220 85q74 75 74 186q0 122 -84 193q-47 40 -105 56q-44 12 -118 12q-45 0 -83 -6v138q32 -3 56 -3q124 0 195 55q80 63 80 171q0 102 -74 167q-62 54 -164 54q-147 0 -216 -112q-45 -73 -48 -187h-159 q4 145 64 254q105 187 367 187q173 0 287 -95q113 -93 113 -259q0 -133 -88 -218q-44 -42 -99 -66q75 -19 133 -66q114 -91 114 -258q0 -191 -133 -316q-123 -114 -336 -114q-245 0 -368 161q-85 111 -85 262z" />
<glyph unicode="4" d="M72 332v152l618 881h132v-896h183v-137h-183v-332h-154v332h-596zM206 469h77h81h304v387q0 155 3 282q-125 -196 -153 -237l-177 -249q-33 -46 -135 -183z" />
<glyph unicode="5" d="M86 366h165q7 -79 49 -140q39 -56 105 -85q59 -27 124 -27q141 0 227 107q71 89 71 213q0 126 -73 219q-79 100 -228 100q-168 0 -262 -132l-140 7l127 711h672v-147h-550l-49 -251q-16 -82 -33 -154q97 108 274 108q180 0 298 -110q134 -125 134 -337q0 -207 -133 -343 q-130 -133 -337 -133q-251 0 -372 174q-66 94 -69 220z" />
<glyph unicode="6" d="M94 652q0 373 146 554q129 160 346 160q203 0 306 -129q73 -91 83 -225h-165q-32 212 -231 212q-200 0 -279 -234q-31 -91 -44 -292q108 177 337 177q185 0 303 -120q116 -117 116 -313q0 -213 -125 -338q-131 -131 -320 -131q-172 0 -290 102q-115 99 -155 282 q-28 127 -28 295zM287 434q0 -125 65 -215q76 -104 215 -104q133 0 207 98q67 87 67 211q0 130 -66 215q-73 94 -215 94q-136 0 -214 -104q-59 -79 -59 -195z" />
<glyph unicode="7" d="M128 1180v158h878v-144q-10 -13 -64 -74q-193 -224 -313 -528q-108 -273 -144 -592h-180q12 168 71.5 365.5t149.5 366.5q131 241 315 450l-77 -1l-91 -1h-545z" />
<glyph unicode="8" d="M90 385q0 188 135 289q51 38 104 55q-62 25 -103 69q-84 89 -84 216q0 155 113 253q114 98 291 98q197 0 307 -112q95 -97 95 -230q0 -205 -187 -294q241 -85 241 -329q0 -199 -127 -315q-124 -112 -335 -112q-209 0 -335 121q-115 112 -115 291zM261 389q0 -130 91 -206 q81 -68 192 -68q143 0 220 88q67 78 67 185q0 122 -79 196q-81 74 -212 74q-128 0 -207 -83q-72 -76 -72 -186zM313 1006q0 -92 58 -150q67 -66 175 -66q114 0 175 67q56 61 56 150q0 104 -66 160q-65 56 -168 56q-114 0 -177 -73q-53 -60 -53 -144z" />
<glyph unicode="9" d="M83 903q0 206 131 338q122 124 316 124q287 0 403 -263q63 -144 63 -403q0 -268 -71 -435q-61 -143 -164.5 -217t-244.5 -74q-220 0 -333 155q-62 84 -69 202h161q12 -83 52 -131q72 -84 195 -84q173 0 245 177q61 149 62 357q-39 -61 -71 -91q-104 -96 -261 -96 q-95 0 -178.5 37.5t-139.5 105.5q-96 119 -96 298zM254 907q0 -114 55 -196q72 -107 213 -107q134 0 212 95q66 80 66 203q0 142 -71 226q-79 95 -208 95q-118 0 -195 -91q-72 -85 -72 -225z" />
<glyph unicode=":" horiz-adv-x="545" d="M177 0v213h224v-213h-224zM177 777v213h224v-213h-224z" />
<glyph unicode=";" horiz-adv-x="545" d="M180 0v206h218v-129q9 -303 -218 -360v95q113 40 110 188h-110zM180 785v205h218v-205h-218z" />
<glyph unicode="&#x3c;" horiz-adv-x="1024" d="M68 611v152l887 425v-178l-698 -324l698 -324v-176z" />
<glyph unicode="=" d="M102 450v130h887v-130h-887zM102 757v130h887v-130h-887z" />
<glyph unicode="&#x3e;" horiz-adv-x="1024" d="M69 186v177l698 324l-698 325v176l887 -425v-153z" />
<glyph unicode="?" horiz-adv-x="1022" d="M102 945q8 174 68 269q65 101 183 150q80 33 180 33q189 0 302 -107q104 -99 104 -261q0 -134 -71 -230q-32 -44 -152 -161q-56 -55 -75 -88q-38 -66 -38 -213h-158q2 149 25 212q20 59 81 130q16 18 106 111q69 70 90 128q18 48 18 98q0 94 -51 157q-63 78 -183 78 q-249 0 -269 -306h-160zM421 0v194h202v-194h-202z" />
<glyph unicode="@" horiz-adv-x="1518" d="M89 665q0 153 61 289t173 235q201 176 473 176q135 0 259 -50t214 -140q159 -160 159 -385q0 -241 -185 -390q-131 -106 -261 -106q-81 0 -128 55q-13 15 -21 40q-103 -95 -217 -95q-115 0 -184 96q-47 66 -47 168q0 162 103 305q129 180 297 180q91 0 154 -58 q20 -18 36 -47l27 73h135l-170 -499q-19 -55 -19 -77q0 -53 62 -53q96 0 194 99q126 126 126 305q0 218 -170 360q-152 127 -362 127q-132 0 -251 -52.5t-204 -148.5q-150 -168 -150 -405q0 -247 167 -418q175 -181 430 -181q205 0 378 136q81 64 132 153h108 q-34 -76 -70 -123.5t-100 -98.5q-200 -162 -452 -162q-160 0 -304.5 69t-243.5 193q-149 188 -149 430zM529 521q0 -58 25 -96q29 -44 85 -44q73 0 130 62q44 47 83 153l47 130q24 67 24 106q0 36 -16 65q-32 57 -93 57q-95 0 -182 -120q-49 -68 -78 -163q-25 -80 -25 -150z " />
<glyph unicode="A" horiz-adv-x="1297" d="M12 0l536 1371h203l533 -1371h-200l-153 419h-573l-156 -419h-190zM410 565h468l-134 363q-74 199 -98 276q-33 -97 -98 -269z" />
<glyph unicode="B" horiz-adv-x="1323" d="M157 0v1365h549q200 0 291 -46q91 -45 141 -135q41 -75 41 -161q0 -130 -94 -223q-43 -43 -108 -68q76 -20 119 -49q143 -97 143 -283q0 -244 -201 -350q-94 -50 -247 -50h-634zM337 157h361q186 0 250 32q110 56 110 204q0 167 -148 223q-58 22 -243 22h-330v-481z M337 784h325q133 0 197 18q76 22 114 92q25 46 25 104q0 148 -124 192q-50 18 -194 18h-343v-424z" />
<glyph unicode="C" horiz-adv-x="1383" d="M90 681q0 320 187 525q172 190 460 190q281 0 442 -174q110 -119 124 -266h-182q-23 104 -93 175q-111 112 -295 112q-244 0 -367 -199q-94 -151 -94 -361q0 -224 97 -373q123 -188 363 -188q204 0 313 143q71 93 90 250h179q-17 -208 -132 -348q-161 -198 -459 -198 q-316 0 -487 224q-146 189 -146 488z" />
<glyph unicode="D" horiz-adv-x="1372" d="M157 0v1365h490q171 0 268 -34q118 -41 209 -142q158 -175 158 -477q0 -365 -192 -561q-108 -109 -247 -137q-66 -14 -176 -14h-510zM337 157h295q143 0 214 24q138 47 206 216q48 117 48 306q0 266 -133 396q-74 72 -167 93q-69 16 -149 16h-314v-1051z" />
<glyph unicode="E" horiz-adv-x="1196" d="M157 0v1365h946v-157h-766v-432h716v-146h-716v-473h776v-157h-956z" />
<glyph unicode="F" horiz-adv-x="1097" d="M157 0v1365h897v-157h-717v-431h631v-146h-631v-631h-180z" />
<glyph unicode="G" horiz-adv-x="1469" d="M90 669q0 321 186 530q177 198 478 198q278 0 438 -164q118 -121 135 -287h-177q-14 93 -77 167q-111 131 -319 131q-231 0 -363 -166q-119 -151 -119 -402q0 -230 109 -377q132 -178 372 -178q187 0 306 118q118 115 122 336h-437v146h598v-721h-115l-27 104 q-11 40 -19 67q-166 -203 -439 -203q-328 0 -507 237q-145 190 -145 464z" />
<glyph unicode="H" horiz-adv-x="1395" d="M157 0v1365h180v-569h721v569h180v-1365h-180v639h-721v-639h-180z" />
<glyph unicode="I" horiz-adv-x="494" d="M157 0v1365h180v-1365h-180z" />
<glyph unicode="J" horiz-adv-x="961" d="M22 397q0 24 2 54h175v-50q0 -136 38 -195q56 -85 192 -85q128 0 177 83q37 61 37 235v926h180v-925q0 -125 -12 -193q-23 -132 -126 -208q-98 -71 -255 -71q-277 0 -366 188q-42 89 -42 241z" />
<glyph unicode="K" horiz-adv-x="1274" d="M157 0v1365h180v-538q-1 -91 -1 -142q33 32 90 91l604 589h236l-576 -548l599 -817h-229l-497 694l-226 -215v-479h-180z" />
<glyph unicode="L" horiz-adv-x="1102" d="M157 0v1365h180v-1208h725v-157h-905z" />
<glyph unicode="M" horiz-adv-x="1680" d="M157 0v1365h246l320 -833q87 -227 123 -345q46 142 119 343l307 835h250v-1365h-173l2 612q3 373 22 607l-20 -55l-62 -177l-42 -114l-325 -873h-157l-340 863q-81 209 -118 343q17 -276 19 -588l2 -618h-173z" />
<glyph unicode="N" horiz-adv-x="1407" d="M157 0v1365h195l510 -777q156 -236 227 -373q-5 126 -12 467v683h172v-1365h-199l-487 736q-201 309 -246 407q8 -108 11 -326l1 -128v-689h-172z" />
<glyph unicode="O" horiz-adv-x="1487" d="M90 682q0 330 180 518q188 197 485 197q280 0 462 -197q180 -196 180 -514q0 -285 -140 -472q-183 -245 -515 -245q-330 0 -514 247q-138 185 -138 466zM272 687q0 -245 113 -393q68 -89 178 -135q86 -37 183 -37q193 0 317 127q152 155 152 433q0 255 -131 410 q-128 152 -346 152q-200 0 -331 -146q-135 -149 -135 -411z" />
<glyph unicode="P" horiz-adv-x="1235" d="M157 0v1365h543q138 0 213 -22q123 -36 196 -143q65 -93 65 -227q0 -234 -159 -342q-77 -52 -181 -65q-41 -5 -127 -5h-370v-561h-180zM337 707h348q148 0 215 50q92 68 92 206q0 143 -107 206q-47 28 -117 35q-41 4 -109 4h-322v-501z" />
<glyph unicode="Q" horiz-adv-x="1464" d="M90 683q0 318 181 516q97 106 228 154q118 43 243 43q302 0 480 -204q175 -200 175 -507q0 -221 -86 -385q-50 -94 -117 -158l180 -144l-93 -114l-208 167q-143 -82 -332 -82q-294 0 -476 203q-175 195 -175 511zM272 687q0 -238 106 -384q74 -101 194 -149 q82 -32 176 -32q97 0 187 38l-151 120l95 113l179 -149q157 162 157 442q0 247 -129 403q-129 154 -344 154q-213 0 -344 -157q-126 -150 -126 -399z" />
<glyph unicode="R" horiz-adv-x="1369" d="M153 0v1365h624q172 0 268 -60q166 -103 166 -310q0 -162 -101 -259q-53 -51 -133 -78q95 -17 151 -98q39 -62 48 -149q4 -34 17 -175q14 -167 53 -216l17 -20h-206q-10 14 -23 56q-10 40 -19 213q-14 223 -104 280q-63 41 -219 42h-359v-591h-180zM333 737h340 q118 0 183 14q85 17 131 80q42 57 42 146q0 106 -63 167q-46 44 -123 56q-53 8 -122 8h-388v-471z" />
<glyph unicode="S" horiz-adv-x="1230" d="M51 451h174q4 -132 69 -207q106 -122 335 -122q167 0 251 70q85 70 85 179q0 84 -53 134q-55 52 -179 88q-35 11 -162 40q-188 44 -227 57q-123 42 -181 113q-65 80 -65 202q0 183 137 292q127 100 345 100q323 0 451 -203q58 -91 63 -229h-174q-15 126 -78 191 q-85 88 -263 88q-129 0 -206 -46q-102 -61 -102 -181q0 -98 73 -140t298 -90q154 -33 220 -56q285 -98 285 -346q0 -194 -153 -312q-133 -104 -378 -104q-202 0 -346 79q-216 120 -219 403z" />
<glyph unicode="T" horiz-adv-x="1158" d="M30 1208v157h1098v-157h-459v-1208h-180v1208h-459z" />
<glyph unicode="U" horiz-adv-x="1373" d="M137 572v793h180v-799q0 -126 10 -184q44 -260 367 -260q234 0 311 135q40 68 48 184q3 45 3 126v798h180v-796q0 -183 -22 -261q-96 -339 -522 -339q-229 0 -357 88q-143 97 -180 276q-18 83 -18 239z" />
<glyph unicode="V" horiz-adv-x="1205" d="M12 1365h200l287 -861l39 -121q39 -124 66 -231q31 120 109 352l289 861h191l-488 -1365h-206z" />
<glyph unicode="W" horiz-adv-x="1775" d="M21 1365h187l202 -837q50 -207 71 -342q14 95 81 346l228 833h198l233 -852q56 -222 74 -327q16 107 69 323l210 856h181l-364 -1365h-190l-231 835q-63 240 -84 359q-37 -168 -89 -348l-229 -846h-193z" />
<glyph unicode="X" horiz-adv-x="1186" d="M5 0l481 703l-451 662h216l234 -358q91 -146 109 -182q49 85 115 182l242 358h204l-454 -662l480 -703h-219l-281 424q-55 85 -88 147q-32 -50 -94 -143l-287 -428h-207z" />
<glyph unicode="Y" horiz-adv-x="1198" d="M-20 1365h218l321 -510q57 -89 89 -148q33 61 84 144l320 514h207l-527 -806v-559h-180v559z" />
<glyph unicode="Z" horiz-adv-x="1193" d="M53 0v153l784 973q21 24 76 86q-113 -4 -242 -4h-551v157h1002v-149l-776 -964q-8 -10 -39 -45q-16 -19 -45 -54q198 4 251 4h630v-157h-1090z" />
<glyph unicode="[" horiz-adv-x="601" d="M145 -385v1750h362v-128h-206v-1492h206v-130h-362z" />
<glyph unicode="\" horiz-adv-x="827" d="M72 1365h133l703 -1750h-138z" />
<glyph unicode="]" horiz-adv-x="601" d="M94 -255h206v1492h-206v128h362v-1750h-362v130z" />
<glyph unicode="^" horiz-adv-x="1024" d="M60 760l351 609h201l351 -609h-166l-287 488l-285 -488h-165z" />
<glyph unicode="_" horiz-adv-x="1024" d="M0 -143h1024v-114h-1024v114z" />
<glyph unicode="`" horiz-adv-x="1024" d="M259 1399h201l142 -273h-113z" />
<glyph unicode="a" horiz-adv-x="1036" d="M62 252q0 196 186 271q56 22 139 35q12 2 165 20q124 16 154 58q20 28 20 73q0 174 -223 174q-137 0 -198 -71q-36 -41 -45 -132h-159q3 151 106 243q106 96 308 96q208 0 310 -97q48 -47 61 -130q6 -39 6 -140q0 -135 -6 -371q-1 -44 -1 -63q0 -53 14 -75q15 -22 51 -22 q19 0 43 10v-127q-57 -20 -114 -20q-77 0 -116 53q-26 35 -27 94q-139 -160 -358 -160q-139 0 -221 68q-95 78 -95 213zM229 266q0 -75 53 -123q49 -45 143 -45q121 0 213 72q68 52 84 113q7 27 7 83v148q-33 -25 -83 -38q-28 -8 -136 -22q-143 -18 -198 -46 q-83 -43 -83 -142z" />
<glyph unicode="b" horiz-adv-x="1159" d="M144 0v1365h162v-512q103 166 327 166q199 0 323 -141q123 -139 123 -379q0 -247 -130 -391q-125 -137 -326 -137q-236 0 -327 172v-143h-152zM301 491q0 -182 82 -280q85 -103 225 -103q138 0 217 102q87 111 87 286q0 184 -87 289q-81 97 -220 97q-127 0 -212 -92 q-92 -99 -92 -299z" />
<glyph unicode="c" horiz-adv-x="1041" d="M81 481q0 268 146 411q130 127 329 127q226 0 339 -140q67 -83 82 -211h-169q-16 84 -61 135q-70 80 -191 80q-162 0 -243 -131q-65 -105 -65 -257q0 -163 66 -264q80 -124 232 -124q153 0 228 124q32 54 43 129h166q-19 -142 -95 -237q-121 -152 -337 -152 q-241 0 -368 168q-102 136 -102 342z" />
<glyph unicode="d" horiz-adv-x="1159" d="M80 497q0 243 122 380q127 142 323 142q157 0 257 -80q42 -33 71 -86v512h162v-1365h-153v146q-29 -58 -80 -99q-97 -76 -244 -76q-203 0 -328 137q-130 141 -130 389zM247 501q0 -180 87 -290q82 -103 219 -103q141 0 223 103q81 102 81 280q0 201 -92 300 q-85 91 -219 91q-130 0 -211 -96q-88 -103 -88 -285z" />
<glyph unicode="e" horiz-adv-x="1065" d="M81 488q0 232 128 380q131 151 335 151q167 0 285 -101q128 -109 156 -310q8 -64 8 -155h-744q10 -346 312 -346q146 0 214 105q27 41 47 105h160q-78 -346 -433 -346q-240 0 -363 163q-105 139 -105 354zM250 587h575q-8 102 -50 169q-80 127 -236 127q-150 0 -226 -113 q-47 -70 -63 -183z" />
<glyph unicode="f" horiz-adv-x="573" d="M11 856v134h167v65q0 96 6 136q14 91 87 143q62 43 169 43q48 0 116 -7v-140q-50 11 -96 11q-84 0 -107 -43q-13 -25 -13 -94v-114h190v-134h-190v-856h-162v856h-167z" />
<glyph unicode="g" horiz-adv-x="1133" d="M80 491q0 243 126 386q125 142 317 142q205 0 314 -172v143h152v-882q0 -128 -17 -204q-33 -150 -141 -225q-118 -83 -301 -83q-206 0 -318 94q-82 69 -99 198h168q29 -165 254 -165q173 0 239 98q54 81 54 228v120q-31 -54 -60 -84q-95 -98 -255 -98q-194 0 -315 138 q-118 137 -118 366zM247 502q0 -213 106 -309q77 -69 181 -69q145 0 224 121q67 105 67 272q0 93 -26.5 171t-73.5 123q-75 71 -194 71q-140 0 -216 -115q-68 -101 -68 -265z" />
<glyph unicode="h" horiz-adv-x="1101" d="M144 0v1365h162v-399q0 -22 -4 -118q112 171 331 171q217 0 294 -148q38 -72 38 -228v-643h-162v623q0 131 -32 178q-54 81 -185 81q-117 0 -195 -75q-59 -57 -76 -152q-9 -50 -9 -188v-467h-162z" />
<glyph unicode="i" horiz-adv-x="449" d="M143 0v990h162v-990h-162zM143 1166v199h162v-199h-162z" />
<glyph unicode="j" horiz-adv-x="449" d="M-19 -254q33 -7 61 -7q74 0 90 40q12 30 12 195v1016h162v-1015q0 -134 -6 -188q-20 -185 -245 -185q-34 0 -74 6v138zM144 1166v199h162v-199h-162z" />
<glyph unicode="k" horiz-adv-x="1020" d="M144 0v1365h162v-670v-75v-67q45 48 67 69l389 368h218l-393 -359l421 -631h-206l-340 518l-156 -143v-375h-162z" />
<glyph unicode="l" horiz-adv-x="449" d="M143 0v1365h162v-1365h-162z" />
<glyph unicode="m" horiz-adv-x="1669" d="M144 0v990h152v-143q59 79 118 116q90 56 205 56q139 0 216 -79q32 -33 58 -96q123 175 331 175q85 0 154 -32.5t107 -90.5q48 -74 48 -213v-683h-162v624q0 119 -19 162q-41 96 -179 96q-97 0 -162 -54q-76 -62 -87 -168q-5 -43 -5 -136v-524h-162v636q0 115 -24 164 q-40 83 -159 83q-101 0 -172 -60q-73 -61 -89 -169q-7 -48 -7 -130v-524h-162z" />
<glyph unicode="n" horiz-adv-x="1101" d="M144 0v990h152v-154q42 63 80 94q106 89 265 89q97 0 172 -38t111 -106q32 -58 38 -133q3 -46 3 -102v-640h-162v583q0 135 -19 188q-20 54 -72 82q-54 29 -123 29q-126 0 -203 -82q-55 -58 -71 -152q-9 -57 -9 -169v-479h-162z" />
<glyph unicode="o" horiz-adv-x="1118" d="M81 495q0 218 110 357q131 167 377 167q214 0 346 -146q125 -137 125 -377q0 -264 -148 -407q-121 -118 -325 -118q-235 0 -363 152q-122 144 -122 372zM248 496q0 -191 93 -295q83 -93 224 -93q125 0 203 79q104 106 104 309q0 189 -91 292q-83 94 -223 94 q-130 0 -214 -92q-96 -105 -96 -294z" />
<glyph unicode="p" horiz-adv-x="1160" d="M144 -385v1375h152v-142q112 171 329 171q193 0 316 -128q139 -145 139 -402q0 -234 -123 -376q-124 -142 -321 -142q-217 0 -330 165v-521h-162zM300 498q0 -198 94 -299q85 -91 216 -91q137 0 215 96q88 108 88 283q0 187 -91 298q-80 97 -220 97q-132 0 -217 -99 t-85 -285z" />
<glyph unicode="q" horiz-adv-x="1159" d="M81 489q0 257 137 401q122 129 319 129q230 0 327 -172v143h152v-1375h-162v522q-114 -166 -333 -166q-195 0 -317 138q-123 139 -123 380zM248 490q0 -181 87 -285q81 -97 216 -97q130 0 214 90q94 101 94 303q0 184 -86 282q-86 99 -226 99q-130 0 -208 -96 q-91 -111 -91 -296z" />
<glyph unicode="r" horiz-adv-x="663" d="M144 0v990h152v-207q97 236 354 236h17v-170q-36 3 -53 3q-130 0 -214 -86q-71 -73 -86 -202q-8 -64 -8 -179v-385h-162z" />
<glyph unicode="s" horiz-adv-x="951" d="M45 313h160q10 -83 45 -124q68 -81 220 -81q118 0 180 47q64 47 64 117q0 78 -92 120q-40 18 -157 46q-180 44 -212 55q-186 64 -186 234q0 159 139 238q94 54 238 54q223 0 327 -121q59 -69 69 -196h-163q-9 68 -35 102q-59 78 -206 78q-92 0 -145 -34q-57 -36 -57 -101 q0 -72 72 -106q40 -18 192 -53q117 -26 180 -49t110 -57q93 -68 93 -194q0 -73 -35 -138t-96 -106q-108 -73 -280 -73q-233 0 -343 119q-77 84 -82 223z" />
<glyph unicode="t" horiz-adv-x="578" d="M-7 856v134h167v293h162v-293h197v-134h-197v-584q0 -93 15 -118q21 -34 93 -34q43 0 89 11v-139q-63 -8 -125 -8q-164 0 -210 86q-19 35 -22 111q-1 9 -2 182v493h-167z" />
<glyph unicode="u" horiz-adv-x="1105" d="M137 347v643h162v-584q0 -130 18 -184q17 -54 69.5 -84t127.5 -30q167 0 247 147q39 71 39 256v479h162v-990h-152v155q-37 -61 -95 -104q-106 -80 -248 -80q-176 0 -264 108q-66 81 -66 268z" />
<glyph unicode="v" horiz-adv-x="906" d="M1 990h180l178 -501q57 -162 104 -326q32 119 106 337l166 490h170l-361 -990h-175z" />
<glyph unicode="w" horiz-adv-x="1407" d="M10 990h180l137 -474q44 -152 89 -336q49 228 78 342l122 468h180l143 -526q27 -103 64 -284q37 167 70 280l154 530h171l-316 -990h-173l-148 541q-29 108 -58 246q-29 -133 -58 -245l-141 -542h-177z" />
<glyph unicode="x" horiz-adv-x="945" d="M-7 0l372 522l-344 468h208l158 -224q22 -30 79 -121q60 87 85 122l162 223h197l-342 -455l383 -535h-209l-213 312q-34 50 -63 98q-25 -39 -65 -98l-210 -312h-198z" />
<glyph unicode="y" horiz-adv-x="928" d="M1 990h183l217 -580q23 -62 75 -229q47 147 80 244l199 565h172l-364 -958q-98 -256 -136 -318q-70 -112 -213 -112q-49 0 -94 10l-25 6v146q69 -21 108 -21q71 0 114 83q26 50 75 180z" />
<glyph unicode="z" horiz-adv-x="904" d="M48 0v121l518 644q20 25 83 92q-70 -1 -93 -1h-470v134h773v-108l-532 -662q-14 -17 -74 -87q73 1 123 1h508v-134h-836z" />
<glyph unicode="{" horiz-adv-x="601" d="M27 424v136q53 14 85 54q31 37 32 134v339q-1 148 67 212q45 47 114 57q38 8 157 9h13v-128q-89 -2 -140 -35q-38 -28 -47 -81q-8 -34 -8 -101v-299q-1 -109 -30 -157q-24 -44 -83 -75q65 -35 93 -102q19 -44 20 -136v-291q4 -112 20 -140q36 -78 175 -77v-128h-14 q-166 3 -195 18q-99 35 -127 143q-15 53 -15 143v310q0 102 -34 145q-32 37 -83 50z" />
<glyph unicode="|" horiz-adv-x="1024" d="M423 -341v1706h178v-1706h-178z" />
<glyph unicode="}" horiz-adv-x="601" d="M105 -257q89 2 140 35q38 28 47 81q8 34 8 101v299q1 108 30 157q25 44 83 76q-64 34 -94 101q-19 44 -19 136v291q-4 113 -20 140q-36 78 -175 77v128h14q166 -3 195 -18q98 -35 127 -143q15 -53 15 -143v-310q0 -102 34 -145q33 -37 83 -50v-136q-53 -13 -85 -54 q-31 -37 -32 -134v-339q1 -148 -66 -212q-46 -47 -115 -57q-38 -8 -157 -9h-13v128z" />
<glyph unicode="~" horiz-adv-x="1365" d="M193 1255q106 236 281 236q76 0 236 -79q98 -48 130 -57q31 -9 57 -9q101 0 184 150l94 -74q-104 -234 -298 -234q-30 0 -72 13t-172 77q-108 53 -169 53q-93 0 -178 -150z" />
<glyph unicode="&#xa1;" horiz-adv-x="583" d="M171 797v193h201v-193h-201zM182 43l46 608h89l45 -608v-418h-180v418z" />
<glyph unicode="&#xa2;" d="M108 692q0 285 174 428q99 81 236 96v168h102v-168q167 -6 272 -107q99 -98 112 -242h-172q-12 83 -67 143q-58 59 -145 70v-769q98 8 164 97q46 66 58 150h162q-11 -150 -123 -270q-105 -107 -261 -112v-206h-102v206q-172 9 -282 131q-128 143 -128 385zM279 698 q0 -177 73 -279q65 -91 166 -106v762q-93 -13 -156 -93q-83 -105 -83 -284z" />
<glyph unicode="&#xa3;" d="M111 597v116h120q-41 69 -55 101q-36 83 -36 173q0 185 152 295q114 83 288 83q280 0 397 -203q54 -94 53 -232h-167q-5 94 -38 161q-33 69 -110 104q-62 28 -137 28q-139 0 -216 -89q-52 -61 -52 -142q0 -89 63 -205q31 -59 39 -74h317v-116h-262q22 -68 22 -114 q0 -82 -31 -141q-42 -78 -106 -140q-5 -5 -57 -51q-8 -7 -25 -23q65 30 102 41q53 17 117 17q58 0 119 -16q18 -4 117 -35q36 -11 81 -11q99 0 182 68l81 -126q-22 -21 -79 -51q-78 -42 -187 -42q-63 0 -113 14q-21 6 -103 33q-108 36 -182 36q-65 0 -120 -28 q-31 -16 -79 -48l-88 136q79 59 114 101q95 113 95 235q0 68 -37 145h-179z" />
<glyph unicode="&#xa4;" horiz-adv-x="1365" d="M170 1128l87 89l117 -116q143 111 312 111q95 0 187 -36q48 -19 117 -70l114 111l86 -89l-113 -110q60 -77 82 -138q30 -83 30 -173q0 -102 -36 -191q-19 -46 -71 -114l113 -112l-86 -88l-113 112q-74 -58 -135 -80q-88 -32 -178 -32q-104 0 -198 41q-47 20 -113 71 l-115 -112l-86 88l113 112q-55 78 -76 135q-28 80 -28 169q0 102 35 191q18 47 71 116zM319 707q0 -164 122 -274q104 -94 246 -94q163 0 273 121q94 105 94 249q0 158 -122 270q-103 94 -251 94q-157 0 -267 -121q-95 -105 -95 -245z" />
<glyph unicode="&#xa5;" d="M52 1338h187l316 -629l309 629h177l-297 -562h236v-116h-298l-51 -101v-114h308v-116h-308v-329h-164v329h-315v116h315v114l-53 101h-302v116h240z" />
<glyph unicode="&#xa6;" horiz-adv-x="1024" d="M423 314h178v-655h-178v655zM423 677v688h178v-688h-178z" />
<glyph unicode="&#xa7;" d="M86 595q0 152 117 235q41 30 87 42q-88 90 -88 198q0 145 115 232q93 70 236 70q213 0 304 -148q48 -79 48 -193h-161q-15 205 -196 205q-70 0 -120 -34q-62 -42 -62 -120t85 -143q29 -23 242 -148q182 -106 243 -173q70 -77 70 -187q0 -196 -200 -286q40 -36 60 -62 q48 -67 48 -161q0 -130 -103 -221q-95 -86 -254 -86q-213 0 -315 144q-61 84 -66 210h164q18 -216 222 -216q90 0 142 52q44 45 44 107q0 71 -63 126q-62 54 -241 157q-147 85 -186 112q-104 71 -141 144q-31 64 -31 144zM240 610q0 -82 80 -144q47 -37 239 -147 q60 -34 151 -95q46 19 79 50q59 56 59 127q0 88 -101 162q-62 45 -296 179q-50 30 -72 49q-139 -62 -139 -181z" />
<glyph unicode="&#xa8;" horiz-adv-x="1024" d="M244 1160v194h173v-194h-173zM606 1160v194h173v-194h-173z" />
<glyph unicode="&#xa9;" horiz-adv-x="1606" d="M90 681q0 203 105 375q103 169 285 263q152 77 333 77q191 0 362 -105q172 -106 262 -284q78 -154 78 -325q0 -142 -54 -273t-154 -231q-101 -100 -232 -154.5t-272 -54.5t-272 54t-231 154t-155 231.5t-55 272.5zM198 683q0 -255 178 -435q178 -179 427 -179 q250 0 427 180q177 179 177 432q0 124 -46.5 238.5t-130.5 197.5q-181 179 -433 179q-116 0 -226 -47t-195 -131q-85 -86 -131.5 -199.5t-46.5 -235.5zM405 682q0 183 115 301q106 109 283 109q172 0 271 -100q70 -71 79 -166h-127q-15 62 -56 101q-63 60 -170 60 q-141 0 -212 -107q-55 -83 -55 -197q0 -123 57 -204q70 -101 210 -101q206 0 233 220h126q-11 -129 -82 -211q-100 -114 -283 -114q-194 0 -299 129q-90 109 -90 280z" />
<glyph unicode="&#xaa;" horiz-adv-x="795" d="M93 608v68h609v-68h-609zM138 962q0 109 109 151q38 15 172 30q66 8 81 28q10 14 10 36q0 86 -118 86q-74 0 -106 -35q-19 -21 -25 -73h-102q2 91 62 142q62 53 177 53q120 0 178 -54q30 -27 37 -74q3 -20 3 -72q0 -76 -3 -204v-32q0 -47 28 -47q11 0 31 10v-84 q-38 -12 -71 -12q-69 0 -85 69q-70 -76 -195 -76q-80 0 -127 38q-56 44 -56 120zM245 969q0 -37 27 -61q26 -22 76 -22q96 0 147 68q16 22 16 69v67q-57 -20 -115 -26q-75 -8 -109 -25q-42 -20 -42 -70z" />
<glyph unicode="&#xab;" horiz-adv-x="889" d="M96 431v163l298 229v-164l-198 -146l198 -150v-168zM474 428v166l292 229v-166l-192 -146l192 -150v-162z" />
<glyph unicode="&#xac;" horiz-adv-x="1024" d="M68 415v156h887v-571h-173v415h-714z" />
<glyph unicode="&#xad;" horiz-adv-x="464" d="M0 427v164h464v-164h-464z" />
<glyph unicode="&#xae;" horiz-adv-x="1606" d="M90 681q0 203 105 375q103 169 285 263q152 77 333 77q191 0 362 -105q172 -106 262 -284q78 -154 78 -325q0 -142 -54 -273t-154 -231q-101 -100 -232 -154.5t-272 -54.5t-272 54t-231 154t-155 231.5t-55 272.5zM198 683q0 -255 178 -435q178 -179 427 -179 q250 0 427 180q177 179 177 432q0 124 -46.5 238.5t-130.5 197.5q-181 179 -433 179q-116 0 -226 -47t-195 -131q-85 -86 -131.5 -199.5t-46.5 -235.5zM488 291v784h384q105 0 166 -35q104 -60 104 -183q0 -128 -118 -186q49 -18 76 -68q16 -31 22 -82q2 -14 9 -87 q8 -90 29 -116l26 -27h-151q-24 29 -27 101q-5 143 -38 188q-31 41 -149 42h-206v-331h-127zM615 723h194q109 0 150 22q55 31 55 104q0 83 -72 107q-35 12 -104 12h-223v-245z" />
<glyph unicode="&#xaf;" horiz-adv-x="1024" d="M0 1641v111h1024v-111h-1024z" />
<glyph unicode="&#xb0;" horiz-adv-x="789" d="M93 1062q0 142 102 228q89 75 205 75q122 0 213 -94q83 -87 83 -207q0 -128 -89 -217q-88 -87 -211 -87q-134 0 -225 99q-78 86 -78 203zM187 1063q0 -78 51 -139q61 -73 157 -73q81 0 143 59q64 63 64 150q0 88 -59 149q-63 65 -153 65q-76 0 -134 -55q-69 -66 -69 -156 z" />
<glyph unicode="&#xb1;" d="M102 41v130h887v-130h-887zM102 605v130h380v378h130v-378h377v-130h-377v-366h-130v366h-380z" />
<glyph unicode="&#xb2;" horiz-adv-x="722" d="M76 546q1 121 67 204q54 68 191 146q119 71 153 107q47 52 47 118q0 65 -44 107q-43 40 -113 40q-153 0 -161 -203h-116q-1 19 -1 28q0 125 83 203q75 70 200 70q116 0 190 -58q84 -66 84 -184q0 -107 -80 -185q-52 -51 -185 -125q-91 -50 -130 -82q-38 -32 -60 -86h448 v-100h-573z" />
<glyph unicode="&#xb3;" horiz-adv-x="722" d="M62 793v18h115q7 -183 179 -183q84 0 134 48q44 43 44 104q0 69 -50 110q-49 38 -135 38q-31 0 -60 -4v96q25 -2 42 -2q75 0 118 31q48 34 48 95q0 57 -44 93q-37 30 -98 30q-156 0 -160 -176h-114q2 95 41 160q70 114 238 114q110 0 184 -57q74 -58 74 -159 q0 -105 -104 -165q142 -51 142 -193q0 -117 -86 -192q-80 -69 -216 -69q-157 0 -237 97q-55 68 -55 166z" />
<glyph unicode="&#xb4;" horiz-adv-x="1024" d="M422 1126l142 273h201l-230 -273h-113z" />
<glyph unicode="&#xb5;" horiz-adv-x="1024" d="M100 -341v1324h153v-552q0 -102 12 -147q25 -92 113 -145q58 -35 124 -35q136 0 208 116q61 100 61 229v534h153v-983h-153v184q-35 -89 -80 -134q-78 -76 -191 -76q-106 0 -180 64q-32 28 -67 85v-464h-153z" />
<glyph unicode="&#xb6;" d="M72 1001q0 124 63 217q66 97 189 129q70 18 177 18h484v-109h-88v-1641h-132v1641h-177v-1641h-132v1031q-20 -1 -29 -1q-111 0 -198 53q-74 44 -115 124q-42 81 -42 179z" />
<glyph unicode="&#xb7;" horiz-adv-x="511" d="M143 403v213h224v-213h-224z" />
<glyph unicode="&#xb8;" horiz-adv-x="1024" d="M278 -375l35 69q67 -26 130 -26q43 0 69 17q35 23 35 60q0 41 -41 63q-23 12 -52 12t-75 -15l-32 34l122 161h79l-85 -116q37 10 66 10q69 0 113 -34q51 -40 51 -105q0 -42 -26.5 -82t-68.5 -60q-59 -28 -141 -28q-84 0 -179 40z" />
<glyph unicode="&#xb9;" horiz-adv-x="723" d="M145 1130v86q119 -1 185 42q42 30 65 107h93v-819h-127v584h-56h-60h-66h-34z" />
<glyph unicode="&#xba;" horiz-adv-x="795" d="M93 608v68h609v-68h-609zM122 1092q0 121 63 196q77 92 217 92q123 0 198 -80q72 -76 72 -208q0 -145 -85 -223q-71 -65 -187 -65q-134 0 -208 84q-70 79 -70 204zM228 1092q0 -99 51 -153q44 -48 121 -48q68 0 109 40q57 56 57 162q0 99 -49 152q-46 48 -121 48 q-69 0 -116 -47q-52 -54 -52 -154z" />
<glyph unicode="&#xbb;" horiz-adv-x="889" d="M123 198v163l191 145l-191 149v165l291 -231v-163zM496 195v163l196 146l-196 151v168l297 -237v-162z" />
<glyph unicode="&#xbc;" horiz-adv-x="1757" d="M145 1130v86q119 -1 185 42q42 30 65 107h93v-819h-127v584h-56h-60h-66h-34zM436 0l781 1349h111l-777 -1349h-115zM1090 195v100l392 524h94v-528h116v-96h-116v-195h-111v195h-375zM1195 291h34h52h184v221q0 88 1 143q-62 -90 -83 -120l-111 -147q-14 -18 -77 -97z " />
<glyph unicode="&#xbd;" horiz-adv-x="1756" d="M145 1130v86q119 -1 185 42q42 30 65 107h93v-819h-127v584h-56h-60h-66h-34zM436 0l781 1349h111l-777 -1349h-115zM1110 0q2 123 67 204q56 69 191 147q118 69 153 107q47 51 47 117q0 65 -44 107q-43 40 -113 40q-153 0 -161 -203h-116q-1 19 -1 27q0 125 83 203 q75 70 201 70q115 0 189 -58q84 -66 84 -184q0 -106 -80 -184q-52 -50 -185 -125q-91 -50 -130 -82q-38 -32 -60 -86h448v-100h-573z" />
<glyph unicode="&#xbe;" horiz-adv-x="1756" d="M62 793v18h115q7 -183 179 -183q84 0 134 48q44 43 44 104q0 69 -50 110q-49 38 -135 38q-31 0 -60 -4v96q25 -2 42 -2q75 0 118 31q48 34 48 95q0 57 -44 93q-37 30 -98 30q-156 0 -160 -176h-114q2 95 41 160q70 114 238 114q110 0 184 -57q74 -58 74 -159 q0 -105 -104 -165q142 -51 142 -193q0 -117 -86 -192q-80 -69 -216 -69q-157 0 -237 97q-55 68 -55 166zM436 0l781 1349h110l-776 -1349h-115zM1090 195v100l392 524h94v-528h116v-96h-116v-195h-111v195h-375zM1195 291h34h52h184v221q0 88 1 143q-62 -90 -83 -120 l-111 -147q-15 -20 -77 -97z" />
<glyph unicode="&#xbf;" horiz-adv-x="1022" d="M82 -38q0 133 71 230q31 43 152 160q56 55 76 88q38 66 37 213h159q-2 -149 -25 -212q-20 -58 -82 -130q-15 -18 -106 -110q-69 -71 -90 -128q-18 -48 -18 -99q0 -94 51 -157q63 -78 183 -78q249 0 269 307h160q-7 -175 -68 -270q-65 -101 -182 -150q-81 -33 -181 -33 q-190 0 -302 107q-104 100 -104 262zM399 796v194h202v-194h-202z" />
<glyph unicode="&#xc0;" horiz-adv-x="1297" d="M12 0l536 1371h203l533 -1371h-200l-153 419h-573l-156 -419h-190zM367 1734h215l155 -259h-133zM410 565h468l-134 363q-74 199 -98 276q-33 -97 -98 -269z" />
<glyph unicode="&#xc1;" horiz-adv-x="1297" d="M12 0l536 1371h203l533 -1371h-200l-153 419h-573l-156 -419h-190zM410 565h468l-134 363q-74 199 -98 276q-33 -97 -98 -269zM559 1475l156 259h214l-237 -259h-133z" />
<glyph unicode="&#xc2;" horiz-adv-x="1297" d="M12 0l536 1371h203l533 -1371h-200l-153 419h-573l-156 -419h-190zM361 1477l198 254h203l201 -254h-185l-121 166l-129 -166h-167zM410 565h468l-134 363q-74 199 -98 276q-33 -97 -98 -269z" />
<glyph unicode="&#xc3;" horiz-adv-x="1297" d="M12 0l536 1371h203l533 -1371h-200l-153 419h-573l-156 -419h-190zM328 1492q11 93 56 147q55 66 143 66q40 0 87 -14q19 -5 123 -47q28 -11 57 -11q71 0 93 86h95q-13 -94 -58 -150q-53 -66 -136 -66q-47 0 -202 58q-45 17 -77 17q-64 0 -90 -86h-91zM410 565h468 l-134 363q-74 199 -98 276q-33 -97 -98 -269z" />
<glyph unicode="&#xc4;" horiz-adv-x="1297" d="M12 0l536 1371h203l533 -1371h-200l-153 419h-573l-156 -419h-190zM349 1509v188h177v-188h-177zM410 565h468l-134 363q-74 199 -98 276q-33 -97 -98 -269zM770 1509v188h177v-188h-177z" />
<glyph unicode="&#xc5;" horiz-adv-x="1297" d="M12 0l536 1371h203l533 -1371h-200l-153 419h-573l-156 -419h-190zM410 565h468l-134 363q-74 199 -98 276q-33 -97 -98 -269zM432 1667q0 94 72 160q62 56 150 56q92 0 158 -72q56 -62 56 -146q0 -97 -72 -162q-62 -56 -146 -56q-97 0 -162 72q-56 62 -56 148zM528 1665 q0 -54 39 -89q34 -31 80 -31q55 0 91 40q32 34 32 81q0 51 -41 88q-35 31 -83 31q-52 0 -88 -40q-30 -34 -30 -80z" />
<glyph unicode="&#xc6;" horiz-adv-x="1815" d="M-5 0l696 1365h1031v-157h-673v-432h634v-146h-634v-473h684v-157h-864v401h-470l-198 -401h-206zM471 547h398v665h-76z" />
<glyph unicode="&#xc7;" horiz-adv-x="1383" d="M90 679q0 320 184 526q170 191 470 191q272 0 432 -172q110 -117 126 -268h-182q-19 96 -94 176q-106 111 -287 111q-243 0 -373 -201q-94 -145 -94 -356q0 -226 101 -378q63 -96 150 -140q88 -45 213 -45q207 0 310 143q78 110 89 250h179q-14 -230 -170 -388 q-145 -149 -391 -159l-64 -87q45 9 68 9q68 0 116 -39q44 -36 44 -94q0 -67 -56 -121q-55 -54 -172 -54q-78 0 -186 39l33 71q66 -27 136 -27q33 0 57 14q40 22 40 66q0 33 -29 52q-28 18 -65 18q-29 0 -74 -13l-31 34l100 132q-108 3 -208.5 47t-175.5 121 q-196 202 -196 542z" />
<glyph unicode="&#xc8;" horiz-adv-x="1196" d="M157 0v1365h946v-157h-766v-432h716v-146h-716v-473h776v-157h-956zM399 1734h215l155 -259h-133z" />
<glyph unicode="&#xc9;" horiz-adv-x="1196" d="M157 0v1365h946v-157h-766v-432h716v-146h-716v-473h776v-157h-956zM536 1475l156 259h214l-237 -259h-133z" />
<glyph unicode="&#xca;" horiz-adv-x="1196" d="M157 0v1365h946v-157h-766v-432h716v-146h-716v-473h776v-157h-956zM331 1477l198 254h203l201 -254h-185l-121 166l-129 -166h-167z" />
<glyph unicode="&#xcb;" horiz-adv-x="1196" d="M157 0v1365h946v-157h-766v-432h716v-146h-716v-473h776v-157h-956zM333 1509v188h177v-188h-177zM754 1509v188h177v-188h-177z" />
<glyph unicode="&#xcc;" horiz-adv-x="494" d="M-34 1734h215l155 -259h-133zM157 0v1365h180v-1365h-180z" />
<glyph unicode="&#xcd;" horiz-adv-x="494" d="M157 0v1365h180v-1365h-180zM158 1475l156 259h214l-237 -259h-133z" />
<glyph unicode="&#xce;" horiz-adv-x="494" d="M-40 1477l198 254h203l201 -254h-185l-121 166l-129 -166h-167zM157 0v1365h180v-1365h-180z" />
<glyph unicode="&#xcf;" horiz-adv-x="494" d="M10 1509v188h177v-188h-177zM157 0v1365h180v-1365h-180zM308 1509v188h177v-188h-177z" />
<glyph unicode="&#xd0;" horiz-adv-x="1372" d="M21 641v137h137v587h490q170 0 268 -34q118 -41 209 -141q80 -89 121 -224q37 -119 37 -255q0 -364 -192 -560q-108 -109 -247 -137q-66 -14 -176 -14h-510v641h-137zM338 157h295q143 0 213 24q139 47 207 216q48 117 48 305q0 267 -133 397q-74 72 -167 94 q-68 16 -149 16h-314v-431h355v-137h-355v-484z" />
<glyph unicode="&#xd1;" horiz-adv-x="1407" d="M157 0v1365h195l510 -777q156 -236 227 -373q-5 126 -12 467v683h172v-1365h-199l-487 736q-201 309 -246 407q8 -108 11 -326l1 -128v-689h-172zM390 1492q11 93 56 147q55 66 143 66q40 0 87 -14q19 -5 123 -47q28 -11 57 -11q71 0 93 86h95q-13 -94 -58 -150 q-53 -66 -136 -66q-47 0 -202 58q-45 17 -77 17q-64 0 -90 -86h-91z" />
<glyph unicode="&#xd2;" horiz-adv-x="1487" d="M90 682q0 330 180 518q188 197 485 197q280 0 462 -197q180 -196 180 -514q0 -285 -140 -472q-183 -245 -515 -245q-330 0 -514 247q-138 185 -138 466zM272 687q0 -245 113 -393q68 -89 178 -135q86 -37 183 -37q193 0 317 127q152 155 152 433q0 255 -131 410 q-128 152 -346 152q-200 0 -331 -146q-135 -149 -135 -411zM504 1734h215l155 -259h-133z" />
<glyph unicode="&#xd3;" horiz-adv-x="1487" d="M90 682q0 330 180 518q188 197 485 197q280 0 462 -197q180 -196 180 -514q0 -285 -140 -472q-183 -245 -515 -245q-330 0 -514 247q-138 185 -138 466zM272 687q0 -245 113 -393q68 -89 178 -135q86 -37 183 -37q193 0 317 127q152 155 152 433q0 255 -131 410 q-128 152 -346 152q-200 0 -331 -146q-135 -149 -135 -411zM640 1475l156 259h214l-237 -259h-133z" />
<glyph unicode="&#xd4;" horiz-adv-x="1487" d="M90 682q0 330 180 518q188 197 485 197q280 0 462 -197q180 -196 180 -514q0 -285 -140 -472q-183 -245 -515 -245q-330 0 -514 247q-138 185 -138 466zM272 687q0 -245 113 -393q68 -89 178 -135q86 -37 183 -37q193 0 317 127q152 155 152 433q0 255 -131 410 q-128 152 -346 152q-200 0 -331 -146q-135 -149 -135 -411zM442 1477l198 254h203l201 -254h-185l-121 166l-129 -166h-167z" />
<glyph unicode="&#xd5;" horiz-adv-x="1487" d="M90 682q0 330 180 518q188 197 485 197q280 0 462 -197q180 -196 180 -514q0 -285 -140 -472q-183 -245 -515 -245q-330 0 -514 247q-138 185 -138 466zM272 687q0 -245 113 -393q68 -89 178 -135q86 -37 183 -37q193 0 317 127q152 155 152 433q0 255 -131 410 q-128 152 -346 152q-200 0 -331 -146q-135 -149 -135 -411zM430 1492q11 93 56 147q55 66 143 66q40 0 87 -14q19 -5 123 -47q28 -11 57 -11q71 0 93 86h95q-13 -94 -58 -150q-53 -66 -136 -66q-47 0 -202 58q-45 17 -77 17q-64 0 -90 -86h-91z" />
<glyph unicode="&#xd6;" horiz-adv-x="1487" d="M90 682q0 330 180 518q188 197 485 197q280 0 462 -197q180 -196 180 -514q0 -285 -140 -472q-183 -245 -515 -245q-330 0 -514 247q-138 185 -138 466zM272 687q0 -245 113 -393q68 -89 178 -135q86 -37 183 -37q193 0 317 127q152 155 152 433q0 255 -131 410 q-128 152 -346 152q-200 0 -331 -146q-135 -149 -135 -411zM444 1509v188h177v-188h-177zM865 1509v188h177v-188h-177z" />
<glyph unicode="&#xd7;" d="M162 377l292 292l-292 292l92 92l292 -292l292 292l92 -92l-292 -292l291 -292l-91 -92l-292 292l-292 -292z" />
<glyph unicode="&#xd8;" horiz-adv-x="1487" d="M60 42l163 179q-133 185 -133 464q0 321 180 514q183 197 474 197q250 0 422 -145l151 163l82 -77l-154 -170q53 -72 83 -138q69 -148 69 -342q0 -286 -140 -474q-183 -244 -515 -244q-260 0 -443 166l-157 -172zM272 688q0 -192 72 -335l708 773q-121 117 -310 117 q-204 0 -335 -145q-135 -149 -135 -410zM413 260q140 -138 333 -138q192 0 317 127q152 154 152 435q0 199 -89 351z" />
<glyph unicode="&#xd9;" horiz-adv-x="1373" d="M137 572v793h180v-799q0 -126 10 -184q44 -260 367 -260q234 0 311 135q40 68 48 184q3 45 3 126v798h180v-796q0 -183 -22 -261q-96 -339 -522 -339q-229 0 -357 88q-143 97 -180 276q-18 83 -18 239zM433 1734h215l155 -259h-133z" />
<glyph unicode="&#xda;" horiz-adv-x="1373" d="M137 572v793h180v-799q0 -126 10 -184q44 -260 367 -260q234 0 311 135q40 68 48 184q3 45 3 126v798h180v-796q0 -183 -22 -261q-96 -339 -522 -339q-229 0 -357 88q-143 97 -180 276q-18 83 -18 239zM597 1475l156 259h214l-237 -259h-133z" />
<glyph unicode="&#xdb;" horiz-adv-x="1373" d="M137 572v793h180v-799q0 -126 10 -184q44 -260 367 -260q234 0 311 135q40 68 48 184q3 45 3 126v798h180v-796q0 -183 -22 -261q-96 -339 -522 -339q-229 0 -357 88q-143 97 -180 276q-18 83 -18 239zM385 1477l198 254h203l201 -254h-185l-121 166l-129 -166h-167z" />
<glyph unicode="&#xdc;" horiz-adv-x="1373" d="M137 572v793h180v-799q0 -126 10 -184q44 -260 367 -260q234 0 311 135q40 68 48 184q3 45 3 126v798h180v-796q0 -183 -22 -261q-96 -339 -522 -339q-229 0 -357 88q-143 97 -180 276q-18 83 -18 239zM388 1509v188h177v-188h-177zM809 1509v188h177v-188h-177z" />
<glyph unicode="&#xdd;" horiz-adv-x="1198" d="M-20 1365h218l321 -510q57 -89 89 -148q33 61 84 144l320 514h207l-527 -806v-559h-180v559zM510 1475l156 259h214l-237 -259h-133z" />
<glyph unicode="&#xde;" horiz-adv-x="1242" d="M157 0v1365h180v-203h363q137 0 213 -22q123 -36 196 -142q65 -94 65 -231q0 -234 -159 -341q-77 -52 -181 -65q-41 -5 -127 -5h-370v-356h-180zM337 501h348q148 0 215 49q92 68 92 206q0 146 -107 210q-47 28 -117 36q-42 4 -109 4h-322v-505z" />
<glyph unicode="&#xdf;" horiz-adv-x="1060" d="M144 0v891q0 171 17 244q27 119 134 188q98 63 238 63q167 0 273 -87q110 -91 110 -248q0 -145 -96 -229q-44 -39 -100 -53q69 -13 118 -45q143 -95 143 -308q0 -208 -150 -337q-117 -102 -302 -102q-37 0 -75 8v133q39 -6 66 -6q136 0 213 76q82 82 82 223 q0 193 -150 251q-58 22 -150 25q-17 1 -61 1v130h17q279 0 279 222q0 107 -78 166q-55 43 -142 43q-137 0 -187 -86q-29 -49 -33 -111q-4 -54 -4 -133v-919h-162z" />
<glyph unicode="&#xe0;" horiz-adv-x="1036" d="M62 252q0 196 186 271q56 22 139 35q12 2 165 20q124 16 154 58q20 28 20 73q0 174 -223 174q-137 0 -198 -71q-36 -41 -45 -132h-159q3 151 106 243q106 96 308 96q208 0 310 -97q48 -47 61 -130q6 -39 6 -140q0 -135 -6 -371q-1 -44 -1 -63q0 -53 14 -75q15 -22 51 -22 q19 0 43 10v-127q-57 -20 -114 -20q-77 0 -116 53q-26 35 -27 94q-139 -160 -358 -160q-139 0 -221 68q-95 78 -95 213zM229 266q0 -75 53 -123q49 -45 143 -45q121 0 213 72q68 52 84 113q7 27 7 83v148q-33 -25 -83 -38q-28 -8 -136 -22q-143 -18 -198 -46 q-83 -43 -83 -142zM265 1399h201l142 -273h-113z" />
<glyph unicode="&#xe1;" horiz-adv-x="1036" d="M62 252q0 196 186 271q56 22 139 35q12 2 165 20q124 16 154 58q20 28 20 73q0 174 -223 174q-137 0 -198 -71q-36 -41 -45 -132h-159q3 151 106 243q106 96 308 96q208 0 310 -97q48 -47 61 -130q6 -39 6 -140q0 -135 -6 -371q-1 -44 -1 -63q0 -53 14 -75q15 -22 51 -22 q19 0 43 10v-127q-57 -20 -114 -20q-77 0 -116 53q-26 35 -27 94q-139 -160 -358 -160q-139 0 -221 68q-95 78 -95 213zM229 266q0 -75 53 -123q49 -45 143 -45q121 0 213 72q68 52 84 113q7 27 7 83v148q-33 -25 -83 -38q-28 -8 -136 -22q-143 -18 -198 -46 q-83 -43 -83 -142zM408 1126l142 273h201l-230 -273h-113z" />
<glyph unicode="&#xe2;" horiz-adv-x="1036" d="M62 252q0 196 186 271q56 22 139 35q12 2 165 20q124 16 154 58q20 28 20 73q0 174 -223 174q-137 0 -198 -71q-36 -41 -45 -132h-159q3 151 106 243q106 96 308 96q208 0 310 -97q48 -47 61 -130q6 -39 6 -140q0 -135 -6 -371q-1 -44 -1 -63q0 -53 14 -75q15 -22 51 -22 q19 0 43 10v-127q-57 -20 -114 -20q-77 0 -116 53q-26 35 -27 94q-139 -160 -358 -160q-139 0 -221 68q-95 78 -95 213zM217 1133l198 273h176l201 -273h-165l-128 182l-135 -182h-147zM229 266q0 -75 53 -123q49 -45 143 -45q121 0 213 72q68 52 84 113q7 27 7 83v148 q-33 -25 -83 -38q-28 -8 -136 -22q-143 -18 -198 -46q-83 -43 -83 -142z" />
<glyph unicode="&#xe3;" horiz-adv-x="1036" d="M62 252q0 196 186 271q56 22 139 35q12 2 165 20q124 16 154 58q20 28 20 73q0 174 -223 174q-137 0 -198 -71q-36 -41 -45 -132h-159q3 151 106 243q106 96 308 96q208 0 310 -97q48 -47 61 -130q6 -39 6 -140q0 -135 -6 -371q-1 -44 -1 -63q0 -53 14 -75q15 -22 51 -22 q19 0 43 10v-127q-57 -20 -114 -20q-77 0 -116 53q-26 35 -27 94q-139 -160 -358 -160q-139 0 -221 68q-95 78 -95 213zM207 1162q10 92 51 145q50 67 130 67q37 0 80 -14q16 -5 111 -47q26 -12 51 -12q63 0 83 86h89q-12 -93 -53 -148q-48 -66 -123 -66q-44 0 -120 31 q-104 43 -133 43q-58 0 -80 -85h-86zM229 266q0 -75 53 -123q49 -45 143 -45q121 0 213 72q68 52 84 113q7 27 7 83v148q-33 -25 -83 -38q-28 -8 -136 -22q-143 -18 -198 -46q-83 -43 -83 -142z" />
<glyph unicode="&#xe4;" horiz-adv-x="1036" d="M62 252q0 196 186 271q56 22 139 35q12 2 165 20q124 16 154 58q20 28 20 73q0 174 -223 174q-137 0 -198 -71q-36 -41 -45 -132h-159q3 151 106 243q106 96 308 96q208 0 310 -97q48 -47 61 -130q6 -39 6 -140q0 -135 -6 -371q-1 -44 -1 -63q0 -53 14 -75q15 -22 51 -22 q19 0 43 10v-127q-57 -20 -114 -20q-77 0 -116 53q-26 35 -27 94q-139 -160 -358 -160q-139 0 -221 68q-95 78 -95 213zM229 266q0 -75 53 -123q49 -45 143 -45q121 0 213 72q68 52 84 113q7 27 7 83v148q-33 -25 -83 -38q-28 -8 -136 -22q-143 -18 -198 -46 q-83 -43 -83 -142zM237 1160v194h173v-194h-173zM599 1160v194h173v-194h-173z" />
<glyph unicode="&#xe5;" horiz-adv-x="1036" d="M62 252q0 196 186 271q56 22 139 35q12 2 165 20q124 16 154 58q20 28 20 73q0 174 -223 174q-137 0 -198 -71q-36 -41 -45 -132h-159q3 151 106 243q106 96 308 96q208 0 310 -97q48 -47 61 -130q6 -39 6 -140q0 -135 -6 -371q-1 -44 -1 -63q0 -53 14 -75q15 -22 51 -22 q19 0 43 10v-127q-57 -20 -114 -20q-77 0 -116 53q-26 35 -27 94q-139 -160 -358 -160q-139 0 -221 68q-95 78 -95 213zM229 266q0 -75 53 -123q49 -45 143 -45q121 0 213 72q68 52 84 113q7 27 7 83v148q-33 -25 -83 -38q-28 -8 -136 -22q-143 -18 -198 -46 q-83 -43 -83 -142zM296 1301q0 89 68 152q59 53 143 53q88 0 150 -69q53 -59 53 -138q0 -92 -69 -154q-58 -53 -138 -53q-92 0 -154 69q-53 58 -53 140zM381 1299q0 -54 39 -89q34 -31 80 -31q54 0 90 40q32 34 32 81q0 51 -41 88q-34 31 -83 31q-51 0 -87 -40 q-30 -34 -30 -80z" />
<glyph unicode="&#xe6;" horiz-adv-x="1685" d="M62 264q0 149 120 229q77 52 282 75q172 19 218 34q39 13 50 46q8 23 8 63q0 169 -226 169q-151 0 -214 -83q-30 -39 -37 -121h-160q16 145 93 223q116 118 328 118q252 0 328 -150q99 150 317 150q220 0 340 -154q103 -132 103 -358q0 -16 -1 -52h-718v-18 q0 -105 40 -183q74 -145 247 -145q199 0 262 204h161q-27 -117 -100 -201q-120 -139 -336 -139q-255 0 -352 200q-118 -200 -401 -200q-170 0 -267 86q-85 75 -85 207zM229 274q0 -77 48 -123q54 -53 164 -53q131 0 220 75q76 64 76 180v158q-25 -19 -59 -31 q-41 -11 -181 -28q-127 -15 -189 -45q-79 -38 -79 -133zM890 587h554q-6 110 -54 180q-37 53 -96 83t-128 30q-92 0 -164 -52q-73 -52 -97 -147q-9 -35 -15 -94z" />
<glyph unicode="&#xe7;" horiz-adv-x="1041" d="M81 496q0 254 146 401q127 128 328 128q222 0 340 -139q66 -79 83 -212h-170q-45 214 -257 214q-161 0 -240 -131q-63 -103 -63 -249q0 -165 66 -269q80 -125 238 -125q218 0 272 252h159q-17 -173 -134 -281q-114 -106 -279 -106h-21l-69 -92q41 7 67 7q69 0 112 -32 q49 -36 49 -102q0 -103 -94 -147q-59 -27 -134 -27q-87 0 -185 39l35 71q60 -26 131 -26q52 0 78 23q24 23 24 54q0 42 -37 61q-26 13 -61 13q-31 0 -70 -14l-31 33l107 139q-132 20 -220 95q-170 142 -170 422z" />
<glyph unicode="&#xe8;" horiz-adv-x="1065" d="M81 488q0 232 128 380q131 151 335 151q167 0 285 -101q128 -109 156 -310q8 -64 8 -155h-744q10 -346 312 -346q146 0 214 105q27 41 47 105h160q-78 -346 -433 -346q-240 0 -363 163q-105 139 -105 354zM250 587h575q-8 102 -50 169q-80 127 -236 127q-150 0 -226 -113 q-47 -70 -63 -183zM286 1399h201l142 -273h-113z" />
<glyph unicode="&#xe9;" horiz-adv-x="1065" d="M81 488q0 232 128 380q131 151 335 151q167 0 285 -101q128 -109 156 -310q8 -64 8 -155h-744q10 -346 312 -346q146 0 214 105q27 41 47 105h160q-78 -346 -433 -346q-240 0 -363 163q-105 139 -105 354zM250 587h575q-8 102 -50 169q-80 127 -236 127q-150 0 -226 -113 q-47 -70 -63 -183zM450 1126l142 273h201l-230 -273h-113z" />
<glyph unicode="&#xea;" horiz-adv-x="1065" d="M81 488q0 232 128 380q131 151 335 151q167 0 285 -101q128 -109 156 -310q8 -64 8 -155h-744q10 -346 312 -346q146 0 214 105q27 41 47 105h160q-78 -346 -433 -346q-240 0 -363 163q-105 139 -105 354zM250 587h575q-8 102 -50 169q-80 127 -236 127q-150 0 -226 -113 q-47 -70 -63 -183zM252 1133l198 273h176l201 -273h-165l-128 182l-135 -182h-147z" />
<glyph unicode="&#xeb;" horiz-adv-x="1065" d="M81 488q0 232 128 380q131 151 335 151q167 0 285 -101q128 -109 156 -310q8 -64 8 -155h-744q10 -346 312 -346q146 0 214 105q27 41 47 105h160q-78 -346 -433 -346q-240 0 -363 163q-105 139 -105 354zM250 587h575q-8 102 -50 169q-80 127 -236 127q-150 0 -226 -113 q-47 -70 -63 -183zM271 1160v194h173v-194h-173zM633 1160v194h173v-194h-173z" />
<glyph unicode="&#xec;" horiz-adv-x="449" d="M-22 1399h201l142 -273h-113zM144 0v990h162v-990h-162z" />
<glyph unicode="&#xed;" horiz-adv-x="449" d="M143 0v990h162v-990h-162zM148 1126l142 273h201l-230 -273h-113z" />
<glyph unicode="&#xee;" horiz-adv-x="449" d="M-49 1133l198 273h176l201 -273h-165l-128 182l-135 -182h-147zM144 0v990h162v-990h-162z" />
<glyph unicode="&#xef;" horiz-adv-x="449" d="M5 1160v194h173v-194h-173zM144 0v990h162v-990h-162zM272 1160v194h173v-194h-173z" />
<glyph unicode="&#xf0;" horiz-adv-x="1118" d="M81 493q0 249 144 394q128 130 317 130q60 0 147 -22l-86 155l-161 -66l-45 92l154 66l-82 133l113 48l85 -132l170 74l46 -95l-158 -68l164 -264q86 -140 114 -222q36 -106 36 -223q0 -234 -126 -375q-131 -147 -351 -147q-240 0 -369 165q-112 141 -112 357zM248 496 q0 -192 93 -295q84 -93 225 -93q126 0 203 79q105 106 105 309q0 189 -91 292q-84 94 -224 94q-130 0 -215 -92q-96 -105 -96 -294z" />
<glyph unicode="&#xf1;" horiz-adv-x="1101" d="M144 0v990h152v-154q42 63 80 94q106 89 265 89q97 0 172 -38t111 -106q32 -58 38 -133q3 -46 3 -102v-640h-162v583q0 135 -19 188q-20 54 -72 82q-54 29 -123 29q-126 0 -203 -82q-55 -58 -71 -152q-9 -57 -9 -169v-479h-162zM260 1162q10 92 51 145q50 67 130 67 q37 0 80 -14q16 -5 111 -47q26 -12 51 -12q63 0 83 86h89q-12 -93 -53 -148q-48 -66 -123 -66q-44 0 -120 31q-104 43 -133 43q-58 0 -80 -85h-86z" />
<glyph unicode="&#xf2;" horiz-adv-x="1118" d="M81 495q0 218 110 357q131 167 377 167q214 0 346 -146q125 -137 125 -377q0 -264 -148 -407q-121 -118 -325 -118q-235 0 -363 152q-122 144 -122 372zM248 496q0 -191 93 -295q83 -93 224 -93q125 0 203 79q104 106 104 309q0 189 -91 292q-83 94 -223 94 q-130 0 -214 -92q-96 -105 -96 -294zM312 1399h201l142 -273h-113z" />
<glyph unicode="&#xf3;" horiz-adv-x="1118" d="M81 495q0 218 110 357q131 167 377 167q214 0 346 -146q125 -137 125 -377q0 -264 -148 -407q-121 -118 -325 -118q-235 0 -363 152q-122 144 -122 372zM248 496q0 -191 93 -295q83 -93 224 -93q125 0 203 79q104 106 104 309q0 189 -91 292q-83 94 -223 94 q-130 0 -214 -92q-96 -105 -96 -294zM469 1126l142 273h201l-230 -273h-113z" />
<glyph unicode="&#xf4;" horiz-adv-x="1118" d="M81 495q0 218 110 357q131 167 377 167q214 0 346 -146q125 -137 125 -377q0 -264 -148 -407q-121 -118 -325 -118q-235 0 -363 152q-122 144 -122 372zM248 496q0 -191 93 -295q83 -93 224 -93q125 0 203 79q104 106 104 309q0 189 -91 292q-83 94 -223 94 q-130 0 -214 -92q-96 -105 -96 -294zM271 1133l198 273h176l201 -273h-165l-128 182l-135 -182h-147z" />
<glyph unicode="&#xf5;" horiz-adv-x="1118" d="M81 495q0 218 110 357q131 167 377 167q214 0 346 -146q125 -137 125 -377q0 -264 -148 -407q-121 -118 -325 -118q-235 0 -363 152q-122 144 -122 372zM248 496q0 -191 93 -295q83 -93 224 -93q125 0 203 79q104 106 104 309q0 189 -91 292q-83 94 -223 94 q-130 0 -214 -92q-96 -105 -96 -294zM268 1162q10 92 51 145q50 67 130 67q37 0 80 -14q16 -5 111 -47q26 -12 51 -12q63 0 83 86h89q-12 -93 -53 -148q-48 -66 -123 -66q-44 0 -120 31q-104 43 -133 43q-58 0 -80 -85h-86z" />
<glyph unicode="&#xf6;" horiz-adv-x="1118" d="M81 495q0 218 110 357q131 167 377 167q214 0 346 -146q125 -137 125 -377q0 -264 -148 -407q-121 -118 -325 -118q-235 0 -363 152q-122 144 -122 372zM248 496q0 -191 93 -295q83 -93 224 -93q125 0 203 79q104 106 104 309q0 189 -91 292q-83 94 -223 94 q-130 0 -214 -92q-96 -105 -96 -294zM291 1160v194h173v-194h-173zM653 1160v194h173v-194h-173z" />
<glyph unicode="&#xf7;" d="M102 605v130h887v-130h-887zM434 349q0 48 37 82q32 29 77 29q48 0 81 -37q29 -32 29 -75q0 -50 -37 -83q-32 -29 -75 -29q-50 0 -83 37q-29 32 -29 76zM434 991q0 48 37 82q31 29 76 29q48 0 81 -37q29 -32 29 -74q0 -50 -37 -83q-32 -29 -75 -29q-49 0 -82 37 q-29 32 -29 75z" />
<glyph unicode="&#xf8;" horiz-adv-x="1118" d="M54 22l121 136q-96 141 -96 339q0 217 110 356q132 166 369 166q186 0 309 -100l108 121l76 -69l-114 -126q101 -138 101 -350q0 -263 -148 -406q-121 -118 -323 -118q-196 0 -323 108l-115 -128zM246 500q0 -129 42 -218l476 524q-82 76 -204 76q-134 0 -218 -92 q-96 -105 -96 -290zM347 194q87 -86 218 -86q125 0 202 79q104 106 104 310q0 130 -46 225z" />
<glyph unicode="&#xf9;" horiz-adv-x="1105" d="M137 347v643h162v-584q0 -130 18 -184q17 -54 69.5 -84t127.5 -30q167 0 247 147q39 71 39 256v479h162v-990h-152v155q-37 -61 -95 -104q-106 -80 -248 -80q-176 0 -264 108q-66 81 -66 268zM306 1399h201l142 -273h-113z" />
<glyph unicode="&#xfa;" horiz-adv-x="1105" d="M137 347v643h162v-584q0 -130 18 -184q17 -54 69.5 -84t127.5 -30q167 0 247 147q39 71 39 256v479h162v-990h-152v155q-37 -61 -95 -104q-106 -80 -248 -80q-176 0 -264 108q-66 81 -66 268zM463 1126l142 273h201l-230 -273h-113z" />
<glyph unicode="&#xfb;" horiz-adv-x="1105" d="M137 347v643h162v-584q0 -130 18 -184q17 -54 69.5 -84t127.5 -30q167 0 247 147q39 71 39 256v479h162v-990h-152v155q-37 -61 -95 -104q-106 -80 -248 -80q-176 0 -264 108q-66 81 -66 268zM265 1133l198 273h176l201 -273h-165l-128 182l-135 -182h-147z" />
<glyph unicode="&#xfc;" horiz-adv-x="1105" d="M137 347v643h162v-584q0 -130 18 -184q17 -54 69.5 -84t127.5 -30q167 0 247 147q39 71 39 256v479h162v-990h-152v155q-37 -61 -95 -104q-106 -80 -248 -80q-176 0 -264 108q-66 81 -66 268zM285 1160v194h173v-194h-173zM647 1160v194h173v-194h-173z" />
<glyph unicode="&#xfd;" horiz-adv-x="928" d="M1 990h183l217 -580q23 -62 75 -229q47 147 80 244l199 565h172l-364 -958q-98 -256 -136 -318q-70 -112 -213 -112q-49 0 -94 10l-25 6v146q69 -21 108 -21q71 0 114 83q26 50 75 180zM381 1126l142 273h201l-230 -273h-113z" />
<glyph unicode="&#xfe;" horiz-adv-x="1160" d="M144 -382v1747h162v-512q109 167 320 167q192 0 315 -128q139 -145 139 -401q0 -233 -123 -375q-124 -141 -321 -141q-218 0 -330 163v-520h-162zM299 499q0 -196 94 -297q85 -90 217 -90q136 0 215 96q88 107 88 281q0 187 -91 298q-80 96 -220 96q-132 0 -217 -98 q-86 -100 -86 -286z" />
<glyph unicode="&#xff;" horiz-adv-x="928" d="M1 990h183l217 -580q23 -62 75 -229q47 147 80 244l199 565h172l-364 -958q-98 -256 -136 -318q-70 -112 -213 -112q-49 0 -94 10l-25 6v146q69 -21 108 -21q71 0 114 83q26 50 75 180zM197 1160v194h173v-194h-173zM559 1160v194h173v-194h-173z" />
<glyph unicode="&#x152;" horiz-adv-x="2080" d="M91 678q0 317 176 514q178 199 457 199q254 0 364 -145v119h897v-157h-730v-432h669v-146h-669v-473h741v-157h-909v139q-143 -165 -374 -165q-301 0 -475 226q-147 191 -147 478zM273 686q0 -252 131 -410q123 -149 327 -149q191 0 296 129q48 58 48 152v554 q0 73 -10 100q-25 64 -103 117q-86 59 -219 59q-229 0 -362 -180q-108 -147 -108 -372z" />
<glyph unicode="&#x153;" horiz-adv-x="1738" d="M81 495q0 236 116 375q124 149 338 149q248 0 344 -186q109 186 344 186q226 0 346 -159q98 -131 98 -362q0 -15 -1 -45h-718v-23q0 -98 37 -172q77 -151 248 -151q138 0 214 104q26 35 48 103h160q-24 -116 -94 -197q-127 -146 -337 -146q-182 0 -287 101 q-35 35 -65 102q-27 -66 -80 -112q-101 -91 -264 -91q-215 0 -343 160q-104 130 -104 364zM248 494q0 -178 72 -280q75 -106 213 -106q66 0 121 29.5t86 80.5q65 110 65 288q0 194 -78 290q-70 86 -200 86q-123 0 -195 -90q-84 -106 -84 -298zM944 587h553q-5 106 -44 168 q-80 127 -232 127q-103 0 -178 -65q-86 -76 -99 -230z" />
<glyph unicode="&#x178;" horiz-adv-x="1198" d="M-20 1365h218l321 -510q57 -89 89 -148q33 61 84 144l320 514h207l-527 -806v-559h-180v559zM306 1509v188h177v-188h-177zM727 1509v188h177v-188h-177z" />
<glyph unicode="&#x2c6;" horiz-adv-x="1024" d="M225 1133l198 273h176l201 -273h-165l-128 182l-135 -182h-147z" />
<glyph unicode="&#x2dc;" horiz-adv-x="1024" d="M214 1162q10 92 51 145q50 67 130 67q37 0 80 -14q16 -5 111 -47q26 -12 51 -12q63 0 83 86h89q-12 -93 -53 -148q-48 -66 -123 -66q-44 0 -120 31q-104 43 -133 43q-58 0 -80 -85h-86z" />
<glyph unicode="&#x2000;" horiz-adv-x="941" />
<glyph unicode="&#x2001;" horiz-adv-x="1883" />
<glyph unicode="&#x2002;" horiz-adv-x="941" />
<glyph unicode="&#x2003;" horiz-adv-x="1883" />
<glyph unicode="&#x2004;" horiz-adv-x="627" />
<glyph unicode="&#x2005;" horiz-adv-x="470" />
<glyph unicode="&#x2006;" horiz-adv-x="313" />
<glyph unicode="&#x2007;" horiz-adv-x="313" />
<glyph unicode="&#x2008;" horiz-adv-x="235" />
<glyph unicode="&#x2009;" horiz-adv-x="376" />
<glyph unicode="&#x200a;" horiz-adv-x="104" />
<glyph unicode="&#x2010;" horiz-adv-x="464" d="M0 427v164h464v-164h-464z" />
<glyph unicode="&#x2011;" horiz-adv-x="464" d="M0 427v164h464v-164h-464z" />
<glyph unicode="&#x2012;" horiz-adv-x="464" d="M0 427v164h464v-164h-464z" />
<glyph unicode="&#x2013;" d="M137 427v164h819v-164h-819z" />
<glyph unicode="&#x2014;" horiz-adv-x="1387" d="M0 427v164h1387v-164h-1387z" />
<glyph unicode="&#x2018;" horiz-adv-x="511" d="M146 897v150q0 108 25 173q52 133 193 166v-95q-52 -17 -80 -64.5t-31 -123.5h111v-206h-218z" />
<glyph unicode="&#x2019;" horiz-adv-x="511" d="M146 877v94q108 32 110 188h-110v206h218v-150q0 -108 -25 -172q-53 -134 -193 -166z" />
<glyph unicode="&#x201a;" horiz-adv-x="511" d="M146 0v206h218v-150q0 -108 -25 -173q-53 -133 -193 -166v95q108 32 110 188h-110z" />
<glyph unicode="&#x201c;" horiz-adv-x="848" d="M146 908v156q2 130 50 205q61 93 158 115v-91q-109 -43 -105 -188h105v-197h-208zM496 908v161q0 125 53 207t153 110v-93q-105 -48 -104 -188h104v-197h-206z" />
<glyph unicode="&#x201d;" horiz-adv-x="848" d="M146 886v94q106 48 106 188h-106v197h208v-161q0 -125 -53.5 -207t-154.5 -111zM496 888v92q108 43 104 188h-104v197h206v-156q0 -129 -53.5 -212t-152.5 -109z" />
<glyph unicode="&#x201e;" horiz-adv-x="848" d="M146 0v197h208v-161q0 -126 -53.5 -207.5t-154.5 -110.5v94q106 48 106 188h-106zM496 0v197h206v-156q-2 -131 -49 -205q-62 -94 -157 -116v92q108 42 104 188h-104z" />
<glyph unicode="&#x2022;" horiz-adv-x="1365" d="M401 694q0 121 84 202q86 82 204 82q113 0 196 -83q84 -83 84 -201t-83 -201t-201 -83q-116 0 -199 82q-85 84 -85 202z" />
<glyph unicode="&#x2026;" horiz-adv-x="1532" d="M143 0v213h224v-213h-224zM654 0v213h224v-213h-224zM1164 0v213h224v-213h-224z" />
<glyph unicode="&#x202f;" horiz-adv-x="376" />
<glyph unicode="&#x2039;" horiz-adv-x="509" d="M96 422v168l291 231v-166l-193 -148l193 -145v-164z" />
<glyph unicode="&#x203a;" horiz-adv-x="509" d="M123 198v164l193 145l-193 148v166l291 -231v-168z" />
<glyph unicode="&#x205f;" horiz-adv-x="470" />
<glyph unicode="&#x2122;" horiz-adv-x="1734" d="M20 1264v101h672v-101h-274v-677h-122v677h-276zM771 587v778h158l194 -470q50 -122 68 -175q23 67 65 173l186 472h162v-778h-117v350q4 215 10 292q-28 -75 -58 -149l-196 -493h-104l-206 488q-24 56 -55 139q9 -149 9 -274v-353h-116z" />
<glyph unicode="&#xe000;" horiz-adv-x="990" d="M0 0v990h990v-990h-990z" />
</font>
</defs>
</svg>
