<?xml version="1.0" standalone="no"?>
<!DOCTYPE svg PUBLIC "-//W3C//DTD SVG 1.1//EN" "http://www.w3.org/Graphics/SVG/1.1/DTD/svg11.dtd" >
<svg xmlns="http://www.w3.org/2000/svg">
<metadata></metadata>
<defs>
<font id="nimbussannovtligregular" horiz-adv-x="1147" >
<font-face units-per-em="2048" ascent="1641" descent="-407" />
<missing-glyph horiz-adv-x="512" />
<glyph horiz-adv-x="2048" />
<glyph horiz-adv-x="2048" />
<glyph unicode="&#xd;" horiz-adv-x="2048" />
<glyph unicode=" "  horiz-adv-x="512" />
<glyph unicode="&#x09;" horiz-adv-x="512" />
<glyph unicode="&#xa0;" horiz-adv-x="512" />
<glyph unicode="!" horiz-adv-x="493" d="M225 1365h83l-14 -1019h-55zM226 0v187h82v-187h-82z" />
<glyph unicode="&#x22;" horiz-adv-x="571" d="M123 1365h87l-9 -546h-69zM361 1365h87l-10 -546h-68z" />
<glyph unicode="#" d="M109 486l9 63h245l34 243h-245l9 63h246l54 390h63l-55 -390h257l54 390h63l-54 -390h249l-9 -63h-249l-35 -243h250l-9 -63h-249l-60 -423h-63l60 423h-257l-59 -423h-63l60 423h-246zM426 549h256l35 243h-257z" />
<glyph unicode="$" d="M123 426h76q-1 -183 97 -284q94 -92 250 -101v607q-180 50 -246 90q-138 83 -138 271q0 130 80 218q98 108 304 116v145h48v-146q178 -7 287 -109q103 -99 111 -281h-78q-13 299 -320 322v-560l26 -7q197 -54 258 -90q147 -87 147 -281q0 -215 -180 -311 q-97 -51 -251 -54v-176h-48v177q-189 9 -303 116q-123 119 -120 338zM241 1009q0 -155 125 -219q53 -26 180 -62v547q-115 -4 -188 -47q-117 -68 -117 -219zM594 39q134 2 221 51q70 39 105 115q26 55 26 128q0 174 -169 245q-46 20 -183 57v-596z" />
<glyph unicode="%" horiz-adv-x="1566" d="M89 1005q0 156 96 250q90 88 223 88q139 0 226 -101q83 -95 83 -235q0 -155 -98 -258q-82 -86 -216 -86q-148 0 -235 105q-79 95 -79 237zM157 1004q0 -119 66 -200q69 -84 179 -84q118 0 186 93q61 85 61 193q0 125 -76 206q-68 71 -173 71t-177 -83q-66 -77 -66 -196z M311 -46l853 1408h67l-851 -1408h-69zM848 313q0 153 93 247q91 94 229 94q69 0 131.5 -30.5t104.5 -84.5q72 -94 72 -219q0 -160 -97 -258q-87 -88 -219 -88q-142 0 -230 99q-84 93 -84 240zM916 319q0 -127 67 -205q71 -83 181 -83q109 0 179 88q65 80 65 196 q0 115 -66 196q-69 84 -185 84q-102 0 -173 -82q-68 -79 -68 -194z" />
<glyph unicode="&#x26;" horiz-adv-x="1190" d="M91 328q0 172 172 304q83 63 184 122q-73 91 -111 144q-75 107 -75 196q0 123 94 197q79 64 201 64q114 0 191 -64q92 -76 92 -193q0 -127 -111 -231q-47 -46 -173 -130l325 -404q43 104 49 231h72q0 -62 -22 -152q-17 -74 -49 -140l225 -272h-98l-166 205 q-145 -232 -398 -232q-166 0 -278 90q-124 100 -124 265zM169 329q0 -138 111 -222q92 -70 218 -70q150 0 262 110q51 51 85 113l-356 441q-90 -51 -169 -113q-151 -117 -151 -259zM333 1094q0 -75 77 -176q100 -130 103 -129q252 145 252 304q0 91 -75 153q-55 44 -138 44 q-104 0 -166 -64q-53 -54 -53 -132z" />
<glyph unicode="'" horiz-adv-x="333" d="M123 1365h87l-9 -546h-69z" />
<glyph unicode="(" horiz-adv-x="531" d="M91 506q0 260 91 528q63 187 156 331h66q-97 -162 -157 -357q-77 -251 -77 -508q0 -439 234 -854h-66q-106 188 -161 350q-86 251 -86 510z" />
<glyph unicode=")" horiz-adv-x="531" d="M126 -354q98 163 158 356q77 252 77 509q0 438 -235 854h67q106 -189 161 -351q86 -250 86 -509q0 -261 -91 -528q-63 -185 -156 -331h-67z" />
<glyph unicode="*" d="M292 1143l18 52l235 -80v250h55v-250l236 80l19 -52l-239 -79l149 -200l-44 -33l-148 202l-153 -199l-45 34l153 196z" />
<glyph unicode="+" d="M111 625v66h430v432h66v-432h430v-66h-430v-432h-66v432h-430z" />
<glyph unicode="," horiz-adv-x="410" d="M128 -181q67 39 66 181h-37v195h96v-162q2 -228 -125 -279v65z" />
<glyph unicode="-" horiz-adv-x="437" d="M0 471v70h437v-70h-437z" />
<glyph unicode="." horiz-adv-x="410" d="M157 0v195h96v-195h-96z" />
<glyph unicode="/" horiz-adv-x="834" d="M-79 -354l770 1719h66l-766 -1719h-70z" />
<glyph unicode="0" d="M94 638q0 308 103 484q64 111 174 172q89 49 208 49q159 0 279 -104q194 -168 194 -582q0 -281 -91 -452q-66 -122 -182 -185q-92 -49 -209 -49q-170 0 -287 100q-189 162 -189 567zM173 632q0 -234 73 -389q50 -106 147 -159q82 -45 178 -45q144 0 246 101 q156 154 156 516q0 254 -76 407q-105 212 -326 212q-131 0 -229 -90q-169 -157 -169 -553z" />
<glyph unicode="1" d="M254 1008v66q138 25 240 100q59 40 123 146h70v-1320h-82v1177q-135 -146 -351 -169z" />
<glyph unicode="2" d="M135 0q16 166 116 280q93 97 323 251q189 130 262 221q80 102 80 225q0 144 -100 226q-87 71 -228 71q-204 0 -292 -150q-52 -90 -55 -249h-77q2 125 28 202q44 130 146 196q107 69 254 69q177 0 286 -93q117 -100 117 -272q0 -171 -132 -306q-91 -94 -329 -256 q-187 -127 -242 -197q-56 -72 -67 -148h25h39h728v-70h-882z" />
<glyph unicode="3" d="M109 394q0 14 1 43h75q-1 -25 -1 -36q0 -157 95 -255q105 -107 293 -107q174 0 279 101q96 92 96 228q0 164 -124 243q-95 61 -276 61q-18 0 -45 -2v67q33 -1 57 -1q138 0 222 45q130 70 130 220q0 129 -99 207q-86 67 -231 67q-202 0 -297 -134q-63 -88 -67 -236h-73 q6 168 76 270q114 168 363 168q188 0 298 -95q109 -96 109 -244q0 -151 -115 -237q-58 -45 -149 -60q105 -18 170 -63q130 -89 130 -268q0 -184 -137 -302q-120 -103 -319 -103q-243 0 -368 151q-93 111 -93 272z" />
<glyph unicode="4" d="M105 337v81l638 906h76v-917h218v-70h-218v-337h-75v337h-639zM171 407h50h58h465v655q0 88 1 167q-60 -95 -92 -141l-397 -564q-42 -59 -85 -117z" />
<glyph unicode="5" d="M121 401h75q7 -116 45 -187q47 -86 138 -131q88 -44 190 -44q179 0 287 128q91 108 91 261q0 162 -99 270q-108 118 -280 118q-216 0 -333 -180l-74 2l136 675h669v-70h-613l-79 -374q-18 -88 -31 -146q126 161 335 161q216 0 343 -154q105 -127 105 -299 q0 -186 -119 -317q-129 -143 -337 -143q-182 0 -304 99q-141 115 -145 331z" />
<glyph unicode="6" d="M122 612q0 316 99 500q124 230 381 230q222 0 337 -161q53 -73 71 -187h-78q-20 115 -90 185q-96 95 -241 95q-283 0 -368 -342q-34 -137 -38 -347q41 109 111 175q119 111 293 111q190 0 317 -131q122 -126 122 -316q0 -187 -125 -319q-127 -134 -326 -134 q-165 0 -283 96q-117 96 -154 258q-28 124 -28 287zM217 425q0 -165 106 -275q107 -111 266 -111q170 0 278 125q92 106 92 258q0 154 -92 258q-111 123 -284 123q-162 0 -271 -122q-95 -105 -95 -256z" />
<glyph unicode="7" d="M176 1243v70h848v-70q-23 -28 -95 -106q-225 -249 -353 -585q-102 -267 -116 -552h-82q3 185 66 398q83 290 265 558q86 125 167 208q25 26 79 80h-54q-52 -1 -60 -1h-665z" />
<glyph unicode="8" d="M108 368q0 176 126 274q68 53 176 73q-94 21 -156 76q-91 80 -91 218q0 170 130 261q105 73 279 73q205 0 311 -94q100 -90 100 -236q0 -140 -98 -226q-55 -50 -148 -72q114 -21 180 -73q121 -96 121 -267q0 -191 -131 -302q-120 -102 -330 -102q-228 0 -348 110 q-121 111 -121 287zM187 369q0 -156 110 -247q101 -83 278 -83q193 0 292 98q92 91 92 232q0 168 -126 247q-104 65 -269 65q-164 0 -267 -78q-110 -83 -110 -234zM242 1007q0 -125 93 -194q90 -68 240 -68q163 0 248 77q81 72 81 186q0 135 -94 204q-86 63 -243 63 q-152 0 -236 -68q-89 -74 -89 -200z" />
<glyph unicode="9" d="M108 890q0 204 142 336q126 117 306 117q184 0 307 -114q116 -108 149 -306q16 -97 16 -225q0 -285 -67 -444q-120 -283 -406 -283q-221 0 -337 157q-59 80 -72 186h75q18 -101 81 -171q96 -104 253 -104q185 0 287 148q111 161 111 481q0 21 -1 72q-6 -16 -12 -29 q-55 -132 -153.5 -199t-236.5 -67q-209 0 -337 149q-105 122 -105 296zM187 892q0 -147 89 -252q107 -127 281 -127q173 0 279 122q93 107 93 258q0 153 -94 257q-112 125 -283 125q-161 0 -269 -122q-96 -107 -96 -261z" />
<glyph unicode=":" horiz-adv-x="444" d="M191 0v195h96v-195h-96zM191 754v195h96v-195h-96z" />
<glyph unicode=";" horiz-adv-x="444" d="M163 -181q67 39 66 181h-37v195h96v-162q2 -228 -125 -279v65zM192 754v195h96v-195h-96z" />
<glyph unicode="&#x3c;" horiz-adv-x="1024" d="M68 644v80l887 396v-88l-792 -348l792 -348v-88z" />
<glyph unicode="=" d="M111 492v66h926v-66h-926zM111 766v67h926v-67h-926z" />
<glyph unicode="&#x3e;" horiz-adv-x="1024" d="M69 248v88l792 348l-792 348v88l887 -396v-80z" />
<glyph unicode="?" horiz-adv-x="1010" d="M112 942q2 164 61 266q60 101 175 151q81 35 180 35q187 0 294 -108q97 -97 97 -234q0 -126 -81 -230q-29 -37 -152 -154q-70 -66 -93 -105t-30 -96q-5 -45 -6 -123h-77q-1 105 10 161q14 72 67 134q18 23 77 78q91 86 131 134q75 93 75 198q0 113 -82 194 q-85 84 -232 84q-206 0 -294 -167q-42 -79 -46 -218h-74zM476 0v190h83v-190h-83z" />
<glyph unicode="@" horiz-adv-x="1518" d="M115 659q0 147 58.5 281t166.5 231q193 174 458 174q132 0 253 -50t208 -139q145 -151 145 -368q0 -235 -173 -382q-127 -107 -250 -107q-36 0 -69.5 16.5t-50.5 43.5q-13 20 -17 61q-104 -116 -224 -116q-100 0 -159 83q-42 59 -42 154q0 155 88 294q59 93 135 143.5 t158 50.5q133 0 185 -137l39 106h69l-167 -481q-19 -55 -19 -89q0 -78 89 -78q106 0 211 101q142 136 142 335q0 231 -173 376q-159 133 -376 133q-136 0 -259.5 -55t-211.5 -155q-156 -177 -156 -426q0 -260 174 -438q180 -184 440 -184q211 0 385 135q90 70 144 169h57 q-53 -122 -162 -207q-189 -149 -425 -149q-155 0 -293 66.5t-233 186.5q-145 183 -145 421zM493 527q0 -79 34 -124q38 -51 103 -51q86 0 156 69q49 49 91 164l47 130q26 72 26 114q0 44 -20 80q-41 73 -118 73q-111 0 -209 -131q-110 -144 -110 -324z" />
<glyph unicode="A" horiz-adv-x="1230" d="M23 0l553 1367h89l543 -1367h-92l-171 438h-659l-174 -438h-89zM313 510h605l-249 633q-37 101 -50 143l-12 -33q-29 -78 -39 -104z" />
<glyph unicode="B" horiz-adv-x="1290" d="M173 0v1365h541q185 0 284 -61q80 -49 121 -132q33 -67 33 -146q0 -151 -114 -244q-62 -49 -149 -65q99 -18 151 -49q74 -43 118 -121q41 -73 41 -166q0 -160 -107 -261q-92 -88 -226 -108q-76 -12 -166 -12h-527zM256 72h438q204 0 301 66q121 83 121 243 q0 144 -103.5 217.5t-307.5 73.5h-449v-600zM256 744h390q191 0 268 34q80 35 123 111q32 56 32 129q0 162 -137 233q-80 42 -240 42h-436v-549z" />
<glyph unicode="C" horiz-adv-x="1394" d="M98 680q0 313 172 513q176 203 464 203q266 0 430 -173q112 -119 130 -267h-81q-28 128 -112 217q-143 151 -373 151q-268 0 -422 -213q-125 -172 -125 -429q0 -258 117 -423q81 -113 204 -170q105 -48 223 -48q161 0 288 85q190 128 222 404h81q-17 -200 -130 -345 q-168 -216 -462 -216q-204 0 -359 111q-139 99 -209 270q-58 144 -58 330z" />
<glyph unicode="D" horiz-adv-x="1352" d="M173 0v1365h461q160 0 267 -41q195 -75 284 -271q71 -157 71 -348q0 -360 -192 -551q-105 -105 -246 -136q-80 -18 -184 -18h-461zM256 72h351q159 0 249 33q172 64 256 253q61 136 61 339q0 299 -155 458q-87 89 -210 120q-74 18 -179 18h-373v-1221z" />
<glyph unicode="E" horiz-adv-x="1181" d="M173 0v1365h920v-72h-837v-546h787v-72h-787v-603h847v-72h-930z" />
<glyph unicode="F" horiz-adv-x="1071" d="M173 0v1365h860v-72h-777v-548h698v-72h-698v-673h-83z" />
<glyph unicode="G" horiz-adv-x="1475" d="M98 668q0 207 80 375q85 180 245 272q142 81 319 81q269 0 436 -179q109 -116 135 -274h-79q-24 119 -107 214q-145 167 -384 167q-281 0 -440 -221q-122 -170 -122 -436q0 -262 134 -428q159 -198 429 -198q189 0 324 102q105 79 156 210q39 99 39 217v26h-504v72h577 v-668h-60l-9 332q-37 -115 -111 -195q-155 -168 -414 -168q-201 0 -355 99q-146 95 -222 266q-67 150 -67 334z" />
<glyph unicode="H" horiz-adv-x="1384" d="M171 0v1365h83v-614h877v614h83v-1365h-83v679h-877v-679h-83z" />
<glyph unicode="I" horiz-adv-x="426" d="M172 0v1365h83v-1365h-83z" />
<glyph unicode="J" horiz-adv-x="941" d="M30 382q0 22 1 51h80q-1 -31 -1 -47q0 -147 36 -215q70 -131 266 -131q165 0 241 101q53 71 53 235v989h83v-994q0 -181 -69 -272q-99 -131 -308 -131q-258 0 -342 177q-40 83 -40 237z" />
<glyph unicode="K" horiz-adv-x="1260" d="M173 0v1365h83v-669v-62v-53q41 40 86 82l777 702h110l-630 -567l668 -798h-105l-622 742l-284 -258v-484h-83z" />
<glyph unicode="L" horiz-adv-x="1065" d="M172 0v1365h83v-1293h780v-72h-863z" />
<glyph unicode="M" horiz-adv-x="1660" d="M173 0v1365h118l476 -1104l22 -56q30 -76 45 -118q51 133 67 171l473 1107h117v-1365h-83v1021q3 189 10 267l-10 -27l-16 -42q-25 -67 -35 -91l-482 -1128h-81l-483 1115q-16 38 -51 137l-12 33q8 -187 8 -263v-1022h-83z" />
<glyph unicode="N" horiz-adv-x="1401" d="M173 0v1365h98l750 -1062q77 -112 133 -205q-5 77 -6 261v1006h83v-1365h-96l-766 1081q-86 131 -118 188q3 -49 4 -143l1 -66v-1060h-83z" />
<glyph unicode="O" horiz-adv-x="1494" d="M98 680q0 322 175 512q186 204 480 204q134 0 254.5 -53t209.5 -151q178 -197 178 -519q0 -283 -148 -471q-184 -233 -504 -233q-315 0 -496 232q-149 191 -149 479zM181 686q0 -268 135 -441q159 -204 428 -204q262 0 423 190q145 171 145 442q0 289 -154 467 q-161 184 -420 184q-240 0 -402 -181q-155 -174 -155 -457z" />
<glyph unicode="P" horiz-adv-x="1215" d="M173 0v1365h531q112 0 183 -16q125 -29 199 -137q64 -94 64 -223q0 -200 -143 -306q-106 -78 -280 -78h-471v-605h-83zM256 677h423q110 0 168 14q94 22 157 99q63 78 63 194q0 174 -122 256q-57 39 -142 48q-39 5 -113 5h-434v-616z" />
<glyph unicode="Q" horiz-adv-x="1493" d="M98 673q0 322 178 520q184 203 473 203q294 0 478 -214q167 -194 167 -496q0 -212 -87 -380q-51 -98 -119 -164l212 -151l-42 -54l-225 161q-152 -129 -384 -129q-296 0 -483 208q-168 189 -168 496zM181 677q0 -262 125 -424q80 -105 205 -161q114 -51 239 -51 q184 0 317 105l-214 151l45 56l227 -164q186 204 186 497q0 255 -129 424q-162 214 -434 214q-182 0 -321 -98q-128 -91 -192 -249q-54 -132 -54 -300z" />
<glyph unicode="R" horiz-adv-x="1305" d="M165 0v1365h563q184 0 283 -64q152 -98 152 -298q0 -183 -140 -281q-60 -43 -151 -60q125 -17 190 -85q58 -65 69 -166q6 -44 13 -184q6 -160 32 -209l11 -18h-92q-24 34 -30 212q-8 174 -28 245q-35 118 -164 150q-74 19 -201 19h-424v-626h-83zM248 698h412 q196 0 289 56q131 78 131 246q0 162 -125 240q-85 53 -255 53h-452v-595z" />
<glyph unicode="S" horiz-adv-x="1204" d="M58 452h80q2 -168 84 -268q57 -68 164 -107q94 -34 216 -34q221 0 329 94q98 85 98 219q0 152 -139 221q-71 35 -319 92q-170 39 -243 66q-122 43 -175 117q-54 75 -54 183q0 177 142 275q123 84 329 84q286 0 419 -160q79 -94 88 -256h-82q-10 142 -78 218 q-56 65 -161 99q-82 27 -190 27q-175 0 -275 -70q-109 -76 -109 -216q0 -155 149 -218q69 -30 332 -91q146 -34 211 -57q238 -83 238 -309q0 -196 -160 -303q-129 -87 -353 -87q-203 0 -341 81q-197 115 -200 400z" />
<glyph unicode="T" horiz-adv-x="1106" d="M28 1293v72h1050v-72h-484v-1293h-83v1293h-483z" />
<glyph unicode="U" horiz-adv-x="1357" d="M151 535v830h83v-835q0 -128 22 -207q37 -136 147 -210q107 -72 285 -72q250 0 359 159q76 111 76 332v833h83v-835q0 -230 -81 -356q-133 -205 -437 -205q-338 0 -469 228q-68 118 -68 338z" />
<glyph unicode="V" horiz-adv-x="1168" d="M23 1365h91l409 -1093q25 -70 67 -198q16 57 65 195l406 1096h85l-509 -1365h-97z" />
<glyph unicode="W" horiz-adv-x="1796" d="M35 1365h89l301 -1047q4 -13 17 -65q4 -14 16 -60q15 -55 24 -104q10 47 25 104q5 18 16 58q11 42 17 63l309 1051h102l316 -1060q13 -41 35 -126q13 -52 22 -90q19 86 36 150l18 66l301 1060h83l-391 -1365h-94l-321 1077q-10 34 -33 120q-16 57 -24 92q-8 -33 -25 -94 l-15 -55l-19 -65l-314 -1075h-94z" />
<glyph unicode="X" horiz-adv-x="1168" d="M20 0l514 702l-484 663h99l373 -510q5 -6 25 -38q20 -31 37 -56q30 42 67 96l378 508h94l-486 -663l511 -702h-101l-402 550q-8 10 -27 40q-15 22 -34 49q-15 -19 -29 -40q-23 -33 -37 -52l-401 -547h-97z" />
<glyph unicode="Y" horiz-adv-x="1173" d="M-5 1365h99l434 -629q34 -51 61 -95q39 65 58 91l439 633h94l-552 -795v-570h-83v570z" />
<glyph unicode="Z" horiz-adv-x="1150" d="M60 0v83l878 1146q33 40 51 65q-72 -1 -119 -1h-751v72h961v-80l-873 -1141q-33 -42 -56 -74q111 2 143 2h804v-72h-1038z" />
<glyph unicode="[" horiz-adv-x="534" d="M160 -354v1719h264v-64h-189v-1591h189v-64h-264z" />
<glyph unicode="\" horiz-adv-x="834" d="M78 1365h66l770 -1719h-71z" />
<glyph unicode="]" horiz-adv-x="534" d="M111 -290h189v1591h-189v64h264v-1719h-264v64z" />
<glyph unicode="^" horiz-adv-x="1024" d="M81 790l379 577h104l380 -577h-93l-341 515l-338 -515h-91z" />
<glyph unicode="_" horiz-adv-x="1024" d="M0 -161h1024v-67h-1024v67z" />
<glyph unicode="`" horiz-adv-x="1024" d="M264 1406h100l232 -269h-71z" />
<glyph unicode="a" horiz-adv-x="1005" d="M70 246q0 192 184 263q67 25 166 37q14 1 216 18q89 8 118 42q21 24 21 87q0 125 -55 178q-75 73 -224 73q-271 0 -297 -264h-74q9 154 100 238q100 93 281 93q149 0 245 -64q93 -62 101 -192q2 -22 2 -117v-88v-228v-143q0 -57 5 -73q12 -45 62 -45q22 0 50 8v-62 q-34 -13 -65 -13q-83 0 -108 47q-18 33 -19 168q-45 -89 -100 -139q-111 -99 -283 -99q-145 0 -229 64q-97 73 -97 211zM146 256q0 -126 106 -186q60 -34 150 -34q172 0 273 104q100 102 100 244v173q-38 -46 -221 -64q-155 -16 -209 -29q-199 -50 -199 -208z" />
<glyph unicode="b" horiz-adv-x="1132" d="M159 0v1365h79v-614q100 260 374 260q200 0 321 -147q112 -136 112 -371q0 -244 -124 -388q-115 -134 -310 -134q-178 0 -283 106q-62 63 -91 159v-236h-78zM238 494q0 -219 110 -345q98 -111 257 -111q162 0 258 116q104 125 104 335q0 190 -80 308q-99 147 -288 147 q-160 0 -260 -119q-101 -121 -101 -331z" />
<glyph unicode="c" horiz-adv-x="1026" d="M89 486q0 249 130 388q128 137 330 137q212 0 323 -135q64 -77 78 -196h-78q-20 100 -68 158q-90 106 -253 106q-197 0 -300 -149q-84 -122 -84 -305q0 -189 92 -315q100 -137 279 -137q188 0 282 139q48 71 61 168h78q-17 -128 -81 -216q-115 -158 -337 -158 q-239 0 -361 184q-91 137 -91 331z" />
<glyph unicode="d" horiz-adv-x="1134" d="M88 486q0 248 125 389q121 136 313 136q184 0 294 -123q42 -46 78 -132v609h78v-1365h-75v239q-25 -81 -74 -140q-108 -128 -299 -128q-222 0 -340 163q-100 138 -100 352zM166 488q0 -182 78 -302q96 -148 286 -148q177 0 277 131q93 121 93 320q0 205 -93 323 q-104 132 -280 132q-159 0 -258 -118q-103 -124 -103 -338z" />
<glyph unicode="e" horiz-adv-x="1044" d="M89 483q0 242 130 388q124 140 317 140q153 0 261 -91q124 -103 157 -282q11 -59 11 -145v-14h-796q1 -115 29 -194q38 -110 117 -174q91 -73 222 -73q167 0 266 123q54 67 75 175h77q-19 -104 -64 -176q-119 -189 -354 -189q-215 0 -337 153q-111 141 -111 359zM170 546 h716q-7 147 -65 240q-98 158 -286 158q-132 0 -229 -84q-114 -98 -136 -314z" />
<glyph unicode="f" horiz-adv-x="508" d="M3 915v67h169v102q0 138 28 189q53 99 198 99q35 0 84 -6v-69q-43 9 -77 9q-97 0 -132 -58q-18 -30 -22 -86q-1 -23 -1 -97v-83h206v-67h-206v-915h-78v915h-169z" />
<glyph unicode="g" horiz-adv-x="1109" d="M89 511q0 227 114 361q119 140 316 140q164 0 272 -112q54 -56 86 -143v226h75v-904q0 -184 -56 -281q-100 -172 -372 -172q-216 0 -315 113q-66 74 -74 189h78q16 -119 92.5 -177t217.5 -58q208 0 289 115q62 88 62 269v206q-29 -69 -58 -107q-109 -142 -310 -142 q-203 0 -319 150q-98 125 -98 327zM167 521q0 -192 94 -308q92 -112 253 -112q179 0 282 139q77 106 77 286q0 206 -108 319q-97 100 -252 100q-172 0 -269 -141q-77 -112 -77 -283z" />
<glyph unicode="h" horiz-adv-x="1087" d="M159 0v1365h78v-490q-1 -34 -3 -115q99 251 352 251q198 0 294 -143q57 -86 57 -239v-629h-78v618q0 147 -54 219q-81 107 -233 107q-182 0 -275 -158q-60 -103 -60 -288v-498h-78z" />
<glyph unicode="i" horiz-adv-x="393" d="M158 0v982h78v-982h-78zM158 1173v192h78v-192h-78z" />
<glyph unicode="j" horiz-adv-x="389" d="M-39 -289q29 -1 38 -1q68 0 93 13q61 33 61 168v1091h78v-1085q0 -90 -15 -141q-35 -115 -210 -115q-22 0 -45 3v67zM153 1173v192h78v-192h-78z" />
<glyph unicode="k" horiz-adv-x="1004" d="M159 0v1365h78v-791v-113q38 34 78 70l528 451h105l-430 -366l460 -616h-98l-421 562l-222 -189v-373h-78z" />
<glyph unicode="l" horiz-adv-x="393" d="M158 0v1365h78v-1365h-78z" />
<glyph unicode="m" horiz-adv-x="1619" d="M159 0v982h78v-198q32 87 89 139q94 88 229 88q219 0 287 -211q42 88 91 131q91 80 228 80q159 0 245 -105q50 -61 59 -140q5 -40 5 -91v-675h-78v666q0 120 -40 180q-66 98 -208 98q-162 0 -239 -129q-48 -81 -48 -209v-606h-78v649q0 116 -30 176q-58 119 -210 119 q-102 0 -178 -60q-123 -98 -123 -324v-560h-79z" />
<glyph unicode="n" horiz-adv-x="1091" d="M159 0v982h78v-213q95 242 359 242q185 0 281 -125q47 -61 57 -134q7 -52 7 -124v-628h-78v608q0 135 -30 199q-33 67 -104 103q-68 34 -148 34q-140 0 -232 -87q-76 -71 -99 -188q-12 -60 -12 -158v-511h-79z" />
<glyph unicode="o" horiz-adv-x="1087" d="M89 489q0 220 111 361q127 161 353 161q212 0 338 -163q107 -139 107 -363q0 -232 -119 -369q-125 -145 -335 -145q-218 0 -343 155q-112 140 -112 363zM167 491q0 -205 98 -325q105 -128 281 -128q175 0 276 126q98 122 98 320q0 196 -91 321q-101 139 -289 139 q-165 0 -272 -128q-101 -122 -101 -325z" />
<glyph unicode="p" horiz-adv-x="1127" d="M159 -354v1336h78v-232q23 78 79 143q103 118 286 118q209 0 326 -152q111 -145 111 -371q0 -213 -103 -354q-119 -163 -332 -163q-187 0 -294 122q-48 55 -72 132v-579h-79zM237 490q0 -206 84 -317q103 -135 278 -135q184 0 284 153q78 118 78 295q0 200 -89 323 q-98 135 -282 135q-177 0 -274 -141q-79 -115 -79 -313z" />
<glyph unicode="q" horiz-adv-x="1126" d="M88 487q0 240 123 385q117 139 317 139q197 0 301 -138q32 -43 65 -122v231h74v-1336h-78v580q-31 -82 -85 -140q-108 -115 -285 -115q-211 0 -329 159q-103 139 -103 357zM166 485q0 -197 90 -317q98 -130 271 -130q183 0 281 140q86 123 86 308q0 199 -88 323 q-96 135 -281 135q-168 0 -265 -129q-94 -125 -94 -330z" />
<glyph unicode="r" horiz-adv-x="606" d="M159 0v982h78v-258q52 175 206 237q73 28 168 28h7v-78q-20 1 -29 1q-171 0 -271 -133q-55 -74 -72 -183q-8 -50 -8 -171v-425h-79z" />
<glyph unicode="s" horiz-adv-x="920" d="M51 330h77q5 -115 48 -175q83 -117 279 -117q141 0 221 59q87 63 87 161q0 102 -111 156q-51 24 -192 57q-204 47 -266 81q-109 59 -109 189q0 150 131 223q85 47 220 47q208 0 304 -110q61 -70 70 -205h-78q-8 90 -40 140q-70 108 -261 108q-116 0 -183 -43 q-85 -53 -85 -151t95 -144q50 -25 217 -62q176 -40 251 -83q115 -65 115 -200q0 -66 -31.5 -123.5t-86.5 -94.5q-107 -72 -269 -72q-237 0 -340 142q-60 82 -63 217z" />
<glyph unicode="t" horiz-adv-x="513" d="M-16 915v67h179v307h78v-307h211v-67h-211v-666q0 -103 16 -135q27 -52 110 -52q36 0 85 10v-70q-52 -7 -93 -7q-130 0 -172 75q-18 32 -22 91q-2 27 -2 119v635h-179z" />
<glyph unicode="u" horiz-adv-x="1082" d="M152 350v632h78v-586q0 -149 32 -218q29 -64 92 -100q72 -42 160 -42q164 0 258 132q76 108 76 281v533h78v-982h-75v208q-108 -237 -352 -237q-186 0 -281 126q-66 87 -66 253z" />
<glyph unicode="v" horiz-adv-x="880" d="M10 982h85l281 -689q11 -29 59 -160l20 -56q48 141 78 219l257 686h80l-371 -982h-90z" />
<glyph unicode="w" horiz-adv-x="1403" d="M22 982h83l228 -718q19 -61 51 -180q36 136 50 185l222 713h96l223 -717q18 -59 49 -179q30 118 48 175l230 721h80l-317 -982h-88l-233 746q-20 63 -41 146q-24 -92 -40 -144l-233 -748h-92z" />
<glyph unicode="x" horiz-adv-x="894" d="M7 0l389 514l-359 468h100l262 -348q5 -6 46 -63q33 48 44 63l268 348h92l-356 -464l394 -518h-100l-307 407q-13 17 -37 53q-16 -23 -36 -51l-307 -409h-93z" />
<glyph unicode="y" horiz-adv-x="894" d="M10 982h88l324 -770q9 -23 44 -122q28 88 45 133l292 759h81l-422 -1083q-62 -159 -109 -201q-58 -51 -140 -51h-15l-52 3h-28v70q38 -5 64 -5q63 0 101 24q47 28 77 104q33 83 38 92q28 46 28 67q0 2 -2 6z" />
<glyph unicode="z" horiz-adv-x="850" d="M48 0v73l605 775q12 15 56 67h-67h-545v67h703v-64l-609 -782q-25 -31 -55 -69h83h611v-67h-782z" />
<glyph unicode="{" horiz-adv-x="534" d="M33 474v64q52 15 85 55q33 38 34 139v359q-1 138 52 199q62 75 201 75h13v-64h-20q-49 0 -95 -23q-45 -21 -64 -78q-12 -33 -12 -101v-370q-1 -103 -26 -148q-25 -47 -85 -76q62 -29 91 -94q20 -48 20 -139v-350q0 -68 10.5 -105.5t37.5 -64.5q18 -18 52.5 -30t70.5 -12 h20v-64h-14q-149 0 -204 80q-46 64 -48 227v322q1 101 -36 149q-27 32 -83 50z" />
<glyph unicode="|" horiz-adv-x="1024" d="M469 -341v1706h87v-1706h-87z" />
<glyph unicode="}" horiz-adv-x="534" d="M116 -289h20q49 0 95 23q44 21 64 78q12 33 12 101v370q1 102 26 147q25 47 85 76q-62 29 -91 94q-20 48 -20 140v349q0 68 -10.5 105.5t-37.5 64.5q-18 18 -53 30t-70 12h-20v64h14q150 0 204 -80q47 -65 48 -227v-322q-1 -102 36 -149q27 -32 83 -50v-64 q-52 -14 -85 -54q-33 -38 -34 -139v-359q1 -137 -52 -199q-63 -76 -201 -76h-13v65z" />
<glyph unicode="~" horiz-adv-x="1365" d="M195 1256q109 205 263 205q80 0 241 -85q104 -55 144 -66q35 -10 64 -10q76 0 132 57q38 39 78 108l54 -39q-103 -205 -268 -205q-47 0 -114 26q-27 10 -156 77q-112 59 -181 59q-107 0 -203 -166z" />
<glyph unicode="&#xa1;" horiz-adv-x="493" d="M184 -384l14 1020h55l14 -1020h-83zM184 795v187h82v-187h-82z" />
<glyph unicode="&#xa2;" d="M144 679q0 277 166 419q99 84 251 100v167h48v-167q164 -6 270 -101q101 -95 115 -230h-78q-19 119 -106 192q-84 67 -201 73v-904q149 2 240 117q62 81 76 187h75q-16 -154 -119 -259q-109 -108 -272 -110v-204h-48v204q-182 12 -289 130q-128 142 -128 386zM223 681 q0 -230 119 -352q81 -83 219 -101v902q-146 -16 -231 -114q-107 -121 -107 -335z" />
<glyph unicode="&#xa3;" d="M137 34q77 58 131 130q90 119 90 242q0 106 -56 214h-153v48h124q-51 91 -57 101q-64 120 -64 223q0 167 139 268q113 83 298 83q307 0 405 -230q37 -89 37 -223h-76q-6 385 -368 385q-172 0 -268 -88q-88 -81 -88 -199q0 -58 23 -120q13 -34 55 -110q20 -36 49 -90h306 v-48h-279q47 -104 47 -203q0 -121 -82 -235q-29 -42 -116 -128q61 30 72 35q64 27 133 27q56 0 127 -22q18 -5 122 -43q54 -19 109 -19q86 0 184 66q43 29 73 63l43 -57q-138 -142 -301 -142q-52 0 -115 17q-19 6 -135 46q-71 24 -135 24q-101 0 -225 -84z" />
<glyph unicode="&#xa4;" horiz-adv-x="1365" d="M148 1194l50 50l184 -184q140 115 300 115q164 0 300 -114l185 183l50 -50l-185 -183q110 -138 110 -296q0 -161 -109 -295l185 -185l-50 -50l-185 185q-134 -110 -298 -110q-157 0 -298 110l-183 -185l-49 50l180 185q-111 137 -111 297q0 155 111 293zM303 717 q0 -158 111 -270q112 -112 269 -112q158 0 269 113q111 111 111 267q0 162 -110 272q-114 113 -274 113q-154 0 -266 -114q-110 -112 -110 -269z" />
<glyph unicode="&#xa5;" d="M98 1315h92l384 -662l385 662h88l-323 -550h282v-48h-311l-86 -147v-92h356v-48h-356v-430h-75v430h-354v48h354v92l-86 147h-309v48h281z" />
<glyph unicode="&#xa6;" horiz-adv-x="1024" d="M469 314h87v-655h-87v655zM469 699v666h87v-666h-87z" />
<glyph unicode="&#xa7;" d="M138 612q0 124 97 207q49 42 114 65q-102 83 -102 201q0 133 115 208q81 53 194 53q206 0 293 -139q46 -76 50 -198h-76q-4 100 -39 157q-68 113 -229 113q-119 0 -185 -71q-46 -51 -46 -122q0 -77 51 -129q37 -37 163 -107q253 -143 335 -208q135 -109 135 -240 q0 -128 -113 -214q-43 -32 -104 -54q47 -42 71 -76q44 -62 44 -139q0 -95 -64 -169q-90 -104 -264 -104q-155 0 -247 85q-103 93 -103 270h76q3 -112 47 -179q70 -109 227 -109q117 0 185 61q63 58 63 141q0 92 -80 159q-57 48 -235 152q-225 131 -281 186q-92 89 -92 200z M213 617q0 -95 97 -171q51 -40 348 -219q55 -33 79 -51q69 21 114 57q82 65 82 159q0 107 -118 197q-97 75 -322 200q-64 36 -94 56q-77 -34 -112 -66q-74 -67 -74 -162z" />
<glyph unicode="&#xa8;" horiz-adv-x="1024" d="M304 1171v197h81v-197h-81zM638 1171v197h81v-197h-81z" />
<glyph unicode="&#xa9;" horiz-adv-x="1623" d="M98 681q0 202 105 375q103 169 286 263q151 77 332 77q192 0 363 -105q172 -106 263 -284q78 -153 78 -325q0 -142 -54.5 -273t-154.5 -231t-231 -154.5t-273 -54.5t-273 54.5t-231 153.5q-100 100 -155 232t-55 272zM159 683q0 -131 50 -252.5t142 -214.5 q191 -192 461 -192t461 193q92 92 141.5 213t49.5 251q0 133 -50.5 256t-141.5 212q-195 192 -468 192q-124 0 -243 -50.5t-210 -141.5q-92 -92 -142 -213.5t-50 -252.5zM432 681q0 179 105 293q108 116 283 116q163 0 263 -99q70 -70 81 -162h-62q-17 75 -66 124 q-84 83 -219 83q-157 0 -247 -117q-74 -95 -74 -237t69 -232q91 -120 250 -120q147 0 233 102q54 66 67 172h62q-10 -120 -81 -205q-103 -123 -281 -123q-189 0 -297 134q-86 107 -86 271z" />
<glyph unicode="&#xaa;" horiz-adv-x="765" d="M78 608v68h609v-68h-609zM128 960q0 110 108 150q45 16 216 30q47 4 61 20q10 11 10 40q0 65 -28 91q-40 37 -121 37q-145 0 -158 -142h-58q12 194 223 194q85 0 140 -36q56 -36 61 -109q1 -13 1 -64v-73v-97v-43v-34q0 -30 2 -38q5 -18 27 -18q14 0 38 7v-50 q-26 -9 -47 -9q-41 0 -59 20q-17 18 -19 72q-44 -58 -83 -78q-53 -26 -123 -26q-84 0 -133 36q-58 42 -58 120zM189 965q0 -63 55 -93q31 -17 80 -17q92 0 146 53q53 53 53 126v76q-37 -17 -114 -25q-119 -12 -160 -30q-60 -27 -60 -90z" />
<glyph unicode="&#xab;" horiz-adv-x="705" d="M105 467v74l220 250v-90l-167 -199l167 -187v-96zM351 465v74l221 253v-89l-168 -201l168 -193v-91z" />
<glyph unicode="&#xac;" horiz-adv-x="1024" d="M68 478v77h887v-555h-85v478h-802z" />
<glyph unicode="&#xad;" horiz-adv-x="437" d="M0 471v70h437v-70h-437z" />
<glyph unicode="&#xae;" horiz-adv-x="1623" d="M98 681q0 202 105 375q103 169 286 263q151 77 332 77q192 0 363 -105q172 -106 263 -284q78 -153 78 -325q0 -142 -54.5 -273t-154.5 -231t-231 -154.5t-273 -54.5t-273 54.5t-231 153.5q-100 100 -155 232t-55 272zM159 683q0 -131 50 -252.5t142 -214.5 q191 -192 461 -192t461 193q92 92 141.5 213t49.5 251q0 133 -50.5 256t-141.5 212q-195 192 -468 192q-124 0 -243 -50.5t-210 -141.5q-92 -92 -142 -213.5t-50 -252.5zM526 294v778h345q112 0 173 -37q95 -56 95 -173q0 -142 -146 -190q64 -14 98 -61q24 -35 31 -91 q2 -17 6 -92q3 -85 17 -113l14 -21h-71q-17 22 -22 125q-4 97 -16 135q-20 62 -93 80q-44 10 -119 10h-248v-350h-64zM590 698h241q114 0 169 30q75 42 75 132q0 158 -221 158h-264v-320z" />
<glyph unicode="&#xaf;" horiz-adv-x="1024" d="M0 1661v62h1024v-62h-1024z" />
<glyph unicode="&#xb0;" horiz-adv-x="748" d="M94 1074q0 130 95 209q83 70 191 70q111 0 195 -86q79 -81 79 -192q0 -119 -82 -201q-81 -82 -196 -82q-125 0 -209 92q-73 79 -73 190zM157 1073q0 -82 53 -145q65 -75 165 -75q85 0 149 62q67 65 67 155q0 92 -63 156q-65 66 -159 66q-80 0 -140 -57q-72 -67 -72 -162z " />
<glyph unicode="&#xb1;" d="M111 55v66h926v-66h-926zM111 625v66h430v432h66v-432h430v-66h-430v-432h-66v432h-430z" />
<glyph unicode="&#xb2;" horiz-adv-x="734" d="M90 546q8 107 74 180q57 57 198 148q115 76 158 128q47 58 47 126q0 82 -58 127q-51 40 -134 40q-200 0 -203 -234h-64q2 135 60 205q70 85 209 85q111 0 180 -56q74 -61 74 -166q0 -104 -83 -186q-56 -56 -202 -151q-100 -65 -131 -98q-36 -39 -52 -89h482v-59h-555z " />
<glyph unicode="&#xb3;" horiz-adv-x="733" d="M75 792v28h62v-21q0 -98 55 -152q62 -61 173 -61q103 0 164 57q56 52 56 128q0 171 -234 171q-17 0 -37 -2v57q21 -1 41 -1q84 0 134 25q75 39 75 122q0 71 -58 114q-50 38 -135 38q-207 0 -215 -217h-61q4 108 48 171q73 102 229 102q117 0 187 -58t70 -149 q0 -127 -130 -173q49 -14 82 -41q68 -57 68 -154q0 -111 -86 -183q-75 -63 -200 -63q-151 0 -230 91q-58 68 -58 171z" />
<glyph unicode="&#xb4;" horiz-adv-x="1024" d="M433 1137l225 269h97l-253 -269h-69z" />
<glyph unicode="&#xb5;" horiz-adv-x="1024" d="M125 -335v1318h78v-578q0 -117 17 -171q34 -112 141 -164q64 -31 136 -31q153 0 242 122q82 112 82 269v553h78v-983h-78v215q-40 -101 -96 -154q-92 -90 -230 -90q-127 0 -216 74q-37 30 -76 92v-472h-78z" />
<glyph unicode="&#xb6;" d="M109 998q0 127 72 224q67 92 187 123q77 20 181 20h464v-64h-109v-1655h-82v1655h-217v-1655h-82v992q-22 -1 -33 -1q-119 0 -212 54q-77 44 -122 124q-47 83 -47 183z" />
<glyph unicode="&#xb7;" horiz-adv-x="410" d="M157 408v195h96v-195h-96z" />
<glyph unicode="&#xb8;" horiz-adv-x="1024" d="M303 -333l21 46q79 -34 148 -34q54 0 89 20q45 27 45 73q0 39 -36 62q-29 18 -71 18q-40 0 -93 -20l-28 25l115 143h54l-86 -108q45 8 73 8q63 0 104 -32q43 -34 43 -87q0 -71 -57 -113q-53 -39 -144 -39q-73 0 -177 38z" />
<glyph unicode="&#xb9;" horiz-adv-x="733" d="M164 1138v55q88 15 149 58q38 25 76 88h55v-793h-66v682q-79 -77 -214 -90z" />
<glyph unicode="&#xba;" horiz-adv-x="765" d="M78 608v68h609v-68h-609zM119 1091q0 122 64 200q74 89 205 89q123 0 196 -91q62 -77 62 -200q0 -128 -69 -205q-73 -80 -194 -80q-128 0 -199 87q-65 78 -65 200zM180 1092q0 -107 53 -170q56 -66 151 -66q93 0 148 65q53 63 53 167t-49 169q-54 71 -156 71 q-88 0 -145 -66q-55 -64 -55 -170z" />
<glyph unicode="&#xbb;" horiz-adv-x="705" d="M132 218v89l170 201l-170 194v90l223 -246v-74zM379 219v91l167 199l-167 187v95l220 -247v-75z" />
<glyph unicode="&#xbc;" horiz-adv-x="1749" d="M164 1138v55q88 15 149 58q38 25 76 88h55v-793h-66v682q-79 -77 -214 -90zM426 0l831 1335h65l-831 -1335h-65zM1088 198v57l392 539h60v-540h133v-56h-133v-198h-63v198h-389zM1153 254h324v448z" />
<glyph unicode="&#xbd;" horiz-adv-x="1748" d="M164 1138v55q88 15 149 58q38 25 76 88h55v-793h-66v682q-79 -77 -214 -90zM426 0l831 1335h65l-831 -1335h-65zM1105 0q9 109 74 180q58 57 198 148q114 76 158 128q47 57 47 126q0 82 -58 127q-51 40 -134 40q-200 0 -203 -234h-64q2 135 60 205q71 85 209 85 q111 0 180 -56q74 -61 74 -167q0 -102 -83 -185q-53 -54 -202 -151q-99 -65 -131 -98q-36 -39 -52 -89h482v-59h-555z" />
<glyph unicode="&#xbe;" horiz-adv-x="1749" d="M75 792v28h62v-21q0 -98 55 -152q62 -61 173 -61q103 0 164 57q56 52 56 128q0 171 -234 171q-17 0 -37 -2v57q21 -1 41 -1q84 0 134 25q75 39 75 122q0 71 -58 114q-50 38 -135 38q-207 0 -215 -217h-61q4 108 48 171q73 102 229 102q117 0 187 -58t70 -149 q0 -127 -130 -173q49 -14 82 -41q68 -57 68 -154q0 -111 -86 -183q-75 -63 -200 -63q-151 0 -230 91q-58 68 -58 171zM426 0l831 1335h65l-832 -1335h-64zM1087 198v57l393 539h60v-540h133v-56h-133v-198h-63v198h-390zM1152 254h325v448z" />
<glyph unicode="&#xbf;" horiz-adv-x="1011" d="M91 -70q0 125 81 230q29 38 151 154q70 66 93 105t30 96q6 45 6 123h79q0 -104 -11 -160q-14 -72 -67 -135q-19 -23 -78 -78q-92 -87 -130 -134q-75 -94 -75 -198q0 -113 82 -195q85 -84 233 -84q206 0 294 167q41 79 45 219h75q-2 -165 -62 -267q-59 -101 -174 -151 q-81 -35 -181 -35q-187 0 -294 108q-97 97 -97 235zM450 793v189h85v-189h-85z" />
<glyph unicode="&#xc0;" horiz-adv-x="1230" d="M23 0l553 1367h89l543 -1367h-92l-171 438h-659l-174 -438h-89zM313 510h605l-249 633q-37 101 -50 143l-12 -33q-29 -78 -39 -104zM342 1730h103l252 -249h-75z" />
<glyph unicode="&#xc1;" horiz-adv-x="1230" d="M23 0l553 1367h89l543 -1367h-92l-171 438h-659l-174 -438h-89zM313 510h605l-249 633q-37 101 -50 143l-12 -33q-29 -78 -39 -104zM547 1481l252 249h103l-280 -249h-75z" />
<glyph unicode="&#xc2;" horiz-adv-x="1230" d="M23 0l553 1367h89l543 -1367h-92l-171 438h-659l-174 -438h-89zM313 510h605l-249 633q-37 101 -50 143l-12 -33q-29 -78 -39 -104zM320 1481l253 256h84l254 -256h-85l-214 207l-214 -207h-78z" />
<glyph unicode="&#xc3;" horiz-adv-x="1230" d="M23 0l553 1367h89l543 -1367h-92l-171 438h-659l-174 -438h-89zM313 510h605l-249 633q-37 101 -50 143l-12 -33q-29 -78 -39 -104zM343 1522q10 54 30 90q45 78 125 78q52 0 129 -48q87 -54 128 -54q65 0 91 102h56q-33 -166 -145 -166q-56 0 -132 46q-49 30 -64 38 q-34 19 -68 19q-71 0 -95 -105h-55z" />
<glyph unicode="&#xc4;" horiz-adv-x="1230" d="M23 0l553 1367h89l543 -1367h-92l-171 438h-659l-174 -438h-89zM313 510h605l-249 633q-37 101 -50 143l-12 -33q-29 -78 -39 -104zM375 1513v192h83v-192h-83zM771 1513v192h83v-192h-83z" />
<glyph unicode="&#xc5;" horiz-adv-x="1230" d="M23 0l553 1367h89l543 -1367h-92l-171 438h-659l-174 -438h-89zM313 510h605l-249 633q-37 101 -50 143l-12 -33q-29 -78 -39 -104zM422 1641q0 82 57 137q58 57 139 57q78 0 135 -57q56 -57 56 -137q0 -81 -57 -137q-56 -57 -136 -57t-137 57t-57 137zM475 1641 q0 -59 41 -100q42 -41 99 -41q58 0 100 41q41 41 41 100t-41 100q-42 41 -101 41q-57 0 -98 -41t-41 -100z" />
<glyph unicode="&#xc6;" horiz-adv-x="1750" d="M8 0l716 1365h941v-72h-725v-546h670v-72h-670v-603h729v-72h-812v488h-502l-253 -488h-94zM390 560h467v733h-86z" />
<glyph unicode="&#xc7;" horiz-adv-x="1394" d="M98 678q0 298 154 489q185 229 480 229q264 0 429 -174q101 -107 133 -266h-84q-23 101 -86 184q-74 97 -181 142q-102 43 -211 43q-171 0 -308 -98q-132 -95 -194 -257q-49 -126 -49 -287q0 -262 122 -427q160 -216 413 -216t401 186q106 133 116 304h83 q-9 -169 -122 -328q-81 -111 -198.5 -169.5t-265.5 -62.5l-64 -83q46 9 73 9q62 0 104 -35q40 -33 40 -84q0 -66 -57 -111q-54 -42 -142 -42q-77 0 -177 39l20 47q85 -35 151 -35q44 0 75 16q54 28 54 79q0 35 -32 58q-29 20 -70 20q-38 0 -93 -19l-31 24l91 117 q-256 21 -416 215q-158 191 -158 493z" />
<glyph unicode="&#xc8;" horiz-adv-x="1181" d="M173 0v1365h920v-72h-837v-546h787v-72h-787v-603h847v-72h-930zM393 1730h103l252 -249h-75z" />
<glyph unicode="&#xc9;" horiz-adv-x="1181" d="M173 0v1365h920v-72h-837v-546h787v-72h-787v-603h847v-72h-930zM543 1481l252 249h103l-280 -249h-75z" />
<glyph unicode="&#xca;" horiz-adv-x="1181" d="M173 0v1365h920v-72h-837v-546h787v-72h-787v-603h847v-72h-930zM344 1481l253 256h84l254 -256h-85l-214 207l-214 -207h-78z" />
<glyph unicode="&#xcb;" horiz-adv-x="1181" d="M173 0v1365h920v-72h-837v-546h787v-72h-787v-603h847v-72h-930zM399 1513v192h83v-192h-83zM795 1513v192h83v-192h-83z" />
<glyph unicode="&#xcc;" horiz-adv-x="426" d="M-40 1730h103l232 -249h-75zM172 0v1365h83v-1365h-83z" />
<glyph unicode="&#xcd;" horiz-adv-x="426" d="M131 1481l232 249h103l-260 -249h-75zM172 0v1365h83v-1365h-83z" />
<glyph unicode="&#xce;" horiz-adv-x="426" d="M-55 1481l225 256h85l226 -256h-85l-186 207l-187 -207h-78zM172 0v1365h83v-1365h-83z" />
<glyph unicode="&#xcf;" horiz-adv-x="426" d="M41 1513v192h83v-192h-83zM172 0v1365h83v-1365h-83zM302 1513v192h83v-192h-83z" />
<glyph unicode="&#xd0;" horiz-adv-x="1352" d="M9 679v71h164v615h461q162 0 267 -41q193 -75 282 -270q72 -158 72 -349q0 -360 -191 -552q-105 -105 -246 -136q-80 -17 -183 -17h-462v679h-164zM256 71h351q159 0 249 33q171 64 255 254q61 136 61 340q0 298 -154 458q-87 89 -210 120q-74 18 -179 18h-373v-544h397 v-71h-397v-608z" />
<glyph unicode="&#xd1;" horiz-adv-x="1401" d="M173 0v1365h98l750 -1062q77 -112 133 -205q-5 77 -6 261v1006h83v-1365h-96l-766 1081q-86 131 -118 188q3 -49 4 -143l1 -66v-1060h-83zM421 1522q10 54 30 90q45 78 125 78q52 0 129 -48q87 -54 128 -54q65 0 91 102h56q-33 -166 -145 -166q-56 0 -132 46 q-49 30 -64 38q-34 19 -68 19q-71 0 -95 -105h-55z" />
<glyph unicode="&#xd2;" horiz-adv-x="1494" d="M98 680q0 322 175 512q186 204 480 204q134 0 254.5 -53t209.5 -151q178 -197 178 -519q0 -283 -148 -471q-184 -233 -504 -233q-315 0 -496 232q-149 191 -149 479zM181 686q0 -268 135 -441q159 -204 428 -204q262 0 423 190q145 171 145 442q0 289 -154 467 q-161 184 -420 184q-240 0 -402 -181q-155 -174 -155 -457zM487 1730h103l252 -249h-75z" />
<glyph unicode="&#xd3;" horiz-adv-x="1494" d="M98 680q0 322 175 512q186 204 480 204q134 0 254.5 -53t209.5 -151q178 -197 178 -519q0 -283 -148 -471q-184 -233 -504 -233q-315 0 -496 232q-149 191 -149 479zM181 686q0 -268 135 -441q159 -204 428 -204q262 0 423 190q145 171 145 442q0 289 -154 467 q-161 184 -420 184q-240 0 -402 -181q-155 -174 -155 -457zM651 1481l252 249h103l-280 -249h-75z" />
<glyph unicode="&#xd4;" horiz-adv-x="1494" d="M98 680q0 322 175 512q186 204 480 204q134 0 254.5 -53t209.5 -151q178 -197 178 -519q0 -283 -148 -471q-184 -233 -504 -233q-315 0 -496 232q-149 191 -149 479zM181 686q0 -268 135 -441q159 -204 428 -204q262 0 423 190q145 171 145 442q0 289 -154 467 q-161 184 -420 184q-240 0 -402 -181q-155 -174 -155 -457zM451 1481l253 256h84l254 -256h-85l-214 207l-214 -207h-78z" />
<glyph unicode="&#xd5;" horiz-adv-x="1494" d="M98 680q0 322 175 512q186 204 480 204q134 0 254.5 -53t209.5 -151q178 -197 178 -519q0 -283 -148 -471q-184 -233 -504 -233q-315 0 -496 232q-149 191 -149 479zM181 686q0 -268 135 -441q159 -204 428 -204q262 0 423 190q145 171 145 442q0 289 -154 467 q-161 184 -420 184q-240 0 -402 -181q-155 -174 -155 -457zM495 1522q10 54 30 90q45 78 125 78q52 0 129 -48q87 -54 128 -54q65 0 91 102h56q-33 -166 -145 -166q-56 0 -132 46q-49 30 -64 38q-34 19 -68 19q-71 0 -95 -105h-55z" />
<glyph unicode="&#xd6;" horiz-adv-x="1494" d="M98 680q0 322 175 512q186 204 480 204q134 0 254.5 -53t209.5 -151q178 -197 178 -519q0 -283 -148 -471q-184 -233 -504 -233q-315 0 -496 232q-149 191 -149 479zM181 686q0 -268 135 -441q159 -204 428 -204q262 0 423 190q145 171 145 442q0 289 -154 467 q-161 184 -420 184q-240 0 -402 -181q-155 -174 -155 -457zM506 1513v192h83v-192h-83zM902 1513v192h83v-192h-83z" />
<glyph unicode="&#xd7;" d="M171 302l356 356l-356 356l47 47l356 -356l356 356l47 -47l-357 -356l357 -356l-47 -47l-356 356l-356 -356z" />
<glyph unicode="&#xd8;" horiz-adv-x="1494" d="M98 681q0 318 173 510q184 205 473 205q272 0 449 -180l129 141l43 -39l-133 -144q71 -95 102 -166q61 -141 61 -337q0 -284 -154 -473q-185 -229 -496 -229q-194 0 -348 95q-57 36 -104 86l-144 -157l-42 42l146 157q-61 85 -90 151q-65 146 -65 338zM181 678 q0 -157 55 -295q29 -73 74 -128l831 904q-158 165 -398 165q-264 0 -425 -199q-137 -168 -137 -447zM346 208q35 -42 88 -76q142 -91 310 -91q176 0 315 93q125 84 193 235q60 134 60 301q0 173 -48 292q-26 65 -85 151z" />
<glyph unicode="&#xd9;" horiz-adv-x="1357" d="M151 535v830h83v-835q0 -128 22 -207q37 -136 147 -210q107 -72 285 -72q250 0 359 159q76 111 76 332v833h83v-835q0 -230 -81 -356q-133 -205 -437 -205q-338 0 -469 228q-68 118 -68 338zM433 1730h103l252 -249h-75z" />
<glyph unicode="&#xda;" horiz-adv-x="1357" d="M151 535v830h83v-835q0 -128 22 -207q37 -136 147 -210q107 -72 285 -72q250 0 359 159q76 111 76 332v833h83v-835q0 -230 -81 -356q-133 -205 -437 -205q-338 0 -469 228q-68 118 -68 338zM597 1481l252 249h103l-280 -249h-75z" />
<glyph unicode="&#xdb;" horiz-adv-x="1357" d="M151 535v830h83v-835q0 -128 22 -207q37 -136 147 -210q107 -72 285 -72q250 0 359 159q76 111 76 332v833h83v-835q0 -230 -81 -356q-133 -205 -437 -205q-338 0 -469 228q-68 118 -68 338zM383 1481l253 256h84l254 -256h-85l-214 207l-214 -207h-78z" />
<glyph unicode="&#xdc;" horiz-adv-x="1357" d="M151 535v830h83v-835q0 -128 22 -207q37 -136 147 -210q107 -72 285 -72q250 0 359 159q76 111 76 332v833h83v-835q0 -230 -81 -356q-133 -205 -437 -205q-338 0 -469 228q-68 118 -68 338zM438 1513v192h83v-192h-83zM834 1513v192h83v-192h-83z" />
<glyph unicode="&#xdd;" horiz-adv-x="1173" d="M-5 1365h99l434 -629q34 -51 61 -95q39 65 58 91l439 633h94l-552 -795v-570h-83v570zM504 1481l252 249h103l-280 -249h-75z" />
<glyph unicode="&#xde;" horiz-adv-x="1222" d="M173 0v1365h83v-211h448q110 0 183 -16q125 -28 199 -137q64 -94 64 -224q0 -202 -143 -307q-105 -77 -280 -77h-471v-393h-83zM256 464h423q111 0 168 14q94 22 157 99q63 79 63 196q0 174 -122 257q-58 39 -142 48q-39 5 -113 5h-434v-619z" />
<glyph unicode="&#xdf;" horiz-adv-x="1029" d="M159 0v976q0 123 13 187q18 92 98 156q97 79 242 79q153 0 253 -88q106 -95 106 -248q0 -159 -114 -244q-42 -31 -114 -50q76 -8 133 -40q165 -93 165 -323q0 -207 -134 -325q-98 -87 -271 -87q-31 0 -88 2v66q39 -2 66 -2q175 0 257 84q92 95 92 260q0 141 -71 224 q-66 77 -202 94q-58 8 -142 7v67q22 -1 30 -1q150 0 231 69q84 70 84 199q0 112 -75 187q-80 82 -209 82q-272 0 -272 -306v-1025h-78z" />
<glyph unicode="&#xe0;" horiz-adv-x="1005" d="M70 246q0 192 184 263q67 25 166 37q14 1 216 18q89 8 118 42q21 24 21 87q0 125 -55 178q-75 73 -224 73q-271 0 -297 -264h-74q9 154 100 238q100 93 281 93q149 0 245 -64q93 -62 101 -192q2 -22 2 -117v-88v-228v-143q0 -57 5 -73q12 -45 62 -45q22 0 50 8v-62 q-34 -13 -65 -13q-83 0 -108 47q-18 33 -19 168q-45 -89 -100 -139q-111 -99 -283 -99q-145 0 -229 64q-97 73 -97 211zM146 256q0 -126 106 -186q60 -34 150 -34q172 0 273 104q100 102 100 244v173q-38 -46 -221 -64q-155 -16 -209 -29q-199 -50 -199 -208zM268 1406h100 l232 -269h-71z" />
<glyph unicode="&#xe1;" horiz-adv-x="1005" d="M70 246q0 192 184 263q67 25 166 37q14 1 216 18q89 8 118 42q21 24 21 87q0 125 -55 178q-75 73 -224 73q-271 0 -297 -264h-74q9 154 100 238q100 93 281 93q149 0 245 -64q93 -62 101 -192q2 -22 2 -117v-88v-228v-143q0 -57 5 -73q12 -45 62 -45q22 0 50 8v-62 q-34 -13 -65 -13q-83 0 -108 47q-18 33 -19 168q-45 -89 -100 -139q-111 -99 -283 -99q-145 0 -229 64q-97 73 -97 211zM146 256q0 -126 106 -186q60 -34 150 -34q172 0 273 104q100 102 100 244v173q-38 -46 -221 -64q-155 -16 -209 -29q-199 -50 -199 -208zM423 1137 l225 269h97l-253 -269h-69z" />
<glyph unicode="&#xe2;" horiz-adv-x="1005" d="M70 246q0 192 184 263q67 25 166 37q14 1 216 18q89 8 118 42q21 24 21 87q0 125 -55 178q-75 73 -224 73q-271 0 -297 -264h-74q9 154 100 238q100 93 281 93q149 0 245 -64q93 -62 101 -192q2 -22 2 -117v-88v-228v-143q0 -57 5 -73q12 -45 62 -45q22 0 50 8v-62 q-34 -13 -65 -13q-83 0 -108 47q-18 33 -19 168q-45 -89 -100 -139q-111 -99 -283 -99q-145 0 -229 64q-97 73 -97 211zM146 256q0 -126 106 -186q60 -34 150 -34q172 0 273 104q100 102 100 244v173q-38 -46 -221 -64q-155 -16 -209 -29q-199 -50 -199 -208zM239 1137 l223 269h80l224 -269h-84l-183 219l-184 -219h-76z" />
<glyph unicode="&#xe3;" horiz-adv-x="1005" d="M70 246q0 192 184 263q67 25 166 37q14 1 216 18q89 8 118 42q21 24 21 87q0 125 -55 178q-75 73 -224 73q-271 0 -297 -264h-74q9 154 100 238q100 93 281 93q149 0 245 -64q93 -62 101 -192q2 -22 2 -117v-88v-228v-143q0 -57 5 -73q12 -45 62 -45q22 0 50 8v-62 q-34 -13 -65 -13q-83 0 -108 47q-18 33 -19 168q-45 -89 -100 -139q-111 -99 -283 -99q-145 0 -229 64q-97 73 -97 211zM146 256q0 -126 106 -186q60 -34 150 -34q172 0 273 104q100 102 100 244v173q-38 -46 -221 -64q-155 -16 -209 -29q-199 -50 -199 -208zM252 1181 q7 53 26 90q42 78 114 78q46 0 116 -48q79 -54 115 -54q31 0 54 38q16 26 22 64h54q-7 -66 -39 -113q-36 -53 -89 -53q-51 0 -120 46q-42 29 -57 39q-29 18 -60 18q-40 0 -64 -46q-13 -23 -16 -59h-56z" />
<glyph unicode="&#xe4;" horiz-adv-x="1005" d="M70 246q0 192 184 263q67 25 166 37q14 1 216 18q89 8 118 42q21 24 21 87q0 125 -55 178q-75 73 -224 73q-271 0 -297 -264h-74q9 154 100 238q100 93 281 93q149 0 245 -64q93 -62 101 -192q2 -22 2 -117v-88v-228v-143q0 -57 5 -73q12 -45 62 -45q22 0 50 8v-62 q-34 -13 -65 -13q-83 0 -108 47q-18 33 -19 168q-45 -89 -100 -139q-111 -99 -283 -99q-145 0 -229 64q-97 73 -97 211zM146 256q0 -126 106 -186q60 -34 150 -34q172 0 273 104q100 102 100 244v173q-38 -46 -221 -64q-155 -16 -209 -29q-199 -50 -199 -208zM295 1171v197 h81v-197h-81zM629 1171v197h81v-197h-81z" />
<glyph unicode="&#xe5;" horiz-adv-x="1005" d="M70 246q0 192 184 263q67 25 166 37q14 1 216 18q89 8 118 42q21 24 21 87q0 125 -55 178q-75 73 -224 73q-271 0 -297 -264h-74q9 154 100 238q100 93 281 93q149 0 245 -64q93 -62 101 -192q2 -22 2 -117v-88v-228v-143q0 -57 5 -73q12 -45 62 -45q22 0 50 8v-62 q-34 -13 -65 -13q-83 0 -108 47q-18 33 -19 168q-45 -89 -100 -139q-111 -99 -283 -99q-145 0 -229 64q-97 73 -97 211zM146 256q0 -126 106 -186q60 -34 150 -34q172 0 273 104q100 102 100 244v173q-38 -46 -221 -64q-155 -16 -209 -29q-199 -50 -199 -208zM328 1284 q0 75 52 124q52 51 125 51q70 0 122 -52q50 -51 50 -123t-51 -123t-123 -51t-123 51q-52 51 -52 123zM377 1284q0 -52 37 -89q37 -36 89 -36t89 37q37 36 37 88q0 54 -37 89q-38 37 -90 37t-89 -38q-36 -36 -36 -88z" />
<glyph unicode="&#xe6;" horiz-adv-x="1726" d="M67 256q0 127 86 205q50 45 133 66q63 16 179 25q220 17 259 34q38 17 48 40q9 20 9 57q0 133 -59 191q-72 70 -228 70q-188 0 -264 -112q-37 -55 -46 -155h-75q12 141 84 221q101 113 301 113q191 0 277 -87q50 -51 68 -168q98 255 374 255q210 0 328 -148 q105 -131 105 -340q0 -14 -1 -44h-791q-1 -139 41 -237q88 -206 316 -206q286 0 347 293h74q-24 -133 -96 -217q-119 -141 -327 -141q-298 0 -391 293q-24 -77 -86 -147q-133 -147 -338 -147q-179 0 -266 108q-61 75 -61 178zM148 258q0 -102 71 -161t189 -59q129 0 230 76 q93 70 125 174q18 60 18 187v81q-25 -23 -51 -33q-38 -14 -160 -23q-202 -14 -270 -38q-152 -53 -152 -204zM853 546h715q-2 147 -65 245q-99 153 -289 153q-122 0 -212 -67q-99 -73 -132 -210q-12 -47 -17 -121z" />
<glyph unicode="&#xe7;" horiz-adv-x="1026" d="M89 486q0 157 61 288q64 136 202 198q89 40 198 40q199 0 319 -135q66 -75 82 -194h-78q-51 260 -324 260q-196 0 -298 -147q-83 -121 -83 -304q0 -185 83 -308q98 -146 286 -146q197 0 291 150q41 64 55 159h76q-20 -169 -130 -269q-113 -103 -278 -103h-16l-65 -83 q44 8 73 8q63 0 103 -32q43 -34 43 -87q0 -71 -57 -113q-53 -39 -144 -39q-73 0 -176 38l21 46q79 -34 148 -34q54 0 89 20q45 26 45 73q0 39 -36 62q-29 18 -72 18q-39 0 -93 -20l-27 25l94 118q-156 24 -247 115q-67 67 -106 174t-39 222z" />
<glyph unicode="&#xe8;" horiz-adv-x="1044" d="M89 483q0 242 130 388q124 140 317 140q153 0 261 -91q124 -103 157 -282q12 -64 11 -159h-796q1 -115 29 -194q38 -110 117 -174q91 -73 222 -73q167 0 266 123q54 67 75 175h77q-19 -104 -64 -176q-119 -189 -354 -189q-215 0 -337 153q-111 141 -111 359zM170 546h716 q-7 147 -65 240q-98 158 -286 158q-132 0 -229 -84q-114 -98 -136 -314zM288 1406h100l232 -269h-71z" />
<glyph unicode="&#xe9;" horiz-adv-x="1044" d="M89 483q0 242 130 388q124 140 317 140q153 0 261 -91q124 -103 157 -282q12 -64 11 -159h-796q1 -115 29 -194q38 -110 117 -174q91 -73 222 -73q167 0 266 123q54 67 75 175h77q-19 -104 -64 -176q-119 -189 -354 -189q-215 0 -337 153q-111 141 -111 359zM170 546h716 q-7 147 -65 240q-98 158 -286 158q-132 0 -229 -84q-114 -98 -136 -314zM443 1137l225 269h97l-253 -269h-69z" />
<glyph unicode="&#xea;" horiz-adv-x="1044" d="M89 483q0 242 130 388q124 140 317 140q153 0 261 -91q124 -103 157 -282q12 -64 11 -159h-796q1 -115 29 -194q38 -110 117 -174q91 -73 222 -73q167 0 266 123q54 67 75 175h77q-19 -104 -64 -176q-119 -189 -354 -189q-215 0 -337 153q-111 141 -111 359zM170 546h716 q-7 147 -65 240q-98 158 -286 158q-132 0 -229 -84q-114 -98 -136 -314zM273 1137l223 269h80l224 -269h-84l-183 219l-184 -219h-76z" />
<glyph unicode="&#xeb;" horiz-adv-x="1044" d="M89 483q0 242 130 388q124 140 317 140q153 0 261 -91q124 -103 157 -282q12 -64 11 -159h-796q1 -115 29 -194q38 -110 117 -174q91 -73 222 -73q167 0 266 123q54 67 75 175h77q-19 -104 -64 -176q-119 -189 -354 -189q-215 0 -337 153q-111 141 -111 359zM170 546h716 q-7 147 -65 240q-98 158 -286 158q-132 0 -229 -84q-114 -98 -136 -314zM328 1171v197h81v-197h-81zM662 1171v197h81v-197h-81z" />
<glyph unicode="&#xec;" horiz-adv-x="393" d="M-45 1406h100l212 -269h-72zM158 0v982h78v-982h-78z" />
<glyph unicode="&#xed;" horiz-adv-x="393" d="M131 1137l205 269h97l-233 -269h-69zM159 0v982h78v-982h-78z" />
<glyph unicode="&#xee;" horiz-adv-x="393" d="M-26 1137l182 269h80l183 -269h-83l-143 219l-143 -219h-76zM159 0v982h78v-982h-78z" />
<glyph unicode="&#xef;" horiz-adv-x="393" d="M44 1171v197h81v-197h-81zM159 0v982h78v-982h-78zM269 1171v197h81v-197h-81z" />
<glyph unicode="&#xf0;" horiz-adv-x="1087" d="M89 491q0 248 138 391q124 129 318 129q84 0 182 -34l-101 178l-174 -73l-25 52l166 74l-94 164l57 28l103 -164l183 79l23 -55l-175 -76l171 -270q81 -129 108 -221q29 -98 29 -208q0 -223 -110 -361q-122 -153 -341 -153q-229 0 -351 162q-107 142 -107 358zM168 492 q0 -206 98 -326q104 -128 281 -128q174 0 275 126q98 122 98 320q0 196 -91 321q-100 139 -289 139q-165 0 -271 -128q-101 -122 -101 -324z" />
<glyph unicode="&#xf1;" horiz-adv-x="1091" d="M159 0v982h78v-213q95 242 359 242q185 0 281 -125q47 -61 57 -134q7 -52 7 -124v-628h-78v608q0 135 -30 199q-33 67 -104 103q-68 34 -148 34q-140 0 -232 -87q-76 -71 -99 -188q-12 -60 -12 -158v-511h-79zM295 1181q7 53 26 90q42 78 114 78q46 0 116 -48 q79 -54 115 -54q31 0 54 38q16 26 22 64h54q-7 -66 -39 -113q-36 -53 -89 -53q-51 0 -120 46q-42 29 -57 39q-29 18 -60 18q-40 0 -64 -46q-13 -23 -16 -59h-56z" />
<glyph unicode="&#xf2;" horiz-adv-x="1087" d="M89 489q0 220 111 361q127 161 353 161q212 0 338 -163q107 -139 107 -363q0 -232 -119 -369q-125 -145 -335 -145q-218 0 -343 155q-112 140 -112 363zM167 491q0 -205 98 -325q105 -128 281 -128q175 0 276 126q98 122 98 320q0 196 -91 321q-101 139 -289 139 q-165 0 -272 -128q-101 -122 -101 -325zM303 1406h100l232 -269h-71z" />
<glyph unicode="&#xf3;" horiz-adv-x="1087" d="M89 489q0 220 111 361q127 161 353 161q212 0 338 -163q107 -139 107 -363q0 -232 -119 -369q-125 -145 -335 -145q-218 0 -343 155q-112 140 -112 363zM167 491q0 -205 98 -325q105 -128 281 -128q175 0 276 126q98 122 98 320q0 196 -91 321q-101 139 -289 139 q-165 0 -272 -128q-101 -122 -101 -325zM464 1137l225 269h97l-253 -269h-69z" />
<glyph unicode="&#xf4;" horiz-adv-x="1087" d="M89 489q0 220 111 361q127 161 353 161q212 0 338 -163q107 -139 107 -363q0 -232 -119 -369q-125 -145 -335 -145q-218 0 -343 155q-112 140 -112 363zM167 491q0 -205 98 -325q105 -128 281 -128q175 0 276 126q98 122 98 320q0 196 -91 321q-101 139 -289 139 q-165 0 -272 -128q-101 -122 -101 -325zM280 1137l223 269h80l224 -269h-84l-183 219l-184 -219h-76z" />
<glyph unicode="&#xf5;" horiz-adv-x="1087" d="M89 489q0 220 111 361q127 161 353 161q212 0 338 -163q107 -139 107 -363q0 -232 -119 -369q-125 -145 -335 -145q-218 0 -343 155q-112 140 -112 363zM167 491q0 -205 98 -325q105 -128 281 -128q175 0 276 126q98 122 98 320q0 196 -91 321q-101 139 -289 139 q-165 0 -272 -128q-101 -122 -101 -325zM307 1181q7 53 26 90q42 78 114 78q46 0 116 -48q79 -54 115 -54q31 0 54 38q16 26 22 64h54q-7 -66 -39 -113q-36 -53 -89 -53q-51 0 -120 46q-42 29 -57 39q-29 18 -60 18q-40 0 -64 -46q-13 -23 -16 -59h-56z" />
<glyph unicode="&#xf6;" horiz-adv-x="1087" d="M89 489q0 220 111 361q127 161 353 161q212 0 338 -163q107 -139 107 -363q0 -232 -119 -369q-125 -145 -335 -145q-218 0 -343 155q-112 140 -112 363zM167 491q0 -205 98 -325q105 -128 281 -128q175 0 276 126q98 122 98 320q0 196 -91 321q-101 139 -289 139 q-165 0 -272 -128q-101 -122 -101 -325zM336 1171v197h81v-197h-81zM670 1171v197h81v-197h-81z" />
<glyph unicode="&#xf7;" d="M111 626v66h926v-66h-926zM503 369q0 31 24 53q21 19 50 19q30 0 52 -24q19 -21 19 -48q0 -33 -24 -54q-21 -19 -49 -19q-32 0 -53 24q-19 20 -19 49zM504 948q0 31 24 53q20 18 49 18q30 0 52 -24q18 -20 18 -47q0 -32 -24 -54q-20 -18 -48 -18q-31 0 -53 24 q-18 20 -18 48z" />
<glyph unicode="&#xf8;" horiz-adv-x="1087" d="M76 36l112 118q-99 139 -99 339q0 231 124 373q127 145 331 145q193 0 325 -138l99 103l36 -37l-102 -108q97 -137 97 -338q0 -236 -114 -372q-124 -150 -335 -150q-203 0 -332 141l-106 -111zM167 488q0 -156 73 -281l579 613q-41 42 -76 66q-84 58 -198 58 q-189 0 -294 -147q-84 -119 -84 -309zM270 163q27 -40 70 -68q90 -57 210 -57q191 0 294 150q77 112 77 295q0 172 -72 294z" />
<glyph unicode="&#xf9;" horiz-adv-x="1082" d="M152 350v632h78v-586q0 -149 32 -218q29 -64 92 -100q72 -42 160 -42q164 0 258 132q76 108 76 281v533h78v-982h-75v208q-108 -237 -352 -237q-186 0 -281 126q-66 87 -66 253zM300 1406h100l232 -269h-71z" />
<glyph unicode="&#xfa;" horiz-adv-x="1082" d="M152 350v632h78v-586q0 -149 32 -218q29 -64 92 -100q72 -42 160 -42q164 0 258 132q76 108 76 281v533h78v-982h-75v208q-108 -237 -352 -237q-186 0 -281 126q-66 87 -66 253zM462 1137l225 269h97l-253 -269h-69z" />
<glyph unicode="&#xfb;" horiz-adv-x="1082" d="M152 350v632h78v-586q0 -149 32 -218q29 -64 92 -100q72 -42 160 -42q164 0 258 132q76 108 76 281v533h78v-982h-75v208q-108 -237 -352 -237q-186 0 -281 126q-66 87 -66 253zM278 1137l223 269h80l224 -269h-84l-183 219l-184 -219h-76z" />
<glyph unicode="&#xfc;" horiz-adv-x="1082" d="M152 350v632h78v-586q0 -149 32 -218q29 -64 92 -100q72 -42 160 -42q164 0 258 132q76 108 76 281v533h78v-982h-75v208q-108 -237 -352 -237q-186 0 -281 126q-66 87 -66 253zM334 1171v197h81v-197h-81zM668 1171v197h81v-197h-81z" />
<glyph unicode="&#xfd;" horiz-adv-x="894" d="M10 982h88l324 -770q9 -23 44 -122q28 88 45 133l292 759h81l-422 -1083q-62 -159 -109 -201q-63 -56 -155 -51l-52 3h-28v70q38 -5 64 -5q63 0 101 24q47 28 77 104q33 83 38 92q28 46 28 67q0 2 -2 6zM382 1137l225 269h97l-253 -269h-69z" />
<glyph unicode="&#xfe;" horiz-adv-x="1127" d="M159 -354v1719h79v-615q96 261 364 261q209 0 326 -153q111 -144 111 -371q0 -212 -103 -353q-119 -163 -332 -163q-187 0 -294 122q-48 55 -72 132v-579h-79zM235 485q0 -198 86 -312q102 -135 278 -135q184 0 284 153q78 118 78 295q0 200 -89 323q-98 135 -282 135 q-177 0 -274 -141q-81 -118 -81 -318z" />
<glyph unicode="&#xff;" horiz-adv-x="894" d="M10 982h88l324 -770q9 -23 44 -122q28 88 45 133l292 759h81l-422 -1083q-62 -159 -109 -201q-63 -56 -155 -51l-52 3h-28v70q38 -5 64 -5q63 0 101 24q47 28 77 104q33 83 38 92q28 46 28 67q0 2 -2 6zM240 1171v197h81v-197h-81zM574 1171v197h81v-197h-81z" />
<glyph unicode="&#x152;" horiz-adv-x="2118" d="M98 676q0 317 175 511q189 209 476 209q163 0 294 -76q60 -35 99 -76v121h891v-72h-810v-546h728v-72h-728v-603h814v-72h-895v137q-48 -53 -123 -96q-126 -72 -283 -72q-300 0 -490 237q-148 186 -148 470zM181 676q0 -284 155 -455q163 -180 405 -180q191 0 323 109 q76 63 76 103v869q0 44 -101 116q-124 86 -285 86q-271 0 -439 -209q-134 -167 -134 -439z" />
<glyph unicode="&#x153;" horiz-adv-x="1758" d="M89 485q0 241 117 385q115 141 309 141q188 0 291 -127q48 -58 80 -166q37 118 96 181q106 112 281 112q149 0 255 -84q163 -130 162 -448h-759v-32q0 -183 85 -289q96 -120 256 -120q257 0 335 286h74q-43 -175 -148 -264t-268 -89q-298 0 -372 295q-81 -295 -370 -295 q-214 0 -332 169q-92 131 -92 345zM167 482q0 -199 87 -319q92 -125 262 -125q180 0 265 146q70 120 70 307q0 208 -81 326q-86 127 -262 127q-164 0 -255 -131q-86 -126 -86 -331zM919 546h683q-9 169 -63 251q-96 147 -279 147q-119 0 -206 -68q-124 -99 -135 -330z" />
<glyph unicode="&#x178;" horiz-adv-x="1173" d="M-5 1365h99l434 -629q34 -51 61 -95q39 65 58 91l439 633h94l-552 -795v-570h-83v570zM348 1513v192h83v-192h-83zM744 1513v192h83v-192h-83z" />
<glyph unicode="&#x2c6;" horiz-adv-x="1024" d="M249 1137l223 269h80l224 -269h-84l-183 219l-184 -219h-76z" />
<glyph unicode="&#x2dc;" horiz-adv-x="1024" d="M261 1181q7 53 26 90q42 78 114 78q46 0 116 -48q79 -54 115 -54q31 0 54 38q16 26 22 64h54q-7 -66 -39 -113q-36 -53 -89 -53q-51 0 -120 46q-42 29 -57 39q-29 18 -60 18q-40 0 -64 -46q-13 -23 -16 -59h-56z" />
<glyph unicode="&#x2000;" horiz-adv-x="917" />
<glyph unicode="&#x2001;" horiz-adv-x="1835" />
<glyph unicode="&#x2002;" horiz-adv-x="917" />
<glyph unicode="&#x2003;" horiz-adv-x="1835" />
<glyph unicode="&#x2004;" horiz-adv-x="611" />
<glyph unicode="&#x2005;" horiz-adv-x="458" />
<glyph unicode="&#x2006;" horiz-adv-x="305" />
<glyph unicode="&#x2007;" horiz-adv-x="305" />
<glyph unicode="&#x2008;" horiz-adv-x="229" />
<glyph unicode="&#x2009;" horiz-adv-x="367" />
<glyph unicode="&#x200a;" horiz-adv-x="101" />
<glyph unicode="&#x2010;" horiz-adv-x="437" d="M0 471v70h437v-70h-437z" />
<glyph unicode="&#x2011;" horiz-adv-x="437" d="M0 471v70h437v-70h-437z" />
<glyph unicode="&#x2012;" horiz-adv-x="437" d="M0 471v70h437v-70h-437z" />
<glyph unicode="&#x2013;" d="M143 471v70h860v-70h-860z" />
<glyph unicode="&#x2014;" horiz-adv-x="1311" d="M0 487v70h1311v-70h-1311z" />
<glyph unicode="&#x2018;" horiz-adv-x="410" d="M159 945v162q-2 226 124 279v-66q-66 -41 -65 -180h37v-195h-96z" />
<glyph unicode="&#x2019;" horiz-adv-x="410" d="M128 924v65q67 39 66 181h-37v195h96v-162q2 -228 -125 -279z" />
<glyph unicode="&#x201a;" horiz-adv-x="410" d="M128 -181q67 39 66 181h-37v195h96v-162q2 -228 -125 -279v65z" />
<glyph unicode="&#x201c;" horiz-adv-x="647" d="M159 945v162q-2 226 124 279v-66q-66 -41 -65 -180h37v-195h-96zM396 945v162q-2 227 125 279v-66q-67 -39 -66 -180h37v-195h-96z" />
<glyph unicode="&#x201d;" horiz-adv-x="647" d="M128 924v65q67 39 66 181h-37v195h96v-162q2 -228 -125 -279zM366 924v65q66 41 65 181h-37v195h96v-162q2 -226 -124 -279z" />
<glyph unicode="&#x201e;" horiz-adv-x="647" d="M128 -181q67 39 66 181h-37v195h96v-162q2 -228 -125 -279v65zM366 -181q66 41 65 181h-37v195h96v-162q2 -226 -124 -279v65z" />
<glyph unicode="&#x2022;" horiz-adv-x="1365" d="M401 694q0 120 84 202q86 82 204 82q113 0 196 -83q84 -83 84 -201t-83 -201t-201 -83q-116 0 -199 82q-85 84 -85 202z" />
<glyph unicode="&#x2026;" horiz-adv-x="1229" d="M157 0v195h96v-195h-96zM567 0v195h96v-195h-96zM976 0v195h96v-195h-96z" />
<glyph unicode="&#x202f;" horiz-adv-x="367" />
<glyph unicode="&#x2039;" horiz-adv-x="460" d="M105 465v74l223 253v-89l-170 -201l170 -193v-91z" />
<glyph unicode="&#x203a;" horiz-adv-x="460" d="M132 218v89l170 201l-170 194v90l223 -246v-74z" />
<glyph unicode="&#x205f;" horiz-adv-x="458" />
<glyph unicode="&#x2122;" horiz-adv-x="1642" d="M20 1309v56h626v-56h-281v-722h-64v722h-281zM719 587v778h81l278 -621q2 -4 13 -32q8 -19 19 -46q23 58 31 77l276 622h81v-778h-64v578q0 23 2 98q-13 -34 -16 -41l-281 -635h-58l-282 627q-7 16 -19 47q3 -50 3 -95v-579h-64z" />
<glyph unicode="&#xe000;" horiz-adv-x="980" d="M0 0v980h980v-980h-980z" />
</font>
</defs>
</svg>
