<?xml version="1.0" standalone="no"?>
<!DOCTYPE svg PUBLIC "-//W3C//DTD SVG 1.1//EN" "http://www.w3.org/Graphics/SVG/1.1/DTD/svg11.dtd" >
<svg xmlns="http://www.w3.org/2000/svg">
<metadata></metadata>
<defs>
<font id="helveticaneuelt_std_cnregular" horiz-adv-x="909" >
<font-face units-per-em="2048" ascent="1462" descent="-586" />
<missing-glyph horiz-adv-x="491" />
<glyph unicode="&#xfb01;" horiz-adv-x="948" d="M4 963v135h160v129q0 127 57 189.5t180 62.5h125v-148h-80q-57 0 -83.5 -24t-26.5 -80v-129h188v-135h-188v-963h-172v963h-160zM653 0v1098h172v-1098h-172zM653 1266v196h172v-196h-172z" />
<glyph unicode="&#xfb02;" horiz-adv-x="948" d="M4 963v135h160v129q0 127 57 189.5t180 62.5h125v-148h-80q-57 0 -83.5 -24t-26.5 -80v-129h188v-135h-188v-963h-172v963h-160zM653 0v1462h172v-1462h-172z" />
<glyph horiz-adv-x="2048" />
<glyph horiz-adv-x="2048" />
<glyph unicode="&#xd;" horiz-adv-x="2048" />
<glyph unicode=" "  horiz-adv-x="491" />
<glyph unicode="&#x09;" horiz-adv-x="491" />
<glyph unicode="&#xa0;" horiz-adv-x="491" />
<glyph unicode="!" horiz-adv-x="528" d="M170 0v197h188v-197h-188zM170 1462h188l-32 -1081h-123z" />
<glyph unicode="&#x22;" horiz-adv-x="833" d="M178 942v520h135v-520h-135zM520 942v520h135v-520h-135z" />
<glyph unicode="#" horiz-adv-x="983" d="M47 420v135h184l39 315h-178v136h197l51 415h135l-51 -415h217l51 415h135l-51 -415h160v-136h-178l-39 -315h170v-135h-187l-53 -420h-135l53 420h-217l-53 -420h-135l53 420h-168zM367 555h217l39 315h-217z" />
<glyph unicode="$" horiz-adv-x="983" d="M43 446h180q0 -39 1 -65t5.5 -61.5t13 -59.5t25 -50.5t39.5 -43.5t58 -30t79 -17v536q-151 48 -215 86q-149 89 -166 266q-2 24 -2 50q0 45 7.5 89t32.5 98.5t65 96t112 72.5t166 37v119h86v-119q185 -9 275.5 -108t93.5 -289h-180q0 231 -189 250v-502q14 -5 43 -14 q71 -23 108 -37t95.5 -47t87.5 -69.5t52.5 -98t23.5 -140.5q0 -110 -35.5 -193t-96.5 -130.5t-130 -71.5t-148 -29v-192h-86v192q-114 4 -192.5 37t-124 96t-65 145.5t-19.5 196.5zM250 1075q0 -97 50.5 -153.5t143.5 -92.5v474q-94 -12 -144 -70.5t-50 -157.5zM530 119 q97 8 159.5 76t62.5 172q0 55 -16.5 98t-49 73t-69 50t-87.5 39v-508z" />
<glyph unicode="%" horiz-adv-x="1554" d="M94 1057q0 49 2 86.5t8.5 80.5t18 74t31.5 61.5t48 49t68.5 30t91.5 11.5q71 0 121.5 -22t78.5 -56t44 -89t20.5 -105t4.5 -121t-4.5 -121t-20.5 -105t-44 -89t-78.5 -56t-121.5 -22q-51 0 -91.5 11.5t-68.5 30t-48 49t-31.5 61.5t-18 74t-8.5 80.5t-2 86.5zM242 1057 q0 -50 1 -80t4.5 -67t11.5 -58t21 -41t33.5 -28.5t48.5 -8.5t48.5 8.5t34 28t21.5 41t11.5 58t4.5 67.5t1 80t-1 80t-4.5 67.5t-11.5 57.5t-21.5 40.5t-34 28t-48.5 8.5t-48.5 -8.5t-33.5 -28t-21 -40.5t-11.5 -58t-4.5 -67t-1 -80zM381 -29l635 1479h143l-635 -1479h-143z M924 365q0 49 2 86.5t8.5 80.5t18 74t31.5 61.5t48 49t68.5 30t91.5 11.5t91.5 -11.5t68.5 -30t48 -49t31.5 -61.5t18 -74t8.5 -80.5t2 -86.5q0 -71 -4 -121t-20 -105.5t-44 -89t-78.5 -56t-121.5 -22.5t-121.5 22.5t-78.5 56t-44 89t-20 105.5t-4 121zM1071 365 q0 -49 1 -80t4.5 -67.5t11.5 -58t21.5 -41t34 -28t48.5 -8.5t48.5 8.5t34 28t21.5 41t11.5 58t4.5 67.5t1 80t-1 80t-4.5 67.5t-11.5 57.5t-21.5 40.5t-34 28t-48.5 8.5t-48.5 -8.5t-34 -28t-21.5 -40.5t-11.5 -57.5t-4.5 -67.5t-1 -80z" />
<glyph unicode="&#x26;" horiz-adv-x="1138" d="M51 377q0 111 53.5 209.5t145.5 169.5l106 80l-45 73q-35 54 -53 85.5t-35.5 82.5t-17.5 99q0 126 88 206t215 80q145 0 227 -67.5t82 -210.5q0 -51 -16 -97t-48.5 -87t-61.5 -69t-75 -67l-53 -45l289 -413q44 111 57 284h160q0 -83 -39.5 -228.5t-79.5 -197.5l189 -264 h-195l-98 137q-93 -87 -171.5 -126.5t-189.5 -39.5q-101 0 -181 30t-126 74.5t-76 102t-40.5 106t-10.5 93.5zM231 391q0 -128 78 -200t191 -72q80 0 141.5 36.5t120.5 104.5l-322 465q-95 -57 -152 -141t-57 -193zM365 1184q0 -74 88 -207l34 -49l39 37q36 35 50 49.5 t38 45t33.5 60t9.5 64.5q0 63 -41 103t-106 40q-66 0 -105.5 -39.5t-39.5 -103.5z" />
<glyph unicode="'" horiz-adv-x="491" d="M178 942v520h135v-520h-135z" />
<glyph unicode="(" horiz-adv-x="493" d="M88 543q0 246 77 483.5t222 435.5h98q-225 -369 -225 -919q0 -486 225 -920h-98q-144 197 -221.5 436.5t-77.5 483.5z" />
<glyph unicode=")" horiz-adv-x="493" d="M8 -377q225 369 225 920q0 485 -225 919h98q144 -198 222 -436.5t78 -482.5q0 -246 -77 -483.5t-223 -436.5h-98z" />
<glyph unicode="*" horiz-adv-x="720" d="M35 1184l45 119l219 -84v243h123v-243l219 84l45 -119l-231 -70l155 -192l-102 -76l-148 209l-147 -209l-102 76l155 192z" />
<glyph unicode="+" horiz-adv-x="1228" d="M96 451v135h451v450h135v-450h451v-135h-451v-451h-135v451h-451z" />
<glyph unicode="," horiz-adv-x="491" d="M152 0v217h188v-178q0 -46 -2 -77t-7.5 -69.5t-18.5 -66t-33 -54t-52 -45.5t-75 -30v96q53 26 71.5 60.5t18.5 97.5v49h-90z" />
<glyph unicode="-" horiz-adv-x="720" d="M111 502v160h499v-160h-499z" />
<glyph unicode="." horiz-adv-x="491" d="M152 0v217h188v-217h-188z" />
<glyph unicode="/" horiz-adv-x="569" d="M-20 -29l475 1520h135l-475 -1520h-135z" />
<glyph unicode="0" horiz-adv-x="983" d="M78 705q0 82 2 143t11.5 143t26 142t47.5 123t73.5 103t107.5 65.5t146 25.5q64 0 117 -14.5t92.5 -38t71 -62t52.5 -78.5t36.5 -95.5t23.5 -104.5t13 -115t6 -117t1 -120q0 -60 -1 -106.5t-6 -109.5t-13 -111.5t-23.5 -104.5t-36.5 -97.5t-52.5 -82t-70.5 -66t-92.5 -41 t-117.5 -15.5t-117 14.5t-93 38t-71 62t-52.5 78t-36.5 94.5t-23.5 103.5t-13 113t-6 114.5t-1.5 116zM258 705q0 -77 1.5 -130.5t6.5 -121t14.5 -113.5t27 -93.5t41.5 -76t60.5 -46.5t82.5 -18t82.5 18t60.5 46.5t41.5 76.5t26.5 93.5t14.5 113.5t6.5 121t1 130 q0 81 -1 135.5t-6.5 124t-14.5 115.5t-26.5 94.5t-41.5 76.5t-60.5 46t-82.5 18q-41 0 -73.5 -12.5t-56 -38.5t-41.5 -57t-29 -78t-18 -90t-10.5 -104.5t-4.5 -111t-1 -118.5z" />
<glyph unicode="1" horiz-adv-x="983" d="M137 1090v122q53 3 90 7t81.5 13.5t74 25.5t56.5 41t41 63t16 88h122v-1450h-172v1090h-309z" />
<glyph unicode="2" horiz-adv-x="983" d="M86 0q0 97 25 185.5t71.5 162t98 131.5t118.5 115l119 100q66 56 104 100t63.5 107.5t25.5 140.5q0 49 -11.5 93.5t-35 83t-66 61.5t-98.5 23q-53 0 -94 -17t-65 -47t-39.5 -61t-21.5 -72t-8 -64.5t-2 -52.5h-180q0 217 99.5 339t312.5 122q96 0 169 -28.5t113.5 -70.5 t66 -97.5t33 -100.5t7.5 -90q0 -107 -31.5 -192.5t-82.5 -147t-140 -137.5l-205 -178q-129 -110 -158 -248h623v-160h-811z" />
<glyph unicode="3" horiz-adv-x="983" d="M80 375v18h180q0 -52 13.5 -101t40 -92t72.5 -68.5t106 -25.5q44 0 81.5 13t73 44t56 93t20.5 150q0 131 -65 203.5t-197 72.5h-92v135h90q110 0 165.5 70.5t55.5 185.5q0 109 -45 175.5t-143 66.5q-209 0 -209 -283h-181q0 194 95.5 306t289.5 112q87 0 154.5 -24 t108 -61.5t66 -89t35 -100.5t9.5 -102q0 -114 -57.5 -199t-167.5 -112v-4q268 -54 268 -338q0 -206 -104 -327.5t-307 -121.5q-80 0 -145 19.5t-107 49t-73.5 71t-47.5 79t-25.5 78.5t-11.5 64.5t-2 42.5z" />
<glyph unicode="4" horiz-adv-x="983" d="M61 350v162l525 938h172v-952h164v-148h-164v-350h-172v350h-525zM217 498h369v669h-4z" />
<glyph unicode="5" horiz-adv-x="983" d="M82 373h180q0 -28 4 -57.5t18.5 -69t37 -69t64.5 -50.5t97 -21q49 0 88.5 17.5t64.5 48t42.5 67t26.5 81.5t12.5 83.5t3.5 79.5q0 64 -12.5 119.5t-39.5 104t-76 76.5t-114 28q-83 0 -144 -53t-61 -88l-155 8l80 743h647v-159h-510l-57 -420l4 -4q43 53 110.5 80.5 t143.5 27.5q166 0 265 -126t99 -351q0 -105 -24 -192.5t-73 -157t-132 -109t-193 -39.5q-71 0 -130 16.5t-99 42.5t-71.5 62.5t-49 73t-29 77t-15 71.5t-3.5 59z" />
<glyph unicode="6" horiz-adv-x="983" d="M72 659q0 66 1 115.5t6 118t13.5 120t24.5 112.5t38.5 105t56 88t75.5 71t99.5 44t125.5 17q95 0 167 -30.5t108.5 -71.5t59 -95t27.5 -88t5 -63h-181q0 94 -50 153.5t-140 59.5q-50 0 -90.5 -20.5t-66.5 -52t-45.5 -75.5t-29 -84t-15.5 -85t-7.5 -70.5t-1.5 -48.5v-115 h4q13 24 34 48.5t54 52t82.5 44.5t105.5 17q184 0 281.5 -124.5t97.5 -334.5q0 -143 -45 -253.5t-139 -176.5t-225 -66q-83 0 -149.5 23t-111 59.5t-77 94t-50 113.5t-27.5 131t-12.5 133t-2.5 134zM272 442q0 -62 11 -117.5t36 -106.5t72 -81.5t111 -30.5t111 30.5 t71.5 81.5t35.5 106.5t11 117.5q0 336 -229 336q-230 0 -230 -336z" />
<glyph unicode="7" horiz-adv-x="983" d="M78 1262v159h827v-149q-168 -219 -284 -498q-165 -400 -199 -774h-201q42 338 176 659q132 326 344 603h-663z" />
<glyph unicode="8" horiz-adv-x="983" d="M76 399q0 147 63 238.5t193 134.5q-109 44 -160 118.5t-51 190.5q0 174 99 271.5t272 97.5t271.5 -97.5t98.5 -271.5q0 -116 -51 -190.5t-160 -118.5q130 -43 193 -134.5t63 -238.5q0 -61 -11.5 -118t-41 -114.5t-75 -100t-119.5 -69t-168 -26.5t-168 26.5t-119.5 69 t-75.5 100t-41.5 114.5t-11.5 118zM256 406q0 -136 58 -218t178 -82t177.5 82t57.5 218t-57.5 217.5t-177.5 81.5t-178 -81.5t-58 -217.5zM301 1077q0 -107 47.5 -172t143.5 -65q94 0 142 65t48 172q0 108 -48 173t-142 65q-96 0 -143.5 -65t-47.5 -173z" />
<glyph unicode="9" horiz-adv-x="983" d="M72 954q0 143 45 253.5t139 176.5t225 66q65 0 120 -14t96 -38t73.5 -60.5t54.5 -75.5t38.5 -90.5t25.5 -98t14 -105t6.5 -104t1.5 -102.5q0 -66 -1 -115.5t-6 -118t-13.5 -120t-24.5 -112.5t-38.5 -105t-56 -88t-75.5 -71t-99.5 -44t-125.5 -17q-95 0 -167 30.5 t-108.5 71.5t-59 95t-27.5 88t-5 63h181q0 -93 50.5 -153t139.5 -60q57 0 102.5 26.5t72 71.5t44 92t25 101.5t10 86.5t2.5 59v114h-4q-13 -24 -34 -48t-54 -51.5t-82.5 -44.5t-105.5 -17q-184 0 -281.5 124t-97.5 334zM252 979q0 -336 229 -336q230 0 230 336 q0 63 -11 118.5t-36 106.5t-72 81t-111 30t-111 -30t-71.5 -81t-35.5 -106.5t-11 -118.5z" />
<glyph unicode=":" horiz-adv-x="491" d="M152 0v217h188v-217h-188zM152 819v217h188v-217h-188z" />
<glyph unicode=";" horiz-adv-x="491" d="M152 0v217h188v-178q0 -46 -2 -77t-7.5 -69.5t-18.5 -66t-33 -54t-52 -45.5t-75 -30v96q53 26 71.5 60.5t18.5 97.5v49h-90zM152 819v217h188v-217h-188z" />
<glyph unicode="&#x3c;" horiz-adv-x="1228" d="M96 457v123l1037 473v-135l-877 -400l877 -399v-135z" />
<glyph unicode="=" horiz-adv-x="1228" d="M96 242v135h1037v-135h-1037zM96 659v136h1037v-136h-1037z" />
<glyph unicode="&#x3e;" horiz-adv-x="1228" d="M96 -16v135l877 399l-877 400v135l1037 -473v-123z" />
<glyph unicode="?" d="M72 1032q0 93 23 172.5t68 141.5t119.5 97.5t170.5 35.5q180 0 282.5 -108t102.5 -277q0 -164 -103 -289q-10 -12 -80.5 -90t-79.5 -90q-65 -84 -65 -205v-39h-160q0 56 1.5 88t10.5 81t27 83q21 39 60.5 89t85.5 102t61 71q35 45 48 91.5t13 117.5q0 97 -51.5 162 t-146.5 65q-215 0 -215 -299h-172zM338 0v197h188v-197h-188z" />
<glyph unicode="@" horiz-adv-x="1638" d="M59 731q0 155 60 295.5t162 242.5t242.5 162t295.5 60q218 0 392 -81t271 -225.5t97 -326.5q0 -128 -48.5 -239t-125 -183.5t-169.5 -113.5t-185 -41q-130 0 -144 120h-4q-55 -58 -114 -89t-142 -31q-117 0 -204 87.5t-87 219.5q0 143 58.5 274t170.5 217t251 86 q175 0 233 -168h4l45 129h115l-172 -577q-19 -66 -19 -92q0 -23 16 -38.5t44 -15.5q90 0 170 64t126 167.5t46 215.5q0 151 -83 270t-225.5 183.5t-316.5 64.5q-173 0 -316.5 -84t-225.5 -230.5t-82 -322.5q0 -135 48.5 -253.5t131.5 -202.5t198.5 -132.5t245.5 -48.5 q386 0 555 228h129q-99 -170 -274 -260.5t-410 -90.5q-155 0 -295.5 60t-242.5 162t-162 242.5t-60 295.5zM492 600q0 -86 54.5 -141.5t137.5 -55.5q68 0 129.5 46t101 113.5t63 141.5t23.5 134q0 76 -46 140t-119 64q-95 0 -176 -71.5t-124.5 -172.5t-43.5 -198z" />
<glyph unicode="A" horiz-adv-x="1024" d="M-16 0l422 1462h241l393 -1462h-188l-104 401h-467l-109 -401h-188zM317 549h394l-187 706h-4z" />
<glyph unicode="B" horiz-adv-x="1062" d="M119 0v1462h448q60 0 112.5 -11.5t101.5 -39t84 -69t56 -107t21 -148.5q0 -103 -58 -190t-155 -115v-4q131 -31 195.5 -125.5t64.5 -234.5q0 -218 -119 -318t-354 -100h-397zM299 147h246q69 0 120 22t80 61t42.5 86t13.5 102q0 142 -79.5 210t-207.5 68h-215v-549z M299 831h207q29 0 55.5 3.5t64 18t64 39t45.5 72t19 111.5q0 240 -252 240h-203v-484z" />
<glyph unicode="C" horiz-adv-x="1062" d="M98 731q0 85 5 158.5t18 153t35 143t58.5 122t84.5 98t117 62.5t153 23q218 0 322 -116t110 -339h-188q-7 307 -244 307q-61 0 -107.5 -21t-77 -63.5t-50.5 -94t-30 -125.5t-13.5 -144.5t-3.5 -163.5t3.5 -163.5t13.5 -144.5t30 -125.5t50.5 -94t77 -63.5t107.5 -21 q46 0 83 12t62.5 32t45 51t31 62.5t19 72.5t11 75.5t4.5 77.5h189q-5 -87 -21.5 -161.5t-50.5 -144t-83 -118.5t-123 -78t-167 -29q-87 0 -157 23.5t-118.5 62t-84.5 98t-57 122t-33.5 143t-16.5 152.5t-4 159z" />
<glyph unicode="D" horiz-adv-x="1138" d="M137 0v1462h391q96 0 171.5 -20t129 -53.5t92 -87.5t61.5 -112t36 -137.5t17.5 -152.5t4.5 -168q0 -731 -493 -731h-410zM317 147h189q65 0 117 19t87.5 50t62 78t41.5 95.5t24 110.5t11.5 114t2.5 115q0 72 -2 122.5t-9.5 116.5t-21.5 111.5t-39.5 93t-61.5 76.5 t-90 47.5t-122 18.5h-189v-1168z" />
<glyph unicode="E" horiz-adv-x="948" d="M119 0v1462h755v-159h-575v-459h543v-160h-543v-524h600v-160h-780z" />
<glyph unicode="F" d="M119 0v1462h755v-159h-575v-459h543v-160h-543v-684h-180z" />
<glyph unicode="G" horiz-adv-x="1099" d="M98 731q0 85 5 158.5t18 153t35 143t58.5 122t84.5 98t117 62.5t153 23q86 0 155.5 -21t113.5 -51t76.5 -75.5t48 -82.5t25 -85.5t11 -70t2.5 -48.5h-188q-15 286 -244 286q-61 0 -107.5 -21t-77 -63.5t-50.5 -94t-30 -125.5t-13.5 -144.5t-3.5 -163.5t3.5 -163.5 t13.5 -144.5t30 -125.5t50.5 -94t77 -63.5t107.5 -21q52 0 93.5 17.5t69 45.5t48 70.5t31.5 83t17.5 94t8 93.5t1.5 89h-289v148h452v-760h-135v199h-4q-31 -98 -115.5 -163t-199.5 -65q-80 0 -145 22t-111 59.5t-80.5 94.5t-56 119.5t-34 142.5t-17.5 156t-5 166z" />
<glyph unicode="H" horiz-adv-x="1099" d="M119 0v1462h180v-598h502v598h180v-1462h-180v705h-502v-705h-180z" />
<glyph unicode="I" horiz-adv-x="417" d="M119 0v1462h180v-1462h-180z" />
<glyph unicode="J" horiz-adv-x="872" d="M45 305v121h172v-107q0 -200 168 -200q49 0 82.5 13.5t54.5 36t32 63t15 84.5t4 110v1036h181v-1042q0 -105 -15.5 -181t-54.5 -139.5t-113 -96t-184 -32.5q-88 0 -155.5 27t-107.5 74.5t-59.5 106t-19.5 126.5z" />
<glyph unicode="K" horiz-adv-x="1024" d="M119 0v1462h180v-708h4l506 708h201l-443 -610l480 -852h-201l-395 705l-152 -207v-498h-180z" />
<glyph unicode="L" d="M119 0v1462h180v-1302h594v-160h-774z" />
<glyph unicode="M" horiz-adv-x="1441" d="M123 0v1462h303l293 -1159h4l293 1159h303v-1462h-180v1278h-4l-324 -1278h-180l-324 1278h-4v-1278h-180z" />
<glyph unicode="N" horiz-adv-x="1138" d="M119 0v1462h233l484 -1220h4v1220h180v-1462h-248l-469 1184h-4v-1184h-180z" />
<glyph unicode="O" horiz-adv-x="1138" d="M98 731q0 85 5 158.5t18 153t35 143t58.5 122t84.5 98t117 62.5t153 23t153 -23t117 -62.5t84.5 -98t58.5 -122t35 -143t18 -153t5 -158.5t-5 -158.5t-18 -153t-35 -143t-58.5 -122t-84.5 -98t-117 -62.5t-153 -23t-153 23t-117 62.5t-84.5 98t-58.5 122t-35 143t-18 153 t-5 158.5zM287 731q0 -93 3.5 -163.5t13.5 -144.5t30 -125.5t50.5 -94t77 -63.5t107.5 -21t107.5 21t77 63.5t50.5 94t30.5 125.5t14 144.5t3.5 163.5t-3.5 163.5t-14 144.5t-30.5 125.5t-50.5 94t-77 63.5t-107.5 21t-107.5 -21t-77 -63.5t-50.5 -94t-30 -125.5 t-13.5 -144.5t-3.5 -163.5z" />
<glyph unicode="P" horiz-adv-x="985" d="M119 0v1462h373q31 0 49.5 -0.5t58 -4.5t66.5 -10.5t66 -21.5t66 -35t56.5 -52.5t47.5 -73t30 -97.5t12 -125q0 -200 -116 -312t-306 -112h-223v-618h-180zM299 766h215q105 0 173.5 73t68.5 212q0 125 -62.5 194.5t-191.5 69.5h-203v-549z" />
<glyph unicode="Q" horiz-adv-x="1138" d="M98 731q0 85 5 158.5t18 153t35 143t58.5 122t84.5 98t117 62.5t153 23t153 -23t117 -62.5t84.5 -98t58.5 -122t35 -143t18 -153t5 -158.5q0 -396 -118 -577l147 -136l-100 -106l-148 133q-99 -74 -252 -74q-84 0 -153 23t-117 62.5t-84.5 98t-58.5 122t-35 143t-18 153 t-5 158.5zM287 731q0 -93 3.5 -163.5t13.5 -144.5t30 -125.5t50.5 -94t77 -63.5t107.5 -21q80 0 133 35l-141 127l101 110l135 -123q55 136 55 463q0 93 -3.5 163.5t-14 144.5t-30.5 125.5t-50.5 94t-77 63.5t-107.5 21t-107.5 -21t-77 -63.5t-50.5 -94t-30 -125.5 t-13.5 -144.5t-3.5 -163.5z" />
<glyph unicode="R" horiz-adv-x="1062" d="M119 0v1462h473q173 0 274 -97t101 -269q0 -135 -54 -237.5t-172 -131.5v-4q92 -10 146.5 -78t60.5 -166l13 -250q6 -113 23.5 -160t53.5 -69h-217q-39 39 -49 211l-12 227q-5 71 -25.5 117t-55.5 65.5t-64 25t-72 5.5h-244v-651h-180zM299 799h178h1q32 0 51 0.5t54.5 6 t58 15.5t51 30.5t45 50t28.5 75.5t12 104q0 108 -69.5 171t-194.5 63h-215v-516z" />
<glyph unicode="S" horiz-adv-x="1024" d="M63 459h181q0 -43 1 -71t7 -67.5t16.5 -65t31 -53.5t49 -44.5t71.5 -27.5t98 -11q109 0 181.5 71.5t72.5 186.5q0 66 -23.5 115.5t-63.5 79.5t-92 53t-109 42t-114 39t-109 50.5t-92 71.5t-63.5 107t-23.5 152q0 32 4 65t16 74t31.5 77t52.5 71.5t76.5 60.5t107 40.5 t140.5 15.5q207 0 307 -102t103 -306h-181q0 124 -52.5 192t-174.5 68q-115 0 -178.5 -60.5t-63.5 -176.5q0 -66 23.5 -114.5t63.5 -78.5t92 -52.5t109.5 -40.5t114.5 -37.5t109 -49t92 -70.5t63.5 -106t23.5 -151q0 -98 -28 -175t-72.5 -124.5t-105.5 -79t-122 -44 t-127 -12.5q-126 0 -213 31.5t-137 96.5t-71.5 152t-21.5 208z" />
<glyph unicode="T" horiz-adv-x="948" d="M16 1303v159h916v-159h-369v-1303h-180v1303h-367z" />
<glyph unicode="U" horiz-adv-x="1062" d="M102 434v1028h181v-1028q0 -164 57.5 -239.5t189.5 -75.5q139 0 194.5 76.5t55.5 238.5v1028h181v-1028q0 -216 -110 -339.5t-321 -123.5q-428 0 -428 463z" />
<glyph unicode="V" horiz-adv-x="946" d="M-4 1462h188l287 -1255h4l287 1255h188l-368 -1462h-230z" />
<glyph unicode="W" horiz-adv-x="1478" d="M16 1462h181l223 -1196h4l207 1196h217l207 -1196h4l223 1196h180l-301 -1462h-219l-201 1184h-4l-211 -1184h-219z" />
<glyph unicode="X" horiz-adv-x="985" d="M4 0l389 743l-360 719h200l267 -547l268 547h188l-364 -719l389 -743h-201l-291 586l-296 -586h-189z" />
<glyph unicode="Y" horiz-adv-x="946" d="M-4 1462h199l278 -684l289 684h188l-387 -889v-573h-180v573z" />
<glyph unicode="Z" horiz-adv-x="948" d="M47 0v152l658 1151h-621v159h809v-166l-657 -1136h665v-160h-854z" />
<glyph unicode="[" horiz-adv-x="530" d="M160 -377v1839h366v-135h-207v-1569h207v-135h-366z" />
<glyph unicode="\" horiz-adv-x="569" d="M-20 1491h135l475 -1520h-135z" />
<glyph unicode="]" horiz-adv-x="530" d="M4 -242h207v1569h-207v135h367v-1839h-367v135z" />
<glyph unicode="^" horiz-adv-x="1228" d="M96 535l469 886h99l469 -886h-136l-383 739l-383 -739h-135z" />
<glyph unicode="_" horiz-adv-x="1024" d="M0 -154h1024v-102h-1024v102z" />
<glyph unicode="`" horiz-adv-x="417" d="M-33 1540h201l143 -291h-123z" />
<glyph unicode="a" d="M59 291q0 240 207 303l232 70q38 12 61.5 24.5t36.5 23t19 31.5t7 36.5t1 49.5q0 77 -45.5 119.5t-131.5 42.5q-39 0 -69.5 -10.5t-50 -25t-33.5 -37t-20.5 -41t-10 -42.5t-4 -34.5t-0.5 -24.5v-10h-172q0 189 87 274.5t282 85.5q69 0 123.5 -12t89 -29.5t59 -47.5 t36 -53t17.5 -61t7 -57.5t1 -54.5v-612q0 -22 1 -33.5t6 -26.5t16.5 -21.5t30.5 -6.5q28 0 41 10v-123q-60 -10 -101 -10q-22 0 -34 1t-33 4.5t-33 12.5t-25.5 23.5t-20.5 40t-9 59.5h-4q-41 -72 -114 -115t-151 -43q-150 0 -224.5 84t-74.5 236zM240 295q0 -189 155 -189 q86 0 153.5 62.5t67.5 146.5v283q-36 -39 -150.5 -75.5t-141.5 -53.5q-44 -28 -64 -66.5t-20 -107.5z" />
<glyph unicode="b" horiz-adv-x="948" d="M113 0v1462h172v-489h4q29 70 99.5 111.5t154.5 41.5q334 0 334 -577q0 -119 -21 -221t-63 -183t-112.5 -127.5t-162.5 -46.5q-85 0 -152 49.5t-85 114.5h-5v-135h-163zM274 549q0 -92 9.5 -163t32.5 -135t68.5 -98t111.5 -34q58 0 98.5 31t62 91t30.5 134t9 174 q0 104 -9 178.5t-31 133.5t-61.5 88.5t-98.5 29.5q-222 0 -222 -430z" />
<glyph unicode="c" horiz-adv-x="872" d="M66 535q0 64 4 119.5t14.5 117t28.5 111.5t48.5 96.5t70.5 77.5t97.5 50t127.5 19q85 0 150.5 -26t102 -64.5t59.5 -90t30.5 -94.5t7.5 -87h-172q0 42 -9 80.5t-28.5 72.5t-54.5 54t-82 20q-36 0 -63.5 -8.5t-57.5 -36.5t-49.5 -75.5t-32 -132.5t-12.5 -201 q0 -32 0.5 -53t2.5 -58.5t5.5 -64t10.5 -62.5t17.5 -61t26.5 -51.5t36 -43t48 -27t62 -10.5q52 0 89.5 25.5t56 68.5t26.5 87t8 94h172q0 -55 -11 -109.5t-37.5 -109.5t-66.5 -97t-103.5 -68t-142.5 -26q-198 0 -289 138.5t-91 425.5z" />
<glyph unicode="d" horiz-adv-x="948" d="M72 549q0 577 346 577q75 0 143.5 -42t97.5 -111h5v489h172v-1462h-164v135h-4q-18 -65 -85.5 -114.5t-152.5 -49.5q-358 0 -358 578zM252 549q0 -104 9 -178.5t31 -133.5t62 -88.5t99 -29.5q56 0 96 21.5t64 57t38 93t18.5 117t4.5 141.5q0 430 -221 430 q-59 0 -99 -29.5t-62 -88.5t-31 -133.5t-9 -178.5z" />
<glyph unicode="e" d="M76 535q0 64 4 119.5t14.5 117t28.5 111.5t48.5 96.5t70.5 77.5t97.5 50t127.5 19t126 -17.5t94 -45.5t65.5 -71t43 -86.5t24.5 -100.5t11.5 -103t2.5 -104v-70h-578v-77.5t4.5 -78.5t12 -81.5t23 -70t37.5 -61.5t56 -37.5t78 -15.5q47 0 82 19t54.5 46.5t31 64.5t15 66 t3.5 58h172q0 -40 -9 -86t-35 -101.5t-65 -99t-106.5 -73t-152.5 -29.5q-198 0 -289.5 138.5t-91.5 425.5zM262 664h391v59q0 51 -9 94.5t-29 84.5t-59 65t-93 24q-63 0 -106.5 -34t-62 -86t-25.5 -92t-7 -74v-41z" />
<glyph unicode="f" horiz-adv-x="530" d="M4 963v135h160v129q0 127 57 189.5t180 62.5h125v-148h-80q-57 0 -83.5 -24t-26.5 -80v-129h188v-135h-188v-963h-172v963h-160z" />
<glyph unicode="g" horiz-adv-x="948" d="M72 549q0 94 10 174.5t35.5 156.5t65.5 129t103 85t144 32q86 0 153 -50t85 -118h4v140h164v-1028q0 -447 -373 -447q-23 0 -40.5 0.5t-55 6t-66.5 15t-65.5 30t-62 49t-45.5 73.5t-26 101h172q6 -71 55 -105.5t122 -34.5q44 0 79 9.5t57 23t37.5 36.5t23 41.5t11.5 46.5 t4.5 42.5t0.5 38.5v8v143h-5q-27 -68 -95.5 -107.5t-151.5 -39.5q-66 0 -119 23.5t-88 59.5t-60.5 88t-39 100.5t-21.5 106t-10 95t-2 76.5zM252 549q0 -402 199 -402q67 0 112.5 30t69 88t32.5 125t9 159q0 430 -221 430q-59 0 -99 -29.5t-62 -88.5t-31 -133.5t-9 -178.5z " />
<glyph unicode="h" horiz-adv-x="948" d="M113 0v1462h172v-489h4q33 66 110.5 109.5t153.5 43.5q59 0 105 -13.5t75 -32t50 -51.5t31 -59t15.5 -67.5t6 -63.5t0.5 -61v-778h-172v758q0 33 -1.5 56t-10.5 57t-25 55t-48 37t-77 16q-37 0 -73.5 -12.5t-69.5 -37.5t-53.5 -69.5t-20.5 -101.5v-758h-172z" />
<glyph unicode="i" horiz-adv-x="417" d="M123 0v1098h172v-1098h-172zM123 1266v196h172v-196h-172z" />
<glyph unicode="j" horiz-adv-x="417" d="M-47 -223q60 -6 63 -6q31 0 52 10.5t31.5 24t16 42t6.5 48.5t1 59v1143h172v-1204q0 -137 -62.5 -204t-199.5 -67q-12 0 -25.5 1t-29.5 2.5t-25 2.5v148zM123 1266v196h172v-196h-172z" />
<glyph unicode="k" d="M113 0v1462h172v-870h4l385 506h200l-333 -414l391 -684h-201l-305 543l-141 -172v-371h-172z" />
<glyph unicode="l" horiz-adv-x="417" d="M123 0v1462h172v-1462h-172z" />
<glyph unicode="m" horiz-adv-x="1478" d="M129 0v1098h164v-129h4q33 72 108 114.5t158 42.5q97 0 154.5 -41t83.5 -133q39 76 108.5 125t151.5 49q47 0 86 -8t67 -20.5t50 -33.5t36.5 -40t24.5 -48.5t14.5 -49.5t7 -52.5t3 -49t0.5 -46.5v-778h-172v758q0 32 -1.5 56t-10 57.5t-23.5 55t-44 37t-69 15.5 q-33 0 -66 -11t-65.5 -34.5t-53 -69t-20.5 -106.5v-758h-172v758q0 27 -1 46.5t-5.5 48t-14.5 48.5t-25 39t-41 29t-60 10q-33 0 -66 -11t-65.5 -34.5t-53 -69t-20.5 -106.5v-758h-172z" />
<glyph unicode="n" horiz-adv-x="948" d="M113 0v1098h163v-129h5q33 72 108 114.5t158 42.5q47 0 86 -8t67 -20.5t50 -33.5t36.5 -40t24.5 -48.5t14.5 -49.5t7 -52.5t3 -49t0.5 -46.5v-778h-172v758q0 33 -1.5 56t-10.5 57t-25 55t-48 37t-77 16q-37 0 -73.5 -12.5t-69.5 -37.5t-53.5 -69.5t-20.5 -101.5v-758 h-172z" />
<glyph unicode="o" d="M59 549q0 98 10.5 179t38.5 157t71.5 127.5t113.5 82.5t162 31t162.5 -31t114 -82.5t70.5 -127.5t37.5 -157t10.5 -179t-10.5 -179t-38 -157t-71 -128t-113.5 -83t-162 -31t-162.5 31t-114 83t-71 128t-38 157t-10.5 179zM240 549q0 -98 8.5 -171t30.5 -138t65 -99.5 t107 -34.5q66 0 110.5 34.5t67.5 99.5t32 138t9 171t-9 171t-31.5 138t-67.5 99t-111 34q-63 0 -106 -34.5t-65 -99t-31 -138t-9 -170.5z" />
<glyph unicode="p" horiz-adv-x="948" d="M113 -360v1458h163v-135h5q18 65 85 114t152 49q95 0 165.5 -40.5t112 -116t61.5 -175t20 -225.5q0 -67 -7 -131.5t-22.5 -134t-43.5 -127.5t-66 -105t-94.5 -73.5t-125.5 -26.5q-74 0 -137 42t-92 112h-4v-485h-172zM274 549q0 -430 222 -430q59 0 98.5 29.5t61.5 90.5 t31 139.5t9 190.5q0 96 -9 167t-30.5 128t-62 86t-98.5 29q-56 0 -96 -21.5t-64 -57t-38.5 -93t-19 -117t-4.5 -141.5z" />
<glyph unicode="q" horiz-adv-x="948" d="M72 569q0 126 20 225t61.5 175t111.5 116.5t165 40.5q86 0 153 -49t85 -114h4v135h164v-1458h-172v485h-5q-29 -70 -92 -112t-137 -42q-102 0 -175 50t-111.5 138.5t-55 188.5t-16.5 221zM252 569q0 -112 9 -190.5t31 -139.5t62 -90.5t99 -29.5q221 0 221 430 q0 82 -4.5 141.5t-18.5 117t-38 93t-64 57t-96 21.5q-58 0 -98.5 -29t-62.5 -86t-31 -128t-9 -167z" />
<glyph unicode="r" horiz-adv-x="606" d="M113 0v1098h172v-164h4q43 90 97.5 141t139.5 51q52 0 76 -12v-168q-64 8 -92 8q-34 0 -71.5 -15.5t-73 -45.5t-58 -82t-22.5 -117v-694h-172z" />
<glyph unicode="s" horiz-adv-x="833" d="M51 360h172q0 -54 9 -96.5t30.5 -80t63 -57.5t102.5 -20q19 0 40 4t47.5 16t46.5 31t34 53.5t14 78.5q0 22 -4.5 41t-10 34t-18.5 29.5t-22.5 24.5t-29.5 21t-31 17t-36 16t-36.5 13.5t-40.5 13.5t-39 13q-112 38 -153 64q-108 68 -116 220q-1 13 -1 27q0 147 99.5 225 t250.5 78q66 0 118.5 -13t87 -33t59.5 -52t37.5 -59.5t20 -67t9 -65t2.5 -60.5h-172q0 110 -36 162.5t-126 52.5q-21 0 -40 -2.5t-46 -12.5t-46 -27t-32.5 -49.5t-13.5 -76.5q0 -27 7 -49t24 -39.5t31.5 -29t45.5 -24.5t48 -19t57.5 -19t56.5 -18q37 -12 57.5 -20t53 -23 t51.5 -29.5t42 -38.5t35 -51t20.5 -65t8.5 -83q0 -168 -97 -256t-257 -88q-77 0 -138 16.5t-100 40t-67 61.5t-41.5 69.5t-21 75.5t-8.5 68t-1 58z" />
<glyph unicode="t" horiz-adv-x="530" d="M4 963v135h160v319h172v-319h190v-135h-190v-705q0 -68 23.5 -95.5t89.5 -27.5q21 0 75 6v-141q-69 -12 -139 -12q-127 0 -174 51.5t-47 165.5v758h-160z" />
<glyph unicode="u" horiz-adv-x="948" d="M113 319v779h172v-758q0 -33 1.5 -56t10.5 -57t25 -55t47.5 -37t76.5 -16q37 0 73.5 12.5t69.5 37.5t54 69.5t21 101.5v758h172v-1098h-164v129h-4q-33 -73 -108.5 -115.5t-158.5 -42.5q-60 0 -107 13.5t-76.5 32t-51 51.5t-31.5 58.5t-15.5 68t-6 64t-0.5 60.5z" />
<glyph unicode="v" horiz-adv-x="831" d="M20 1098h189l205 -881h4l205 881h188l-297 -1098h-197z" />
<glyph unicode="w" horiz-adv-x="1327" d="M20 1098h181l176 -897h4l186 897h203l182 -897h4l170 897h181l-260 -1098h-189l-192 897h-4l-185 -897h-201z" />
<glyph unicode="x" horiz-adv-x="831" d="M12 0l301 571l-280 527h188l199 -391l201 391h188l-287 -527l297 -571h-188l-219 434l-211 -434h-189z" />
<glyph unicode="y" horiz-adv-x="831" d="M20 1098h189l217 -881h4l193 881h188l-317 -1172q-11 -39 -18.5 -64t-21 -58.5t-28 -54.5t-36.5 -44t-48 -35.5t-62 -21t-79 -8.5q-38 0 -125 6v135q37 -6 100 -6q99 0 135 106l33 96z" />
<glyph unicode="z" horiz-adv-x="796" d="M55 0v135l498 815h-473v148h661v-144l-491 -807h487v-147h-682z" />
<glyph unicode="{" horiz-adv-x="530" d="M4 481v123q69 0 112.5 61t43.5 166v365q0 142 61.5 204t159.5 62h145v-135h-104q-29 0 -49 -11t-30.5 -25.5t-16 -40t-6.5 -44t-1 -47.5v-352q0 -56 -14.5 -102.5t-35.5 -74t-47.5 -47.5t-46.5 -28t-36 -10v-4q16 -2 36 -10t46.5 -28t47.5 -47.5t35.5 -74t14.5 -102.5 v-353q0 -29 1 -47.5t6.5 -44t16 -40t30.5 -25.5t49 -11h104v-135h-145q-98 0 -159.5 62t-61.5 204v365q0 105 -43.5 166t-112.5 61z" />
<glyph unicode="|" horiz-adv-x="454" d="M160 -29v1520h135v-1520h-135z" />
<glyph unicode="}" horiz-adv-x="530" d="M4 -242h105q29 0 49 11t30 25.5t15.5 40.5t6.5 43.5t1 47.5v353q0 56 14.5 102.5t35.5 74t47.5 47.5t46.5 28t36 10v4q-16 2 -36 10t-46.5 28t-47.5 47.5t-35.5 74t-14.5 102.5v352q0 30 -1 47.5t-6.5 43.5t-15.5 40.5t-30 25.5t-49 11h-105v135h146q98 0 159.5 -62 t61.5 -204v-365q0 -105 43 -166t112 -61v-123q-69 0 -112 -61t-43 -166v-365q0 -142 -61.5 -204t-159.5 -62h-146v135z" />
<glyph unicode="~" horiz-adv-x="1228" d="M115 473q28 40 51.5 67.5t59 59t78 48t89.5 16.5q60 0 101 -10.5t112 -49.5q15 -8 50.5 -29.5t57 -33.5t53 -22.5t58.5 -10.5q103 0 203 149l86 -92q-28 -40 -52 -68.5t-59 -59.5t-77.5 -47.5t-89.5 -16.5q-61 0 -102 10t-111 49q-15 8 -51 29.5t-57.5 33t-53 22.5 t-58.5 11q-102 0 -202 -149z" />
<glyph unicode="&#xa1;" horiz-adv-x="528" d="M170 -360l33 1081h123l32 -1081h-188zM170 905v197h188v-197h-188z" />
<glyph unicode="&#xa2;" horiz-adv-x="983" d="M121 535q0 88 7 160.5t29 151.5t58.5 135t100 96t149.5 48v144h86v-144q75 -5 133 -32.5t91 -65.5t53.5 -88t27 -91.5t6.5 -84.5h-172q0 40 -7.5 75.5t-23 68t-43.5 55t-65 28.5v-885q40 10 69 38t43.5 68t20.5 81t6 88h172q0 -53 -9.5 -105t-32.5 -104.5t-57.5 -94 t-89 -70.5t-122.5 -36v-174h-86v174q-179 10 -261.5 149t-82.5 415zM301 537q0 -40 0.5 -66.5t4 -72.5t9 -78t18 -71.5t29 -66t43.5 -47.5t60 -29v885q-36 -8 -63.5 -32.5t-51 -73.5t-36.5 -137t-13 -211z" />
<glyph unicode="&#xa3;" horiz-adv-x="983" d="M39 121q47 38 74 61.5t66 64.5t60.5 75.5t37.5 82t16 97.5q0 93 -43 157h-195v123h144l-33 64q-68 133 -68 235q0 172 117 270.5t295 98.5q187 0 296 -104.5t109 -311.5h-172q0 126 -55.5 203.5t-177.5 77.5q-63 0 -110 -20t-72 -53t-37 -68.5t-12 -73.5q0 -42 19.5 -102 t40 -104.5t54.5 -111.5h336v-123h-291q35 -72 35 -139q0 -47 -16.5 -93t-38.5 -81.5t-61.5 -77t-68 -67t-75.5 -64.5l4 -4q112 57 174 57q51 0 125 -28q72 -31 133 -31q49 0 90 15.5t129 64.5l76 -137q-147 -103 -282 -103q-71 0 -181.5 42t-167.5 42q-51 0 -100 -22 l-96 -45z" />
<glyph unicode="&#xa4;" horiz-adv-x="983" d="M37 342l96 96q-92 123 -92 273q0 147 92 270l-96 96l88 88l96 -96q119 92 271 92q151 0 270 -92l96 96l88 -88l-96 -96q92 -119 92 -270q0 -153 -94 -271l98 -98l-86 -86l-98 98q-118 -94 -270 -94q-150 0 -273 92l-96 -96zM188 711q0 -133 88.5 -224.5t215.5 -91.5 q126 0 214.5 91.5t88.5 224.5t-88 224t-215 91t-215.5 -91t-88.5 -224z" />
<glyph unicode="&#xa5;" horiz-adv-x="983" d="M18 1421h199l279 -663l288 663h181l-308 -694h226v-123h-281l-20 -45v-123h301v-123h-301v-313h-172v313h-301v123h301v123l-21 45h-280v123h225z" />
<glyph unicode="&#xa6;" horiz-adv-x="454" d="M160 -29v602h135v-602h-135zM160 889v602h135v-602h-135z" />
<glyph unicode="&#xa7;" horiz-adv-x="987" d="M61 655q0 54 14 97t44 78t61 59.5t82 56.5q-59 38 -95 106.5t-36 139.5q0 72 30 130t80.5 94.5t113 55.5t130.5 19q54 0 99.5 -8t79 -20.5t61 -33t45 -39t31.5 -45t21.5 -45t13 -45t7 -39t3.5 -32.5h-180q0 80 -52 126t-129 46q-84 0 -129 -48t-45 -106q0 -32 13 -60.5 t40 -53t50 -41t61 -39.5l205 -123q59 -36 96 -64t75.5 -68t56.5 -88.5t18 -107.5q0 -174 -183 -301q60 -38 89.5 -106.5t29.5 -147.5q0 -148 -104 -232.5t-252 -84.5q-87 0 -155.5 24t-108.5 61t-66 86.5t-35.5 94.5t-9.5 90h172q0 -98 52 -159.5t151 -61.5q43 0 76 13 t51 32t30 44t15.5 45.5t3.5 39.5q0 66 -46.5 118t-123.5 101l-231 143q-220 136 -220 299zM233 678q0 -54 38.5 -94.5t105.5 -81.5l135 -86l123 -84q119 73 119 194q0 115 -158 209l-225 139q-28 -21 -37 -27.5t-34 -30t-35.5 -40t-21 -43.5t-10.5 -55z" />
<glyph unicode="&#xa8;" horiz-adv-x="417" d="M-37 1298v207h160v-207h-160zM295 1298v207h160v-207h-160z" />
<glyph unicode="&#xa9;" horiz-adv-x="1638" d="M59 731q0 155 60 295.5t162 242.5t242.5 162t295.5 60t295.5 -60t242.5 -162t162 -242.5t60 -295.5t-60 -295.5t-162 -242.5t-242.5 -162t-295.5 -60t-295.5 60t-242.5 162t-162 242.5t-60 295.5zM195 731q0 -130 49 -248t132.5 -203t199.5 -135.5t243 -50.5t243 50.5 t199.5 135.5t133 203t49.5 248t-49.5 248t-133 203t-199.5 135.5t-243 50.5t-243 -50.5t-199.5 -135.5t-132.5 -203t-49 -248zM383 725q0 210 121 340.5t327 130.5q160 0 271.5 -81.5t132.5 -235.5h-123q-18 84 -94 139t-187 55q-141 0 -227 -99.5t-86 -248.5t86 -248.5 t227 -99.5q111 0 187 55t94 139h123q-21 -151 -133 -234t-271 -83q-206 0 -327 130.5t-121 340.5z" />
<glyph unicode="&#xaa;" horiz-adv-x="591" d="M16 942q0 74 35.5 120.5t112.5 67.5l149 41q38 11 55 25t20 26.5t3 41.5q0 88 -110 88q-34 0 -59 -10.5t-36.5 -24t-17.5 -33.5t-7 -29.5t-1 -21.5v-8h-123q0 121 59 173t201 52q45 0 80.5 -7.5t57.5 -18.5t38 -30t24 -33.5t12 -38t4.5 -36t0.5 -33.5v-360q0 -18 1 -27 t9.5 -18.5t24.5 -9.5q14 0 26 6v-86q-24 -6 -77 -6q-44 0 -73 22.5t-30 71.5h-4q-25 -44 -73 -69t-107 -25q-93 0 -144 52t-51 138zM152 950q0 -44 22.5 -72t71.5 -28q55 0 100 35.5t45 77.5v157q-22 -22 -95.5 -43t-94.5 -35q-26 -17 -37.5 -36t-11.5 -56z" />
<glyph unicode="&#xab;" horiz-adv-x="796" d="M100 502v160l291 292v-180l-192 -192l192 -193v-180zM406 502v160l290 292v-180l-192 -192l192 -193v-180z" />
<glyph unicode="&#xac;" horiz-adv-x="1228" d="M96 659v136h1037v-578h-136v442h-901z" />
<glyph unicode="&#xad;" horiz-adv-x="720" d="M111 502v160h499v-160h-499z" />
<glyph unicode="&#xae;" horiz-adv-x="1638" d="M59 731q0 155 60 295.5t162 242.5t242.5 162t295.5 60t295.5 -60t242.5 -162t162 -242.5t60 -295.5t-60 -295.5t-162 -242.5t-242.5 -162t-295.5 -60t-295.5 60t-242.5 162t-162 242.5t-60 295.5zM195 731q0 -130 49 -248t132.5 -203t199.5 -135.5t243 -50.5t243 50.5 t199.5 135.5t133 203t49.5 248t-49.5 248t-133 203t-199.5 135.5t-243 50.5t-243 -50.5t-199.5 -135.5t-132.5 -203t-49 -248zM516 283v888h344q303 0 303 -260q0 -113 -65.5 -173.5t-173.5 -71.5l254 -383h-136l-245 372h-146v-372h-135zM651 778h146q44 0 72 1.5t61.5 9.5 t52.5 22.5t32 41t13 65.5q0 42 -16 69.5t-46 40t-59.5 17t-70.5 4.5h-185v-271z" />
<glyph unicode="&#xaf;" horiz-adv-x="417" d="M-61 1341v111h540v-111h-540z" />
<glyph unicode="&#xb0;" horiz-adv-x="819" d="M104 1145q0 132 87 218.5t219 86.5t218.5 -86.5t86.5 -218.5t-86.5 -218.5t-218.5 -86.5t-219 86.5t-87 218.5zM215 1145q0 -79 57.5 -137t137.5 -58q79 0 136.5 57.5t57.5 137.5q0 79 -57 136.5t-137 57.5t-137.5 -57.5t-57.5 -136.5z" />
<glyph unicode="&#xb1;" horiz-adv-x="1228" d="M96 0v135h1037v-135h-1037zM96 604v135h451v297h135v-297h451v-135h-451v-297h-135v297h-451z" />
<glyph unicode="&#xb2;" horiz-adv-x="638" d="M41 1171q0 129 67 204t218 75q123 0 197.5 -60t74.5 -173q0 -95 -39.5 -157.5t-126.5 -131.5l-127 -103q-72 -58 -96 -129h369v-123h-535q0 112 55.5 196.5t149.5 162.5l76 61q65 51 96 97.5t31 113.5q0 123 -136 123q-127 0 -127 -156h-147z" />
<glyph unicode="&#xb3;" horiz-adv-x="638" d="M33 801v10h147q0 -54 37 -97.5t107 -43.5q52 0 93.5 35t41.5 114q0 71 -41.5 111.5t-122.5 40.5h-57v110h49q71 0 109 39.5t38 102.5q0 49 -29 82.5t-83 33.5q-40 0 -67.5 -14.5t-39.5 -39t-16 -45t-4 -42.5h-148q0 252 279 252q61 0 107.5 -14.5t74 -37t45 -53.5 t23.5 -60.5t6 -61.5q0 -68 -45 -120t-127 -69v-4q92 -14 144 -64t52 -139q0 -124 -70 -196t-208 -72q-77 0 -135 22t-87 51.5t-47 67t-22 60.5t-4 41z" />
<glyph unicode="&#xb4;" horiz-adv-x="417" d="M106 1249l144 291h201l-222 -291h-123z" />
<glyph unicode="&#xb5;" horiz-adv-x="948" d="M113 -360v1458h172v-758q0 -33 1.5 -56t10.5 -57t25 -55t47.5 -37t76.5 -16q37 0 73.5 12.5t69.5 37.5t54 69.5t21 101.5v758h172v-1098h-164v129h-4q-33 -73 -108.5 -115.5t-158.5 -42.5q-79 0 -116 29v-360h-172z" />
<glyph unicode="&#xb6;" horiz-adv-x="1138" d="M74 1040q0 197 132.5 309.5t350.5 112.5h420v-1749h-135v1639h-205v-1639h-135v946q-186 0 -307 110t-121 271z" />
<glyph unicode="&#xb7;" horiz-adv-x="491" d="M131 670q0 47 34 80.5t81 33.5t80.5 -33.5t33.5 -80.5t-33.5 -81t-80.5 -34t-81 34t-34 81z" />
<glyph unicode="&#xb8;" horiz-adv-x="417" d="M-2 -393l31 69q10 -3 60 -13.5t71 -10.5q59 0 85.5 23.5t26.5 60.5q0 34 -28.5 55t-67.5 21q-58 0 -78 -15l-30 37l120 178h86l-84 -123l5 -4q30 13 61 13q62 0 113 -39.5t51 -116.5q0 -76 -65 -126t-154 -50q-135 0 -203 41z" />
<glyph unicode="&#xb9;" horiz-adv-x="638" d="M66 1214v99q40 0 69 2.5t61 10.5t52 22.5t34 40t15 61.5h100v-877h-135v641h-196z" />
<glyph unicode="&#xba;" horiz-adv-x="591" d="M33 1104q0 346 260 346q266 0 266 -346q0 -352 -266 -352q-260 0 -260 352zM168 1104q0 -254 125 -254q131 0 131 254q0 248 -131 248q-36 0 -61.5 -21.5t-39 -58.5t-19 -78t-5.5 -90z" />
<glyph unicode="&#xbb;" horiz-adv-x="796" d="M100 209v180l193 193l-193 192v180l291 -292v-160zM406 209v180l192 193l-192 192v180l290 -292v-160z" />
<glyph unicode="&#xbc;" horiz-adv-x="1476" d="M66 1214v99q40 0 69 2.5t61 10.5t52 22.5t34 40t15 61.5h100v-877h-135v641h-196zM190 -63l889 1548h123l-889 -1548h-123zM819 203v123l328 551h147v-564h97v-110h-97v-203h-135v203h-340zM930 313h229v379h-4z" />
<glyph unicode="&#xbd;" horiz-adv-x="1476" d="M61 1214v99q40 0 69 2.5t61.5 10.5t52.5 22.5t34 40t15 61.5h100v-877h-135v641h-197zM152 -63l888 1548h123l-889 -1548h-122zM858 598q0 129 67 204t218 75q123 0 197.5 -60.5t74.5 -173.5q0 -95 -39.5 -157.5t-126.5 -131.5l-127 -102q-72 -58 -96 -129h369v-123h-535 q0 112 55.5 196t149.5 162l76 62q65 51 96 97.5t31 113.5q0 123 -135 123q-127 0 -127 -156h-148z" />
<glyph unicode="&#xbe;" horiz-adv-x="1476" d="M41 801v10h147q0 -54 37 -97.5t107 -43.5q52 0 93.5 35t41.5 114q0 71 -41.5 111.5t-122.5 40.5h-57v110h49q71 0 109 39.5t38 102.5q0 49 -29 82.5t-83 33.5q-40 0 -67.5 -14.5t-39.5 -39t-16 -45t-4 -42.5h-148q0 252 279 252q61 0 107.5 -14.5t74 -37t45 -53.5 t23.5 -60.5t6 -61.5q0 -68 -45 -120t-127 -69v-4q92 -14 144 -64t52 -139q0 -124 -70 -196t-208 -72q-77 0 -135 22t-87 51.5t-47 67t-22 60.5t-4 41zM297 -63l889 1548h123l-889 -1548h-123zM864 203v123l328 551h147v-564h97v-110h-97v-203h-135v203h-340zM975 313h229 v379h-4z" />
<glyph unicode="&#xbf;" d="M72 8q0 165 102 289q10 12 80.5 90t79.5 90q65 84 65 205v39h160q0 -56 -1.5 -88t-10.5 -81t-27 -83q-21 -39 -60.5 -89t-85.5 -102t-61 -71q-35 -45 -48 -91.5t-13 -117.5q0 -97 52 -162t147 -65q215 0 215 299h172q0 -93 -23 -172.5t-68 -141.5t-119.5 -97.5 t-170.5 -35.5q-180 0 -282.5 108t-102.5 277zM383 905v197h188v-197h-188z" />
<glyph unicode="&#xc0;" horiz-adv-x="1024" d="M-16 0l422 1462h241l393 -1462h-188l-104 401h-467l-109 -401h-188zM285 1833h200l144 -291h-123zM317 549h394l-187 706h-4z" />
<glyph unicode="&#xc1;" horiz-adv-x="1024" d="M-16 0l422 1462h241l393 -1462h-188l-104 401h-467l-109 -401h-188zM317 549h394l-187 706h-4zM424 1542l143 291h201l-221 -291h-123z" />
<glyph unicode="&#xc2;" horiz-adv-x="1024" d="M-16 0l422 1462h241l393 -1462h-188l-104 401h-467l-109 -401h-188zM242 1542l207 291h157l205 -291h-160l-125 180l-125 -180h-159zM317 549h394l-187 706h-4z" />
<glyph unicode="&#xc3;" horiz-adv-x="1024" d="M-16 0l422 1462h241l393 -1462h-188l-104 401h-467l-109 -401h-188zM225 1567q0 92 55 159.5t136 67.5q43 0 123 -39q8 -4 29 -13.5t30.5 -13.5t23 -8t23.5 -4q19 0 32 8t21 25t11.5 28t7.5 31h110q0 -54 -19 -104.5t-60.5 -86.5t-96.5 -36q-48 0 -133.5 39t-101.5 39 q-36 0 -55 -28t-25 -64h-111zM317 549h394l-187 706h-4z" />
<glyph unicode="&#xc4;" horiz-adv-x="1024" d="M-16 0l422 1462h241l393 -1462h-188l-104 401h-467l-109 -401h-188zM281 1591v207h159v-207h-159zM317 549h394l-187 706h-4zM612 1591v207h160v-207h-160z" />
<glyph unicode="&#xc5;" horiz-adv-x="1024" d="M-16 0l422 1462h241l393 -1462h-188l-104 401h-467l-109 -401h-188zM317 549h394l-187 706h-4zM324 1706q0 85 58.5 144t143.5 59t144 -59t59 -144t-59 -144t-144 -59t-143.5 59t-58.5 144zM410 1706q0 -47 34.5 -82t81.5 -35t82 35t35 82t-35 82t-82 35t-81.5 -35 t-34.5 -82z" />
<glyph unicode="&#xc6;" horiz-adv-x="1478" d="M-16 0l565 1462h856v-159h-545v-459h512v-160h-512v-524h570v-160h-750v401h-358l-150 -401h-188zM373 549h307v766h-21z" />
<glyph unicode="&#xc7;" horiz-adv-x="1062" d="M98 731q0 85 5 158.5t18 153t35 143t58.5 122t84.5 98t117 62.5t153 23q218 0 322 -116t110 -339h-188q-7 307 -244 307q-61 0 -107.5 -21t-77 -63.5t-50.5 -94t-30 -125.5t-13.5 -144.5t-3.5 -163.5t3.5 -163.5t13.5 -144.5t30 -125.5t50.5 -94t77 -63.5t107.5 -21 q46 0 83 12t62.5 32t45 51t31 62.5t19 72.5t11 75.5t4.5 77.5h189q-5 -86 -21 -159.5t-49 -142.5t-80.5 -118t-119 -79t-160.5 -32l-56 -82l4 -4q30 13 62 13q62 0 113 -39.5t51 -116.5q0 -76 -65 -126t-154 -50q-135 0 -203 41l31 69q10 -3 60 -13.5t71 -10.5 q59 0 85.5 23.5t26.5 60.5q0 34 -28.5 55t-67.5 21q-58 0 -78 -15l-30 37l94 141q-74 9 -133 38t-100.5 70t-72.5 99.5t-49 119t-29 136.5t-14.5 144t-3.5 149z" />
<glyph unicode="&#xc8;" horiz-adv-x="948" d="M119 0v1462h755v-159h-575v-459h543v-160h-543v-524h600v-160h-780zM258 1833h201l143 -291h-123z" />
<glyph unicode="&#xc9;" horiz-adv-x="948" d="M119 0v1462h755v-159h-575v-459h543v-160h-543v-524h600v-160h-780zM397 1542l144 291h200l-221 -291h-123z" />
<glyph unicode="&#xca;" horiz-adv-x="948" d="M119 0v1462h755v-159h-575v-459h543v-160h-543v-524h600v-160h-780zM215 1542l207 291h158l204 -291h-159l-125 180l-125 -180h-160z" />
<glyph unicode="&#xcb;" horiz-adv-x="948" d="M119 0v1462h755v-159h-575v-459h543v-160h-543v-524h600v-160h-780zM254 1591v207h160v-207h-160zM586 1591v207h159v-207h-159z" />
<glyph unicode="&#xcc;" horiz-adv-x="417" d="M-33 1833h201l143 -291h-123zM119 0v1462h180v-1462h-180z" />
<glyph unicode="&#xcd;" horiz-adv-x="417" d="M106 1542l144 291h201l-222 -291h-123zM119 0v1462h180v-1462h-180z" />
<glyph unicode="&#xce;" horiz-adv-x="417" d="M-76 1542l207 291h158l205 -291h-160l-125 180l-125 -180h-160zM119 0v1462h180v-1462h-180z" />
<glyph unicode="&#xcf;" horiz-adv-x="417" d="M-37 1591v207h160v-207h-160zM119 0v1462h180v-1462h-180zM295 1591v207h160v-207h-160z" />
<glyph unicode="&#xd0;" horiz-adv-x="1138" d="M18 696v135h119v631h391q96 0 171.5 -20t129 -53.5t92 -87.5t61.5 -112t36 -137.5t17.5 -152.5t4.5 -168q0 -731 -493 -731h-410v696h-119zM317 147h189q65 0 117 19t87.5 50t62 78t41.5 95.5t24 110.5t11.5 114t2.5 115q0 72 -2 122.5t-9.5 116.5t-21.5 111.5t-39.5 93 t-61.5 76.5t-90 47.5t-122 18.5h-189v-484h275v-135h-275v-549z" />
<glyph unicode="&#xd1;" horiz-adv-x="1138" d="M119 0v1462h233l484 -1220h4v1220h180v-1462h-248l-469 1184h-4v-1184h-180zM268 1567q0 92 55 159.5t136 67.5q43 0 123 -39q8 -4 29 -13.5t30.5 -13.5t23 -8t23.5 -4q19 0 32 8t21 25t11.5 28t7.5 31h110q0 -54 -19 -104.5t-60.5 -86.5t-96.5 -36q-48 0 -133.5 39 t-101.5 39q-36 0 -55 -28t-25 -64h-111z" />
<glyph unicode="&#xd2;" horiz-adv-x="1138" d="M98 731q0 85 5 158.5t18 153t35 143t58.5 122t84.5 98t117 62.5t153 23t153 -23t117 -62.5t84.5 -98t58.5 -122t35 -143t18 -153t5 -158.5t-5 -158.5t-18 -153t-35 -143t-58.5 -122t-84.5 -98t-117 -62.5t-153 -23t-153 23t-117 62.5t-84.5 98t-58.5 122t-35 143t-18 153 t-5 158.5zM287 731q0 -93 3.5 -163.5t13.5 -144.5t30 -125.5t50.5 -94t77 -63.5t107.5 -21t107.5 21t77 63.5t50.5 94t30.5 125.5t14 144.5t3.5 163.5t-3.5 163.5t-14 144.5t-30.5 125.5t-50.5 94t-77 63.5t-107.5 21t-107.5 -21t-77 -63.5t-50.5 -94t-30 -125.5 t-13.5 -144.5t-3.5 -163.5zM328 1833h200l144 -291h-123z" />
<glyph unicode="&#xd3;" horiz-adv-x="1138" d="M98 731q0 85 5 158.5t18 153t35 143t58.5 122t84.5 98t117 62.5t153 23t153 -23t117 -62.5t84.5 -98t58.5 -122t35 -143t18 -153t5 -158.5t-5 -158.5t-18 -153t-35 -143t-58.5 -122t-84.5 -98t-117 -62.5t-153 -23t-153 23t-117 62.5t-84.5 98t-58.5 122t-35 143t-18 153 t-5 158.5zM287 731q0 -93 3.5 -163.5t13.5 -144.5t30 -125.5t50.5 -94t77 -63.5t107.5 -21t107.5 21t77 63.5t50.5 94t30.5 125.5t14 144.5t3.5 163.5t-3.5 163.5t-14 144.5t-30.5 125.5t-50.5 94t-77 63.5t-107.5 21t-107.5 -21t-77 -63.5t-50.5 -94t-30 -125.5 t-13.5 -144.5t-3.5 -163.5zM467 1542l143 291h201l-221 -291h-123z" />
<glyph unicode="&#xd4;" horiz-adv-x="1138" d="M98 731q0 85 5 158.5t18 153t35 143t58.5 122t84.5 98t117 62.5t153 23t153 -23t117 -62.5t84.5 -98t58.5 -122t35 -143t18 -153t5 -158.5t-5 -158.5t-18 -153t-35 -143t-58.5 -122t-84.5 -98t-117 -62.5t-153 -23t-153 23t-117 62.5t-84.5 98t-58.5 122t-35 143t-18 153 t-5 158.5zM285 1542l207 291h157l205 -291h-160l-125 180l-125 -180h-159zM287 731q0 -93 3.5 -163.5t13.5 -144.5t30 -125.5t50.5 -94t77 -63.5t107.5 -21t107.5 21t77 63.5t50.5 94t30.5 125.5t14 144.5t3.5 163.5t-3.5 163.5t-14 144.5t-30.5 125.5t-50.5 94t-77 63.5 t-107.5 21t-107.5 -21t-77 -63.5t-50.5 -94t-30 -125.5t-13.5 -144.5t-3.5 -163.5z" />
<glyph unicode="&#xd5;" horiz-adv-x="1138" d="M98 731q0 85 5 158.5t18 153t35 143t58.5 122t84.5 98t117 62.5t153 23t153 -23t117 -62.5t84.5 -98t58.5 -122t35 -143t18 -153t5 -158.5t-5 -158.5t-18 -153t-35 -143t-58.5 -122t-84.5 -98t-117 -62.5t-153 -23t-153 23t-117 62.5t-84.5 98t-58.5 122t-35 143t-18 153 t-5 158.5zM268 1567q0 92 55 159.5t136 67.5q43 0 123 -39q8 -4 29 -13.5t30.5 -13.5t23 -8t23.5 -4q19 0 32 8t21 25t11.5 28t7.5 31h110q0 -54 -19 -104.5t-60.5 -86.5t-96.5 -36q-48 0 -133.5 39t-101.5 39q-36 0 -55 -28t-25 -64h-111zM287 731q0 -93 3.5 -163.5 t13.5 -144.5t30 -125.5t50.5 -94t77 -63.5t107.5 -21t107.5 21t77 63.5t50.5 94t30.5 125.5t14 144.5t3.5 163.5t-3.5 163.5t-14 144.5t-30.5 125.5t-50.5 94t-77 63.5t-107.5 21t-107.5 -21t-77 -63.5t-50.5 -94t-30 -125.5t-13.5 -144.5t-3.5 -163.5z" />
<glyph unicode="&#xd6;" horiz-adv-x="1138" d="M98 731q0 85 5 158.5t18 153t35 143t58.5 122t84.5 98t117 62.5t153 23t153 -23t117 -62.5t84.5 -98t58.5 -122t35 -143t18 -153t5 -158.5t-5 -158.5t-18 -153t-35 -143t-58.5 -122t-84.5 -98t-117 -62.5t-153 -23t-153 23t-117 62.5t-84.5 98t-58.5 122t-35 143t-18 153 t-5 158.5zM287 731q0 -93 3.5 -163.5t13.5 -144.5t30 -125.5t50.5 -94t77 -63.5t107.5 -21t107.5 21t77 63.5t50.5 94t30.5 125.5t14 144.5t3.5 163.5t-3.5 163.5t-14 144.5t-30.5 125.5t-50.5 94t-77 63.5t-107.5 21t-107.5 -21t-77 -63.5t-50.5 -94t-30 -125.5 t-13.5 -144.5t-3.5 -163.5zM324 1591v207h159v-207h-159zM655 1591v207h160v-207h-160z" />
<glyph unicode="&#xd7;" horiz-adv-x="1228" d="M158 147l370 371l-370 371l86 86l370 -369l369 369l88 -86l-371 -371l371 -371l-88 -86l-369 369l-370 -369z" />
<glyph unicode="&#xd8;" horiz-adv-x="1138" d="M98 731q0 85 5 158.5t18 153t35 143t58.5 122t84.5 98t117 62.5t153 23q137 0 228 -57l49 120l110 -45l-65 -157q149 -176 149 -621q0 -85 -5 -158.5t-18 -153t-35 -143t-58.5 -122t-84.5 -98t-117 -62.5t-153 -23q-133 0 -225 58l-53 -127l-111 49l68 164 q-150 177 -150 616zM287 731q0 -282 43 -418l403 969q-61 61 -164 61q-61 0 -107.5 -21t-77 -63.5t-50.5 -94t-30 -125.5t-13.5 -144.5t-3.5 -163.5zM408 180q61 -61 161 -61q61 0 107.5 21t77 63.5t50.5 94t30.5 125.5t14 144.5t3.5 163.5q0 286 -43 420z" />
<glyph unicode="&#xd9;" horiz-adv-x="1062" d="M102 434v1028h181v-1028q0 -164 57.5 -239.5t189.5 -75.5q139 0 194.5 76.5t55.5 238.5v1028h181v-1028q0 -216 -110 -339.5t-321 -123.5q-428 0 -428 463zM291 1833h201l143 -291h-123z" />
<glyph unicode="&#xda;" horiz-adv-x="1062" d="M102 434v1028h181v-1028q0 -164 57.5 -239.5t189.5 -75.5q139 0 194.5 76.5t55.5 238.5v1028h181v-1028q0 -216 -110 -339.5t-321 -123.5q-428 0 -428 463zM430 1542l143 291h201l-221 -291h-123z" />
<glyph unicode="&#xdb;" horiz-adv-x="1062" d="M102 434v1028h181v-1028q0 -164 57.5 -239.5t189.5 -75.5q139 0 194.5 76.5t55.5 238.5v1028h181v-1028q0 -216 -110 -339.5t-321 -123.5q-428 0 -428 463zM248 1542l207 291h157l205 -291h-160l-125 180l-124 -180h-160z" />
<glyph unicode="&#xdc;" horiz-adv-x="1062" d="M102 434v1028h181v-1028q0 -164 57.5 -239.5t189.5 -75.5q139 0 194.5 76.5t55.5 238.5v1028h181v-1028q0 -216 -110 -339.5t-321 -123.5q-428 0 -428 463zM287 1591v207h159v-207h-159zM618 1591v207h160v-207h-160z" />
<glyph unicode="&#xdd;" horiz-adv-x="946" d="M-4 1462h199l278 -684l289 684h188l-387 -889v-573h-180v573zM371 1542l143 291h201l-221 -291h-123z" />
<glyph unicode="&#xde;" horiz-adv-x="985" d="M119 0v1462h180v-286h193q31 0 49.5 -0.5t58 -4.5t66.5 -10.5t66 -21.5t66 -35t56.5 -52.5t47.5 -73t30 -97.5t12 -125q0 -200 -116 -312t-306 -112h-223v-332h-180zM299 479h215q105 0 173.5 73t68.5 212q0 125 -62.5 194.5t-191.5 69.5h-203v-549z" />
<glyph unicode="&#xdf;" horiz-adv-x="948" d="M98 0v1047q0 101 17 175.5t56.5 134.5t112 91t177.5 31q156 0 254 -84.5t98 -249.5q0 -107 -56.5 -194.5t-160.5 -106.5v-4q94 0 161.5 -53t99.5 -138t32 -190q0 -86 -21.5 -165t-64 -146t-115.5 -107.5t-166 -40.5h-121v147h119q54 0 93.5 31.5t59 82t28 99.5t8.5 99 q0 139 -59.5 223t-160.5 84q-51 0 -81 -6v141h41q82 0 137 56.5t55 158.5q0 42 -8 79t-27 72t-56 55.5t-89 20.5q-51 0 -88 -16t-56.5 -39t-30.5 -62t-13.5 -71.5t-2.5 -79.5v-1075h-172z" />
<glyph unicode="&#xe0;" d="M59 291q0 240 207 303l232 70q38 12 61.5 24.5t36.5 23t19 31.5t7 36.5t1 49.5q0 77 -45.5 119.5t-131.5 42.5q-39 0 -69.5 -10.5t-50 -25t-33.5 -37t-20.5 -41t-10 -42.5t-4 -34.5t-0.5 -24.5v-10h-172q0 189 87 274.5t282 85.5q69 0 123.5 -12t89 -29.5t59 -47.5 t36 -53t17.5 -61t7 -57.5t1 -54.5v-612q0 -22 1 -33.5t6 -26.5t16.5 -21.5t30.5 -6.5q28 0 41 10v-123q-60 -10 -101 -10q-22 0 -34 1t-33 4.5t-33 12.5t-25.5 23.5t-20.5 40t-9 59.5h-4q-41 -72 -114 -115t-151 -43q-150 0 -224.5 84t-74.5 236zM213 1540h201l143 -291 h-123zM240 295q0 -189 155 -189q86 0 153.5 62.5t67.5 146.5v283q-36 -39 -150.5 -75.5t-141.5 -53.5q-44 -28 -64 -66.5t-20 -107.5z" />
<glyph unicode="&#xe1;" d="M59 291q0 240 207 303l232 70q38 12 61.5 24.5t36.5 23t19 31.5t7 36.5t1 49.5q0 77 -45.5 119.5t-131.5 42.5q-39 0 -69.5 -10.5t-50 -25t-33.5 -37t-20.5 -41t-10 -42.5t-4 -34.5t-0.5 -24.5v-10h-172q0 189 87 274.5t282 85.5q69 0 123.5 -12t89 -29.5t59 -47.5 t36 -53t17.5 -61t7 -57.5t1 -54.5v-612q0 -22 1 -33.5t6 -26.5t16.5 -21.5t30.5 -6.5q28 0 41 10v-123q-60 -10 -101 -10q-22 0 -34 1t-33 4.5t-33 12.5t-25.5 23.5t-20.5 40t-9 59.5h-4q-41 -72 -114 -115t-151 -43q-150 0 -224.5 84t-74.5 236zM240 295q0 -189 155 -189 q86 0 153.5 62.5t67.5 146.5v283q-36 -39 -150.5 -75.5t-141.5 -53.5q-44 -28 -64 -66.5t-20 -107.5zM352 1249l144 291h200l-221 -291h-123z" />
<glyph unicode="&#xe2;" d="M59 291q0 240 207 303l232 70q38 12 61.5 24.5t36.5 23t19 31.5t7 36.5t1 49.5q0 77 -45.5 119.5t-131.5 42.5q-39 0 -69.5 -10.5t-50 -25t-33.5 -37t-20.5 -41t-10 -42.5t-4 -34.5t-0.5 -24.5v-10h-172q0 189 87 274.5t282 85.5q69 0 123.5 -12t89 -29.5t59 -47.5 t36 -53t17.5 -61t7 -57.5t1 -54.5v-612q0 -22 1 -33.5t6 -26.5t16.5 -21.5t30.5 -6.5q28 0 41 10v-123q-60 -10 -101 -10q-22 0 -34 1t-33 4.5t-33 12.5t-25.5 23.5t-20.5 40t-9 59.5h-4q-41 -72 -114 -115t-151 -43q-150 0 -224.5 84t-74.5 236zM170 1249l207 291h158 l204 -291h-159l-125 181l-125 -181h-160zM240 295q0 -189 155 -189q86 0 153.5 62.5t67.5 146.5v283q-36 -39 -150.5 -75.5t-141.5 -53.5q-44 -28 -64 -66.5t-20 -107.5z" />
<glyph unicode="&#xe3;" d="M59 291q0 240 207 303l232 70q38 12 61.5 24.5t36.5 23t19 31.5t7 36.5t1 49.5q0 77 -45.5 119.5t-131.5 42.5q-39 0 -69.5 -10.5t-50 -25t-33.5 -37t-20.5 -41t-10 -42.5t-4 -34.5t-0.5 -24.5v-10h-172q0 189 87 274.5t282 85.5q69 0 123.5 -12t89 -29.5t59 -47.5 t36 -53t17.5 -61t7 -57.5t1 -54.5v-612q0 -22 1 -33.5t6 -26.5t16.5 -21.5t30.5 -6.5q28 0 41 10v-123q-60 -10 -101 -10q-22 0 -34 1t-33 4.5t-33 12.5t-25.5 23.5t-20.5 40t-9 59.5h-4q-41 -72 -114 -115t-151 -43q-150 0 -224.5 84t-74.5 236zM154 1274q0 92 55 159.5 t135 67.5q43 0 123 -39q8 -4 29 -13.5t30.5 -13.5t23 -8t23.5 -4q15 0 27 7t19 14.5t12.5 23.5t7.5 23.5t6 24.5h111q0 -54 -19 -104.5t-60.5 -87t-96.5 -36.5q-48 0 -134 39t-102 39q-36 0 -55 -28t-25 -64h-110zM240 295q0 -189 155 -189q86 0 153.5 62.5t67.5 146.5v283 q-36 -39 -150.5 -75.5t-141.5 -53.5q-44 -28 -64 -66.5t-20 -107.5z" />
<glyph unicode="&#xe4;" d="M59 291q0 240 207 303l232 70q38 12 61.5 24.5t36.5 23t19 31.5t7 36.5t1 49.5q0 77 -45.5 119.5t-131.5 42.5q-39 0 -69.5 -10.5t-50 -25t-33.5 -37t-20.5 -41t-10 -42.5t-4 -34.5t-0.5 -24.5v-10h-172q0 189 87 274.5t282 85.5q69 0 123.5 -12t89 -29.5t59 -47.5 t36 -53t17.5 -61t7 -57.5t1 -54.5v-612q0 -22 1 -33.5t6 -26.5t16.5 -21.5t30.5 -6.5q28 0 41 10v-123q-60 -10 -101 -10q-22 0 -34 1t-33 4.5t-33 12.5t-25.5 23.5t-20.5 40t-9 59.5h-4q-41 -72 -114 -115t-151 -43q-150 0 -224.5 84t-74.5 236zM209 1298v207h160v-207 h-160zM240 295q0 -189 155 -189q86 0 153.5 62.5t67.5 146.5v283q-36 -39 -150.5 -75.5t-141.5 -53.5q-44 -28 -64 -66.5t-20 -107.5zM541 1298v207h159v-207h-159z" />
<glyph unicode="&#xe5;" d="M59 291q0 240 207 303l232 70q38 12 61.5 24.5t36.5 23t19 31.5t7 36.5t1 49.5q0 77 -45.5 119.5t-131.5 42.5q-39 0 -69.5 -10.5t-50 -25t-33.5 -37t-20.5 -41t-10 -42.5t-4 -34.5t-0.5 -24.5v-10h-172q0 189 87 274.5t282 85.5q69 0 123.5 -12t89 -29.5t59 -47.5 t36 -53t17.5 -61t7 -57.5t1 -54.5v-612q0 -22 1 -33.5t6 -26.5t16.5 -21.5t30.5 -6.5q28 0 41 10v-123q-60 -10 -101 -10q-22 0 -34 1t-33 4.5t-33 12.5t-25.5 23.5t-20.5 40t-9 59.5h-4q-41 -72 -114 -115t-151 -43q-150 0 -224.5 84t-74.5 236zM240 295q0 -189 155 -189 q86 0 153.5 62.5t67.5 146.5v283q-36 -39 -150.5 -75.5t-141.5 -53.5q-44 -28 -64 -66.5t-20 -107.5zM252 1413q0 85 59 144t144 59t143.5 -59t58.5 -144t-58.5 -144t-143.5 -59t-144 59t-59 144zM338 1413q0 -47 35 -82t82 -35t81.5 35t34.5 82t-34.5 82t-81.5 35t-82 -35 t-35 -82z" />
<glyph unicode="&#xe6;" horiz-adv-x="1366" d="M53 291q0 115 54.5 193.5t154.5 109.5l256 78q47 14 61.5 48.5t14.5 108.5q0 162 -164 162q-36 0 -65 -10.5t-47 -25t-31 -37t-19 -41t-9.5 -42.5t-4 -34.5t-0.5 -24.5v-10h-172q0 187 87 273.5t273 86.5q106 0 175 -40.5t88 -110.5h4q27 67 102 109t156 42 q66 0 118.5 -17.5t88 -45.5t62 -71t41 -86.5t23 -100t11 -103t2.5 -104.5v-70h-559v-59t2 -61t5 -64.5t9.5 -59.5t16 -58t24 -47.5t33.5 -39.5t45 -23.5t57 -9.5q47 0 82.5 19t54.5 46.5t31 64.5t15.5 66t3.5 58h172q0 -39 -9 -85.5t-34 -101.5t-62 -99t-100 -73.5 t-142 -29.5q-65 0 -117.5 17.5t-83.5 41.5t-52.5 54t-30 51t-10.5 37h-5q-91 -201 -305 -201q-137 0 -219 86.5t-82 233.5zM233 297q0 -82 38.5 -136.5t115.5 -54.5q40 0 73 11.5t54 28.5t37 42t24 47t12.5 48.5t5.5 42t1 30.5v193v22h-4q-6 -13 -60.5 -33.5t-128 -42.5 t-77.5 -24q-91 -32 -91 -174zM760 664h373v59q0 50 -9 94.5t-28.5 85t-57 64.5t-88.5 24q-48 0 -84.5 -24t-56 -57t-31.5 -76t-15 -73t-3 -56v-41z" />
<glyph unicode="&#xe7;" horiz-adv-x="872" d="M66 535q0 64 4 119.5t14.5 117t28.5 111.5t48.5 96.5t70.5 77.5t97.5 50t127.5 19q85 0 150.5 -26t102 -64.5t59.5 -90t30.5 -94.5t7.5 -87h-172q0 42 -9 80.5t-28.5 72.5t-54.5 54t-82 20q-36 0 -63.5 -8.5t-57.5 -36.5t-49.5 -75.5t-32 -132.5t-12.5 -201 q0 -32 0.5 -53t2.5 -58.5t5.5 -64t10.5 -62.5t17.5 -61t26.5 -51.5t36 -43t48 -27t62 -10.5q52 0 89.5 25.5t56 68.5t26.5 87t8 94h172q0 -52 -9.5 -103t-32.5 -103.5t-58 -93.5t-90.5 -70.5t-124.5 -37.5l-60 -84l4 -4q30 13 62 13q62 0 113 -39.5t51 -116.5 q0 -76 -65.5 -126t-154.5 -50q-134 0 -202 41l30 69q10 -3 60 -13.5t71 -10.5q59 0 86 23.5t27 60.5q0 34 -28.5 55t-67.5 21q-58 0 -78 -15l-31 37l97 137q-177 15 -258.5 154t-81.5 410z" />
<glyph unicode="&#xe8;" d="M76 535q0 64 4 119.5t14.5 117t28.5 111.5t48.5 96.5t70.5 77.5t97.5 50t127.5 19t126 -17.5t94 -45.5t65.5 -71t43 -86.5t24.5 -100.5t11.5 -103t2.5 -104v-70h-578q0 -50 0.5 -77.5t4.5 -78.5t11.5 -81.5t23 -70t37.5 -61.5t56 -37.5t78 -15.5q47 0 82 19t54.5 46.5 t31 64.5t15 66t3.5 58h172q0 -40 -9 -86t-35 -101.5t-65 -99t-106.5 -73t-152.5 -29.5q-198 0 -289.5 138.5t-91.5 425.5zM213 1540h201l143 -291h-123zM262 664h391v59q0 51 -9 94.5t-29 84.5t-59 65t-93 24q-63 0 -106.5 -34t-62 -86t-25.5 -92t-7 -74v-41z" />
<glyph unicode="&#xe9;" d="M76 535q0 64 4 119.5t14.5 117t28.5 111.5t48.5 96.5t70.5 77.5t97.5 50t127.5 19t126 -17.5t94 -45.5t65.5 -71t43 -86.5t24.5 -100.5t11.5 -103t2.5 -104v-70h-578q0 -50 0.5 -77.5t4.5 -78.5t11.5 -81.5t23 -70t37.5 -61.5t56 -37.5t78 -15.5q47 0 82 19t54.5 46.5 t31 64.5t15 66t3.5 58h172q0 -40 -9 -86t-35 -101.5t-65 -99t-106.5 -73t-152.5 -29.5q-198 0 -289.5 138.5t-91.5 425.5zM262 664h391v59q0 51 -9 94.5t-29 84.5t-59 65t-93 24q-63 0 -106.5 -34t-62 -86t-25.5 -92t-7 -74v-41zM352 1249l144 291h200l-221 -291h-123z" />
<glyph unicode="&#xea;" d="M76 535q0 64 4 119.5t14.5 117t28.5 111.5t48.5 96.5t70.5 77.5t97.5 50t127.5 19t126 -17.5t94 -45.5t65.5 -71t43 -86.5t24.5 -100.5t11.5 -103t2.5 -104v-70h-578q0 -50 0.5 -77.5t4.5 -78.5t11.5 -81.5t23 -70t37.5 -61.5t56 -37.5t78 -15.5q47 0 82 19t54.5 46.5 t31 64.5t15 66t3.5 58h172q0 -40 -9 -86t-35 -101.5t-65 -99t-106.5 -73t-152.5 -29.5q-198 0 -289.5 138.5t-91.5 425.5zM170 1249l207 291h158l204 -291h-159l-125 181l-125 -181h-160zM262 664h391v59q0 51 -9 94.5t-29 84.5t-59 65t-93 24q-63 0 -106.5 -34t-62 -86 t-25.5 -92t-7 -74v-41z" />
<glyph unicode="&#xeb;" d="M76 535q0 64 4 119.5t14.5 117t28.5 111.5t48.5 96.5t70.5 77.5t97.5 50t127.5 19t126 -17.5t94 -45.5t65.5 -71t43 -86.5t24.5 -100.5t11.5 -103t2.5 -104v-70h-578q0 -50 0.5 -77.5t4.5 -78.5t11.5 -81.5t23 -70t37.5 -61.5t56 -37.5t78 -15.5q47 0 82 19t54.5 46.5 t31 64.5t15 66t3.5 58h172q0 -40 -9 -86t-35 -101.5t-65 -99t-106.5 -73t-152.5 -29.5q-198 0 -289.5 138.5t-91.5 425.5zM209 1298v207h160v-207h-160zM262 664h391v59q0 51 -9 94.5t-29 84.5t-59 65t-93 24q-63 0 -106.5 -34t-62 -86t-25.5 -92t-7 -74v-41zM541 1298v207 h159v-207h-159z" />
<glyph unicode="&#xec;" horiz-adv-x="417" d="M-33 1540h201l143 -291h-123zM123 0v1098h172v-1098h-172z" />
<glyph unicode="&#xed;" horiz-adv-x="417" d="M106 1249l144 291h201l-222 -291h-123zM123 0v1098h172v-1098h-172z" />
<glyph unicode="&#xee;" horiz-adv-x="417" d="M-76 1249l207 291h158l205 -291h-160l-125 181l-125 -181h-160zM123 0v1098h172v-1098h-172z" />
<glyph unicode="&#xef;" horiz-adv-x="417" d="M-37 1298v207h160v-207h-160zM123 0v1098h172v-1098h-172zM295 1298v207h160v-207h-160z" />
<glyph unicode="&#xf0;" d="M59 549q0 94 10.5 171.5t38 149.5t71.5 121t114 78t162 29q65 0 120 -35h5q-89 135 -185 240l-149 -84l-78 86l145 81q-67 67 -157 138l131 57q90 -73 147 -125l152 86l78 -86l-144 -82q110 -110 179.5 -222t110 -263.5t40.5 -339.5q0 -98 -10.5 -179t-38 -157t-71 -128 t-113.5 -83t-162 -31t-162.5 31t-114 83t-71 128t-38 157t-10.5 179zM240 549q0 -98 8.5 -171t30.5 -138t65 -99.5t107 -34.5q66 0 110.5 34.5t67.5 99.5t32 138t9 171q0 414 -219 414q-211 0 -211 -414z" />
<glyph unicode="&#xf1;" horiz-adv-x="948" d="M113 0v1098h163v-129h5q33 72 108 114.5t158 42.5q47 0 86 -8t67 -20.5t50 -33.5t36.5 -40t24.5 -48.5t14.5 -49.5t7 -52.5t3 -49t0.5 -46.5v-778h-172v758q0 33 -1.5 56t-10.5 57t-25 55t-48 37t-77 16q-37 0 -73.5 -12.5t-69.5 -37.5t-53.5 -69.5t-20.5 -101.5v-758 h-172zM174 1274q0 92 55 159.5t136 67.5q42 0 122 -39q7 -3 29 -13t31 -14t23 -8t24 -4q15 0 27 7t19 14.5t12.5 23.5t7.5 23.5t6 24.5h110q0 -54 -19 -104.5t-60.5 -87t-96.5 -36.5q-48 0 -133.5 39t-101.5 39q-36 0 -55 -28t-25 -64h-111z" />
<glyph unicode="&#xf2;" d="M59 549q0 98 10.5 179t38.5 157t71.5 127.5t113.5 82.5t162 31t162.5 -31t114 -82.5t70.5 -127.5t37.5 -157t10.5 -179t-10.5 -179t-38 -157t-71 -128t-113.5 -83t-162 -31t-162.5 31t-114 83t-71 128t-38 157t-10.5 179zM213 1540h201l143 -291h-123zM240 549 q0 -98 8.5 -171t30.5 -138t65 -99.5t107 -34.5q66 0 110.5 34.5t67.5 99.5t32 138t9 171t-9 171t-31.5 138t-67.5 99t-111 34q-63 0 -106 -34.5t-65 -99t-31 -138t-9 -170.5z" />
<glyph unicode="&#xf3;" d="M59 549q0 98 10.5 179t38.5 157t71.5 127.5t113.5 82.5t162 31t162.5 -31t114 -82.5t70.5 -127.5t37.5 -157t10.5 -179t-10.5 -179t-38 -157t-71 -128t-113.5 -83t-162 -31t-162.5 31t-114 83t-71 128t-38 157t-10.5 179zM240 549q0 -98 8.5 -171t30.5 -138t65 -99.5 t107 -34.5q66 0 110.5 34.5t67.5 99.5t32 138t9 171t-9 171t-31.5 138t-67.5 99t-111 34q-63 0 -106 -34.5t-65 -99t-31 -138t-9 -170.5zM352 1249l144 291h200l-221 -291h-123z" />
<glyph unicode="&#xf4;" d="M59 549q0 98 10.5 179t38.5 157t71.5 127.5t113.5 82.5t162 31t162.5 -31t114 -82.5t70.5 -127.5t37.5 -157t10.5 -179t-10.5 -179t-38 -157t-71 -128t-113.5 -83t-162 -31t-162.5 31t-114 83t-71 128t-38 157t-10.5 179zM170 1249l207 291h158l204 -291h-159l-125 181 l-125 -181h-160zM240 549q0 -98 8.5 -171t30.5 -138t65 -99.5t107 -34.5q66 0 110.5 34.5t67.5 99.5t32 138t9 171t-9 171t-31.5 138t-67.5 99t-111 34q-63 0 -106 -34.5t-65 -99t-31 -138t-9 -170.5z" />
<glyph unicode="&#xf5;" d="M59 549q0 98 10.5 179t38.5 157t71.5 127.5t113.5 82.5t162 31t162.5 -31t114 -82.5t70.5 -127.5t37.5 -157t10.5 -179t-10.5 -179t-38 -157t-71 -128t-113.5 -83t-162 -31t-162.5 31t-114 83t-71 128t-38 157t-10.5 179zM154 1274q0 92 55 159.5t135 67.5q43 0 123 -39 q8 -4 29 -13.5t30.5 -13.5t23 -8t23.5 -4q15 0 27 7t19 14.5t12.5 23.5t7.5 23.5t6 24.5h111q0 -54 -19 -104.5t-60.5 -87t-96.5 -36.5q-48 0 -134 39t-102 39q-36 0 -55 -28t-25 -64h-110zM240 549q0 -98 8.5 -171t30.5 -138t65 -99.5t107 -34.5q66 0 110.5 34.5t67.5 99.5 t32 138t9 171t-9 171t-31.5 138t-67.5 99t-111 34q-63 0 -106 -34.5t-65 -99t-31 -138t-9 -170.5z" />
<glyph unicode="&#xf6;" d="M59 549q0 98 10.5 179t38.5 157t71.5 127.5t113.5 82.5t162 31t162.5 -31t114 -82.5t70.5 -127.5t37.5 -157t10.5 -179t-10.5 -179t-38 -157t-71 -128t-113.5 -83t-162 -31t-162.5 31t-114 83t-71 128t-38 157t-10.5 179zM209 1298v207h160v-207h-160zM240 549 q0 -98 8.5 -171t30.5 -138t65 -99.5t107 -34.5q66 0 110.5 34.5t67.5 99.5t32 138t9 171t-9 171t-31.5 138t-67.5 99t-111 34q-63 0 -106 -34.5t-65 -99t-31 -138t-9 -170.5zM541 1298v207h159v-207h-159z" />
<glyph unicode="&#xf7;" horiz-adv-x="1228" d="M96 451v135h1037v-135h-1037zM500 86q0 47 33.5 81t80.5 34t81 -34t34 -81t-34 -81t-81 -34t-80.5 34t-33.5 81zM500 950q0 47 33.5 81t80.5 34t81 -34t34 -81t-34 -80.5t-81 -33.5t-80.5 33.5t-33.5 80.5z" />
<glyph unicode="&#xf8;" d="M59 549q0 98 10.5 179t38.5 157t71.5 127.5t113.5 82.5t162 31q104 0 172 -36l53 124l98 -43l-61 -145q133 -147 133 -477q0 -98 -10.5 -179t-38 -157t-71 -128t-113.5 -83t-162 -31q-102 0 -172 37l-56 -129l-96 39l66 156q-138 135 -138 475zM240 549q0 -188 34 -291 l293 690q-49 43 -116 43q-63 0 -106 -34.5t-65 -99t-31 -138t-9 -170.5zM342 145q42 -39 109 -39q66 0 110.5 34.5t67.5 99.5t32 138t9 171q0 184 -35 285z" />
<glyph unicode="&#xf9;" horiz-adv-x="948" d="M113 319v779h172v-758q0 -33 1.5 -56t10.5 -57t25 -55t47.5 -37t76.5 -16q37 0 73.5 12.5t69.5 37.5t54 69.5t21 101.5v758h172v-1098h-164v129h-4q-33 -73 -108.5 -115.5t-158.5 -42.5q-60 0 -107 13.5t-76.5 32t-51 51.5t-31.5 58.5t-15.5 68t-6 64t-0.5 60.5z M233 1540h201l144 -291h-123z" />
<glyph unicode="&#xfa;" horiz-adv-x="948" d="M113 319v779h172v-758q0 -33 1.5 -56t10.5 -57t25 -55t47.5 -37t76.5 -16q37 0 73.5 12.5t69.5 37.5t54 69.5t21 101.5v758h172v-1098h-164v129h-4q-33 -73 -108.5 -115.5t-158.5 -42.5q-60 0 -107 13.5t-76.5 32t-51 51.5t-31.5 58.5t-15.5 68t-6 64t-0.5 60.5z M373 1249l143 291h201l-221 -291h-123z" />
<glyph unicode="&#xfb;" horiz-adv-x="948" d="M113 319v779h172v-758q0 -33 1.5 -56t10.5 -57t25 -55t47.5 -37t76.5 -16q37 0 73.5 12.5t69.5 37.5t54 69.5t21 101.5v758h172v-1098h-164v129h-4q-33 -73 -108.5 -115.5t-158.5 -42.5q-60 0 -107 13.5t-76.5 32t-51 51.5t-31.5 58.5t-15.5 68t-6 64t-0.5 60.5z M190 1249l207 291h158l205 -291h-160l-125 181l-125 -181h-160z" />
<glyph unicode="&#xfc;" horiz-adv-x="948" d="M113 319v779h172v-758q0 -33 1.5 -56t10.5 -57t25 -55t47.5 -37t76.5 -16q37 0 73.5 12.5t69.5 37.5t54 69.5t21 101.5v758h172v-1098h-164v129h-4q-33 -73 -108.5 -115.5t-158.5 -42.5q-60 0 -107 13.5t-76.5 32t-51 51.5t-31.5 58.5t-15.5 68t-6 64t-0.5 60.5z M229 1298v207h160v-207h-160zM561 1298v207h160v-207h-160z" />
<glyph unicode="&#xfd;" horiz-adv-x="831" d="M20 1098h189l217 -881h4l193 881h188l-317 -1172q-11 -39 -18.5 -64t-21 -58.5t-28 -54.5t-36.5 -44t-48 -35.5t-62 -21t-79 -8.5q-38 0 -125 6v135q37 -6 100 -6q99 0 135 106l33 96zM313 1249l144 291h200l-221 -291h-123z" />
<glyph unicode="&#xfe;" horiz-adv-x="948" d="M113 -360v1822h172v-489h4q19 68 87.5 110.5t141.5 42.5q95 0 165.5 -40.5t112 -116t61.5 -175t20 -225.5q0 -67 -7 -131.5t-22.5 -134t-43.5 -127.5t-66 -105t-94.5 -73.5t-125.5 -26.5q-74 0 -137 42t-92 112h-4v-485h-172zM274 549q0 -430 222 -430q59 0 98.5 29.5 t61.5 90.5t31 139.5t9 190.5q0 96 -9 167t-30.5 128t-62 86t-98.5 29q-56 0 -96 -21.5t-64 -57t-38.5 -93t-19 -117t-4.5 -141.5z" />
<glyph unicode="&#xff;" horiz-adv-x="831" d="M20 1098h189l217 -881h4l193 881h188l-317 -1172q-11 -39 -18.5 -64t-21 -58.5t-28 -54.5t-36.5 -44t-48 -35.5t-62 -21t-79 -8.5q-38 0 -125 6v135q37 -6 100 -6q99 0 135 106l33 96zM170 1298v207h160v-207h-160zM502 1298v207h160v-207h-160z" />
<glyph unicode="&#x152;" horiz-adv-x="1630" d="M98 731q0 85 5 158.5t18 153t35 143t58.5 122t84.5 98t117 62.5t153 23q85 0 167.5 -37.5t115.5 -103.5h4v112h700v-159h-532v-459h500v-160h-500v-524h557v-160h-733v129h-4q-27 -72 -104 -115t-171 -43q-84 0 -152.5 22t-117 59t-85 94t-58.5 119.5t-35 142.5t-18 156 t-5 167zM279 731q0 -80 2.5 -141t10 -127.5t20.5 -115t35 -93.5t52 -73.5t73 -45t97 -16.5q68 0 118 19t79.5 50t47.5 79t24 96.5t6 111.5v473q0 54 -1 88t-7 80t-16.5 75t-30.5 61t-49 49.5t-72 29.5t-99 12q-54 0 -97 -16.5t-73 -45t-52 -73.5t-35 -93.5t-20.5 -115 t-10 -127.5t-2.5 -141z" />
<glyph unicode="&#x153;" horiz-adv-x="1478" d="M80 549q0 94 10.5 174.5t37.5 156.5t69.5 129t110.5 85t157 32q111 0 180 -44t121 -142q38 85 116.5 135.5t170.5 50.5q66 0 118.5 -17.5t88 -45.5t62 -71t41 -86.5t23 -100t11 -103t2.5 -104.5v-70h-559v-59t2 -61t5 -64.5t9.5 -59.5t16 -58t24 -47.5t33.5 -39.5 t45 -23.5t57 -9.5q47 0 82.5 19t54.5 46.5t31 64.5t15.5 66t3.5 58h172q0 -39 -9 -85.5t-34 -101.5t-62 -99t-100 -73.5t-142 -29.5q-65 0 -118 19t-82 41.5t-52 55.5t-28 45.5t-10 27.5q-38 -88 -115 -138.5t-174 -50.5q-385 0 -385 578zM260 549q0 -73 5 -133t18.5 -119.5 t35.5 -100t59.5 -65.5t86.5 -25q64 0 108 36t66.5 102.5t31.5 139t9 165.5t-9 165.5t-31 138.5t-66 102t-109 36q-205 0 -205 -442zM846 664h373v59q0 50 -9 94.5t-28.5 85t-57 64.5t-88.5 24q-48 0 -84.5 -24t-56 -57t-31.5 -76t-15 -73t-3 -56v-41z" />
<glyph unicode="&#x178;" horiz-adv-x="946" d="M-4 1462h199l278 -684l289 684h188l-387 -889v-573h-180v573zM227 1591v207h160v-207h-160zM559 1591v207h160v-207h-160z" />
<glyph unicode="&#x2c6;" horiz-adv-x="417" d="M-76 1249l207 291h158l205 -291h-160l-125 181l-125 -181h-160z" />
<glyph unicode="&#x2dc;" horiz-adv-x="417" d="M-92 1274q0 92 55 159.5t135 67.5q43 0 123 -39q7 -3 29 -13t31 -14t23 -8t24 -4q15 0 27 7t18.5 14.5t12.5 24t7.5 23t5.5 24.5h111q0 -54 -19 -104.5t-60.5 -87t-96.5 -36.5q-48 0 -134 39t-102 39q-36 0 -55 -28t-25 -64h-110z" />
<glyph unicode="&#x2000;" horiz-adv-x="954" />
<glyph unicode="&#x2001;" horiz-adv-x="1909" />
<glyph unicode="&#x2002;" horiz-adv-x="954" />
<glyph unicode="&#x2003;" horiz-adv-x="1909" />
<glyph unicode="&#x2004;" horiz-adv-x="636" />
<glyph unicode="&#x2005;" horiz-adv-x="477" />
<glyph unicode="&#x2006;" horiz-adv-x="318" />
<glyph unicode="&#x2007;" horiz-adv-x="318" />
<glyph unicode="&#x2008;" horiz-adv-x="238" />
<glyph unicode="&#x2009;" horiz-adv-x="381" />
<glyph unicode="&#x200a;" horiz-adv-x="106" />
<glyph unicode="&#x2010;" horiz-adv-x="720" d="M111 502v160h499v-160h-499z" />
<glyph unicode="&#x2011;" horiz-adv-x="720" d="M111 502v160h499v-160h-499z" />
<glyph unicode="&#x2012;" horiz-adv-x="720" d="M111 502v160h499v-160h-499z" />
<glyph unicode="&#x2013;" horiz-adv-x="1024" d="M0 508v147h1024v-147h-1024z" />
<glyph unicode="&#x2014;" horiz-adv-x="2048" d="M0 508v147h2048v-147h-2048z" />
<glyph unicode="&#x2018;" horiz-adv-x="491" d="M152 942v178q0 46 2 77t7.5 69.5t18.5 66t33 54t52 45.5t75 30v-96q-53 -26 -71.5 -60.5t-18.5 -97.5v-49h90v-217h-188z" />
<glyph unicode="&#x2019;" horiz-adv-x="491" d="M152 942v96q53 26 71.5 60.5t18.5 97.5v49h-90v217h188v-178q0 -46 -2 -77t-7.5 -69.5t-18.5 -66t-33 -54t-52 -45.5t-75 -30z" />
<glyph unicode="&#x201a;" horiz-adv-x="491" d="M152 0v217h188v-178q0 -46 -2 -77t-7.5 -69.5t-18.5 -66t-33 -54t-52 -45.5t-75 -30v96q53 26 71.5 60.5t18.5 97.5v49h-90z" />
<glyph unicode="&#x201c;" horiz-adv-x="833" d="M162 942v178q0 46 2 77t7.5 69.5t18.5 66t33 54t52 45.5t75 30v-96q-53 -26 -71.5 -60.5t-18.5 -97.5v-49h90v-217h-188zM483 942v178q0 55 2.5 92t13.5 81.5t30.5 74t55.5 55t87 39.5v-96q-53 -26 -71.5 -60.5t-18.5 -97.5v-49h90v-217h-189z" />
<glyph unicode="&#x201d;" horiz-adv-x="833" d="M162 942v96q53 26 71.5 60.5t18.5 97.5v49h-90v217h188v-178q0 -46 -2 -77t-7.5 -69.5t-18.5 -66t-33 -54t-52 -45.5t-75 -30zM483 942v96q53 26 71.5 60.5t18.5 97.5v49h-90v217h189v-178q0 -55 -2.5 -92t-13.5 -81.5t-30.5 -74t-55.5 -55t-87 -39.5z" />
<glyph unicode="&#x201e;" horiz-adv-x="833" d="M162 0v217h188v-178q0 -46 -2 -77t-7.5 -69.5t-18.5 -66t-33 -54t-52 -45.5t-75 -30v96q53 26 71.5 60.5t18.5 97.5v49h-90zM483 0v217h189v-178q0 -55 -2.5 -92t-13.5 -81.5t-30.5 -74t-55.5 -55t-87 -39.5v96q53 26 71.5 60.5t18.5 97.5v49h-90z" />
<glyph unicode="&#x2022;" horiz-adv-x="1024" d="M147 731q0 151 107 258t258 107t258 -107t107 -258t-107 -257.5t-258 -106.5t-258 106.5t-107 257.5z" />
<glyph unicode="&#x2026;" horiz-adv-x="2048" d="M248 0v217h188v-217h-188zM930 0v217h188v-217h-188zM1612 0v217h188v-217h-188z" />
<glyph unicode="&#x202f;" horiz-adv-x="381" />
<glyph unicode="&#x2039;" horiz-adv-x="491" d="M100 502v160l291 292v-180l-192 -192l192 -193v-180z" />
<glyph unicode="&#x203a;" horiz-adv-x="491" d="M100 209v180l193 193l-193 192v180l291 -292v-160z" />
<glyph unicode="&#x205f;" horiz-adv-x="477" />
<glyph unicode="&#x20ac;" horiz-adv-x="983" d="M37 801l43 123h90q50 532 469 532q88 0 161 -25t152 -77l-65 -146q-63 54 -117.5 80.5t-122.5 26.5q-48 0 -87 -12.5t-67 -32.5t-50 -51t-35.5 -62.5t-23.5 -74t-15 -78t-9 -80.5h465l-43 -123h-430l-2 -113h400l-43 -123h-355q2 -67 8 -121t24.5 -119.5t47.5 -109.5 t81.5 -74t123.5 -30q81 0 150.5 33t144.5 94v-179q-137 -88 -309 -88q-105 0 -185 33.5t-128.5 87t-81 133.5t-46 160t-18.5 180h-125l43 123h80l2 113h-127z" />
<glyph unicode="&#x2122;" horiz-adv-x="2027" d="M106 1339v123h674v-123h-266v-721h-135v721h-273zM944 618v844h201l266 -647l260 647h201v-844h-135v697h-4l-285 -697h-80l-285 697h-4v-697h-135z" />
<glyph unicode="&#xe000;" horiz-adv-x="1095" d="M0 0v1096h1096v-1096h-1096z" />
</font>
</defs>
</svg>
