<?xml version="1.0" standalone="no"?>
<!DOCTYPE svg PUBLIC "-//W3C//DTD SVG 1.1//EN" "http://www.w3.org/Graphics/SVG/1.1/DTD/svg11.dtd" >
<svg xmlns="http://www.w3.org/2000/svg">
<metadata></metadata>
<defs>
<font id="helvetica_neueroman" horiz-adv-x="1138" >
<font-face units-per-em="2048" ascent="1638" descent="-410" />
<missing-glyph horiz-adv-x="569" />
<glyph unicode="&#xd;" horiz-adv-x="681" />
<glyph unicode=" "  horiz-adv-x="569" />
<glyph unicode="&#x09;" horiz-adv-x="569" />
<glyph unicode="&#xa0;" horiz-adv-x="569" />
<glyph unicode="!" horiz-adv-x="530" d="M152 0v227h227v-227h-227zM168 1012v450h194v-450l-51 -637h-92z" />
<glyph unicode="&#x22;" horiz-adv-x="872" d="M223 934v528h139v-528h-139zM510 934v528h139v-528h-139z" />
<glyph unicode="#" d="M70 422v139h219l43 307h-209v140h227l60 419h141l-59 -419h253l60 419h141l-59 -419h182v-140h-201l-43 -307h187v-139h-207l-60 -422h-141l60 422h-254l-60 -422h-141l59 422h-198zM430 561h254l43 307h-254z" />
<glyph unicode="$" d="M51 446h174q4 -133 83 -214.5t206 -102.5v543q-227 55 -323.5 139t-96.5 256q0 182 120 301t300 129v135h113v-137q319 -39 403 -405h-174q-41 203 -229 237v-504l123 -32q47 -12 96 -37t104.5 -68t90 -115.5t34.5 -160.5q0 -193 -124 -310.5t-324 -134.5v-168h-113v168 q-203 20 -325 145t-138 336zM279 1085q0 -100 57 -147t178 -84v479q-104 -12 -169.5 -74.5t-65.5 -173.5zM627 129q264 20 264 262q0 106 -66.5 160.5t-197.5 91.5v-514z" />
<glyph unicode="%" horiz-adv-x="2048" d="M188 1036q0 184 78 300t254 116q328 0 328 -410q0 -176 -81 -293.5t-247 -117.5q-174 0 -253 111.5t-79 293.5zM342 1040q0 -297 172 -297q180 0 180 299q0 297 -174 297q-178 0 -178 -299zM385 -45l1102 1524h174l-1100 -1524h-176zM1200 381q0 184 78 300t254 116 q328 0 328 -410q0 -176 -81 -294t-247 -118q-174 0 -253 112t-79 294zM1354 385q0 -297 172 -297q180 0 180 299q0 297 -174 297q-178 0 -178 -299z" />
<glyph unicode="&#x26;" horiz-adv-x="1290" d="M68 375q0 158 88 257t254 185q-12 18 -47 64.5t-47.5 67t-33 58t-27.5 74.5t-7 80q0 125 89 213t241 88q147 0 250.5 -78.5t103.5 -220.5q0 -223 -275 -379l265 -321q41 111 47 227h166q-10 -123 -30 -189.5t-69 -170.5l285 -330h-227l-156 182q-63 -100 -176 -153.5 t-238 -53.5q-139 0 -236.5 44t-141.5 113t-61 128t-17 115zM252 377q0 -106 84 -177t194 -71q195 0 312 174l-336 404q-127 -72 -190.5 -141.5t-63.5 -188.5zM422 1153q0 -18 4 -36.5t14.5 -39t16.5 -35t24.5 -39t25.5 -33.5t29.5 -37t26.5 -34q55 35 91 63.5t70 81 t34 109.5q0 66 -46 111t-122 45q-68 0 -118 -40t-50 -116z" />
<glyph unicode="'" horiz-adv-x="569" d="M215 934v528h139v-528h-139z" />
<glyph unicode="(" horiz-adv-x="530" d="M96 553q0 242 83 489.5t239 454.5h133q-270 -426 -270 -944q0 -523 270 -959h-133q-160 248 -241 476.5t-81 482.5z" />
<glyph unicode=")" horiz-adv-x="530" d="M-20 -406q270 426 270 945q0 522 -270 958h133q160 -248 240.5 -476t80.5 -482q0 -242 -82.5 -490t-238.5 -455h-133z" />
<glyph unicode="*" horiz-adv-x="720" d="M49 1214l37 99l217 -82v231h109v-231l219 82l41 -99l-223 -77l135 -187l-84 -63l-142 196l-133 -196l-92 63l133 187z" />
<glyph unicode="+" horiz-adv-x="1228" d="M98 449v139h447v448h139v-448h446v-139h-446v-449h-139v449h-447z" />
<glyph unicode="," horiz-adv-x="569" d="M170 0v227h227v-207q0 -258 -225 -321v102q63 20 93 81t26 118h-121z" />
<glyph unicode="-" horiz-adv-x="796" d="M102 487v164h592v-164h-592z" />
<glyph unicode="." horiz-adv-x="569" d="M170 0v227h227v-227h-227z" />
<glyph unicode="/" horiz-adv-x="681" d="M-37 -35l606 1532h150l-606 -1532h-150z" />
<glyph unicode="0" d="M86 713q0 119 6 202.5t34 193.5t77 178.5t142 116.5t224 48t224.5 -48t142.5 -116.5t76.5 -178.5t34 -194t6.5 -202q0 -117 -6.5 -202t-34 -193.5t-76.5 -177t-142.5 -117t-224.5 -48.5t-224 48.5t-142 117t-77 177t-34 193.5t-6 202zM270 715q0 -76 2 -121t9.5 -125 t27 -130t51 -103.5t85 -80t125 -26.5t125 26.5t85 80t51 103.5t26.5 130t9 125t2 121q0 74 -2 120t-9 124.5t-26.5 130t-51 103.5t-85 78.5t-125 26.5t-125 -26.5t-85 -78.5t-51 -103.5t-27 -130t-9.5 -124.5t-2 -120z" />
<glyph unicode="1" d="M178 1040v140q369 0 418 272h133v-1452h-174v1040h-377z" />
<glyph unicode="2" d="M49 0q10 123 44 217t96.5 164t117.5 113t150 100q209 129 289.5 216t80.5 226q0 117 -80.5 189.5t-199.5 72.5q-141 0 -214 -107.5t-69 -252.5h-174q-10 225 116 369.5t351 144.5q199 0 327 -110.5t128 -307.5q0 -172 -92.5 -282.5t-260.5 -214.5q-16 -10 -75.5 -45 t-81 -49.5t-67.5 -45t-67.5 -53t-50 -54.5t-43 -66t-22.5 -70h745v-154h-948z" />
<glyph unicode="3" d="M61 449h175q4 -145 83.5 -232.5t225.5 -87.5q133 0 224 77t91 204q0 131 -87 204.5t-222 73.5q-56 0 -105 -6v147q27 -2 76 -2q117 0 197 62.5t80 175.5q0 111 -72 172t-186 61q-135 0 -204 -89t-71 -226h-174q8 215 123 342t326 127q199 0 320.5 -98.5t121.5 -290.5 q0 -92 -57.5 -170t-143.5 -119v-4q129 -29 195.5 -123t66.5 -229q0 -209 -142 -326t-357 -117q-223 0 -355.5 126t-128.5 348z" />
<glyph unicode="4" d="M57 340v168l662 944h139v-958h197v-154h-197v-340h-164v340h-637zM207 494h487v710h-4z" />
<glyph unicode="5" d="M72 391h174q8 -115 92 -188.5t213 -73.5q131 0 219 89t88 255q0 145 -91 237.5t-237 92.5q-158 0 -270 -137l-149 8l135 753h717v-153h-586l-78 -418l4 -4q92 104 270 104q205 0 337 -129t132 -368q0 -199 -134 -341.5t-373 -142.5q-195 0 -327 113t-136 303z" />
<glyph unicode="6" d="M78 674q0 160 26.5 292t85 245.5t166 177t256.5 63.5q180 0 288 -97.5t122 -273.5h-174q-12 100 -76.5 158.5t-167.5 58.5q-332 0 -352 -550l4 -5q117 190 362 191q205 0 325 -132t120 -339q0 -86 -25.5 -167t-79 -155.5t-151.5 -120t-229 -45.5q-500 0 -500 699z M285 453q0 -139 80.5 -231.5t220.5 -92.5q135 0 214 93t79 229q0 143 -75 236t-218 93q-141 0 -221 -93t-80 -234z" />
<glyph unicode="7" d="M102 1264v163h940v-149q-221 -219 -378.5 -579.5t-178.5 -698.5h-194q25 354 178.5 681t394.5 583h-762z" />
<glyph unicode="8" d="M82 418q0 129 66.5 224t187.5 138q-90 37 -146.5 120t-56.5 181q0 172 125 271.5t301 99.5q221 0 330.5 -108.5t109.5 -262.5q0 -96 -55 -178t-145 -123q258 -82 258 -362q0 -205 -136.5 -324t-345.5 -119q-219 0 -356 114t-137 329zM266 410q0 -129 86 -205t223 -76 q129 0 213 80t84 203q0 117 -87 196.5t-212 79.5q-131 0 -219 -77.5t-88 -200.5zM317 1075q0 -115 72 -174t186 -59q106 0 173 62.5t67 170.5q0 106 -67.5 164.5t-176 58.5t-181.5 -59.5t-73 -163.5z" />
<glyph unicode="9" d="M70 979q0 211 133 342t344 131q498 0 497 -694q0 -782 -503 -783q-188 0 -306.5 96.5t-134.5 278.5h174q8 -102 83 -161.5t184 -59.5q313 0 327 561l-4 4q-49 -92 -139 -146t-197 -54q-217 0 -337.5 133t-120.5 352zM254 954q0 -123 82 -215t205 -92q133 0 215 93.5 t82 226.5q0 141 -80 236t-219 95q-145 0 -215 -98t-70 -246z" />
<glyph unicode=":" horiz-adv-x="569" d="M170 0v227h227v-227h-227zM170 831v228h227v-228h-227z" />
<glyph unicode=";" horiz-adv-x="569" d="M170 0v227h227v-207q2 -119 -54 -203.5t-171 -117.5v102q63 20 93 81t26 118h-121zM170 831v228h227v-228h-227z" />
<glyph unicode="&#x3c;" horiz-adv-x="1228" d="M94 455v127l1041 471v-140l-871 -395l871 -395v-139z" />
<glyph unicode="=" horiz-adv-x="1228" d="M98 242v139h1032v-139h-1032zM98 655v140h1032v-140h-1032z" />
<glyph unicode="&#x3e;" horiz-adv-x="1228" d="M94 -16v139l871 395l-871 395v140l1041 -471v-127z" />
<glyph unicode="?" d="M113 1006q-4 215 121.5 353t336.5 138q193 0 313 -109.5t120 -300.5q0 -78 -28 -146.5t-60.5 -108t-88.5 -93.5q-63 -59 -89.5 -87.5t-57.5 -89t-31 -126.5v-80h-174v97q0 49 13.5 95t25.5 72.5t48 69.5t45 52.5t52 52.5q96 96 123 145q43 74 37 164q-8 113 -73.5 176 t-174.5 63q-139 0 -212.5 -93.5t-71.5 -243.5h-174zM446 0v227h228v-227h-228z" />
<glyph unicode="@" horiz-adv-x="1638" d="M86 737q0 315 223 537.5t537 222.5q289 0 492.5 -179t203.5 -452q0 -127 -47 -241.5t-119.5 -189.5t-155.5 -119t-157 -44q-55 0 -92 34t-39 100h-6q-117 -137 -254 -138q-129 0 -211 93.5t-82 230.5q0 225 137 403.5t344 178.5q166 0 230 -168l47 129h129l-172 -582 q-23 -76 -23 -104q0 -63 49 -64q94 0 188.5 154.5t94.5 316.5q0 233 -165 380.5t-390 147.5q-260 0 -441.5 -193.5t-181.5 -463.5q0 -272 186.5 -460.5t446.5 -188.5q145 0 283.5 67.5t224.5 180.5h129q-98 -168 -270 -264.5t-371 -96.5q-324 0 -546 224.5t-222 547.5z M532 606q0 -86 50.5 -142t126.5 -56q125 0 221 148.5t96 287.5q0 74 -51.5 132t-114.5 58q-135 0 -231.5 -140t-96.5 -288z" />
<glyph unicode="A" horiz-adv-x="1327" d="M-14 0l571 1462h215l571 -1462h-215l-159 440h-619l-164 -440h-200zM412 604h495l-243 682h-5z" />
<glyph unicode="B" horiz-adv-x="1402" d="M160 0v1462h530q299 0 387 -53q172 -102 172 -305q0 -115 -57 -201t-160 -127v-4q133 -27 206 -121t73 -231q0 -172 -119 -296t-326 -124h-706zM354 164h488q125 0 199.5 70.5t74.5 191.5q0 244 -317 244h-445v-506zM354 834h389q164 0 238 58t74 175q0 74 -23.5 122 t-71 70.5t-96.5 30.5t-121 8h-389v-464z" />
<glyph unicode="C" horiz-adv-x="1478" d="M88 727q0 332 183.5 551t508.5 219q238 0 403.5 -124t198.5 -351h-194q-31 152 -141.5 231.5t-268.5 79.5q-246 0 -370.5 -171t-124.5 -421q0 -268 123.5 -440t373.5 -172q186 0 297 116.5t125 305.5h195q-29 -276 -194 -431t-439 -155q-328 0 -502 213t-174 549z" />
<glyph unicode="D" horiz-adv-x="1441" d="M160 0v1462h502q342 0 522 -174t180 -522q0 -766 -702 -766h-502zM354 164h324q53 0 103 7t126 41t129.5 91t93 170t39.5 266q0 274 -114.5 416.5t-372.5 142.5h-328v-1134z" />
<glyph unicode="E" horiz-adv-x="1251" d="M160 0v1462h1009v-164h-815v-464h760v-164h-760v-506h822v-164h-1016z" />
<glyph unicode="F" horiz-adv-x="1175" d="M160 0v1462h960v-164h-766v-464h672v-164h-672v-670h-194z" />
<glyph unicode="G" horiz-adv-x="1554" d="M88 702q0 338 182.5 566.5t513.5 228.5q252 0 421 -120t208 -365h-194q-29 160 -147 240.5t-288 80.5q-127 0 -226 -52t-157.5 -141t-88 -197.5t-29.5 -229.5q0 -242 134 -413t367 -171q221 0 350 136q120 125 120 309q0 16 -1 32h-467v164h641v-770h-122l-52 182 q-80 -109 -205.5 -163t-263.5 -54q-313 0 -504.5 218t-191.5 519z" />
<glyph unicode="H" horiz-adv-x="1478" d="M160 0v1462h194v-628h770v628h195v-1462h-195v670h-770v-670h-194z" />
<glyph unicode="I" horiz-adv-x="530" d="M168 0v1462h194v-1462h-194z" />
<glyph unicode="J" horiz-adv-x="1062" d="M45 391v90h195v-61q0 -141 51 -216t184 -75q127 0 180.5 67.5t53.5 196.5v1069h194v-1097q0 -170 -102.5 -285t-329.5 -115q-205 0 -315.5 110.5t-110.5 315.5z" />
<glyph unicode="K" horiz-adv-x="1366" d="M160 0v1462h194v-729l742 729h252l-617 -590l641 -872h-246l-528 739l-244 -227v-512h-194z" />
<glyph unicode="L" d="M160 0v1462h194v-1298h774v-164h-968z" />
<glyph unicode="M" horiz-adv-x="1783" d="M164 0v1462h266l461 -1229l463 1229h266v-1462h-184v1217h-4l-457 -1217h-166l-457 1217h-4v-1217h-184z" />
<glyph unicode="N" horiz-adv-x="1478" d="M158 0v1462h207l770 -1186h4v1186h184v-1462h-213l-764 1174h-4v-1174h-184z" />
<glyph unicode="O" horiz-adv-x="1556" d="M78 731q0 205 75.5 375t238.5 280.5t386 110.5t386 -110.5t239 -280.5t76 -375t-76 -375t-239 -280.5t-386 -110.5t-386 110.5t-238.5 280.5t-75.5 375zM272 731q0 -156 50.5 -288t168 -223t287.5 -91t288 91t168 223t50 288t-50 288t-168 223t-288 91t-287.5 -91 t-168 -223t-50.5 -288z" />
<glyph unicode="P" horiz-adv-x="1327" d="M160 0v1462h641q217 0 332.5 -113.5t115.5 -318.5q-1 -206 -117 -320q-114 -113 -324 -112h-7h-447v-598h-194zM354 762h381h5q314 0 315 268q0 268 -320 268h-381v-536z" />
<glyph unicode="Q" horiz-adv-x="1556" d="M78 731q0 205 75.5 375t238.5 280.5t386 110.5t386 -110.5t239 -280.5t76 -375q0 -367 -222 -581l193 -154l-98 -123l-224 180q-147 -88 -350 -88q-223 0 -386 110.5t-238.5 280.5t-75.5 375zM272 731q0 -156 50.5 -288t168 -223t287.5 -91q109 0 203 41l-162 129 l103 119l194 -156q168 166 168 469q0 156 -50 288t-168 223t-288 91t-287.5 -91t-168 -223t-50.5 -288z" />
<glyph unicode="R" horiz-adv-x="1402" d="M160 0v1462h688q205 0 324.5 -103.5t119.5 -279.5q0 -137 -63.5 -236.5t-190.5 -133.5v-4q117 -23 162 -99t57 -203q2 -16 7.5 -103t10.5 -120t22.5 -89t45.5 -91h-217q-25 27 -30.5 83t-9 139t-13.5 138q-8 63 -20.5 103.5t-38 81.5t-71.5 60.5t-114 19.5h-475v-625 h-194zM354 788h406q158 0 248 56.5t90 204.5q0 113 -64.5 181t-195.5 68h-484v-510z" />
<glyph unicode="S" horiz-adv-x="1327" d="M76 481h184q0 -174 123 -263t303 -89q156 0 263.5 61.5t107.5 204.5q0 53 -23.5 95t-59.5 69t-95.5 49.5t-111.5 34.5t-128 29q-33 6 -49 10q-84 18 -140.5 33.5t-124 47.5t-108.5 69.5t-68.5 98t-27.5 138.5q0 209 155.5 318.5t374.5 109.5q236 0 383.5 -116t155.5 -347 h-184q-33 299 -363 299q-139 0 -233.5 -59.5t-94.5 -190.5q0 -29 7.5 -54t26 -44.5t35.5 -36t50 -31t57.5 -23.5t67.5 -20.5t70.5 -17.5t78 -16.5t76.5 -16.5q102 -23 174 -49t145 -72.5t110.5 -122t37.5 -178.5q0 -147 -90 -249.5t-214 -144.5t-267 -42q-262 0 -433 131 t-171 385z" />
<glyph unicode="T" horiz-adv-x="1175" d="M4 1298v164h1170v-164h-488v-1298h-194v1298h-488z" />
<glyph unicode="U" horiz-adv-x="1478" d="M152 528v934h194v-934q0 -193 105.5 -296t300.5 -103q184 0 282.5 103.5t98.5 295.5v934h194v-934q0 -274 -149.5 -418.5t-425.5 -144.5q-291 0 -445.5 139.5t-154.5 423.5z" />
<glyph unicode="V" horiz-adv-x="1251" d="M-2 1462h211l418 -1267h4l422 1267h202l-520 -1462h-221z" />
<glyph unicode="W" horiz-adv-x="1896" d="M25 1462h198l287 -1216h4l328 1216h211l323 -1216h4l297 1216h195l-391 -1462h-203l-334 1229h-4l-338 -1229h-203z" />
<glyph unicode="X" horiz-adv-x="1251" d="M-2 0l510 752l-481 710h233l365 -571l381 571h217l-484 -710l514 -752h-237l-393 604l-406 -604h-219z" />
<glyph unicode="Y" horiz-adv-x="1327" d="M4 1462h232l438 -696l428 696h221l-559 -864v-598h-195v598z" />
<glyph unicode="Z" horiz-adv-x="1251" d="M45 0v164l909 1134h-839v164h1069v-164l-908 -1134h932v-164h-1163z" />
<glyph unicode="[" horiz-adv-x="530" d="M147 -406v1903h383v-139h-219v-1624h219v-140h-383z" />
<glyph unicode="\" horiz-adv-x="681" d="M-37 1497h150l606 -1532h-150z" />
<glyph unicode="]" horiz-adv-x="530" d="M0 -266h219v1624h-219v139h383v-1903h-383v140z" />
<glyph unicode="^" horiz-adv-x="1228" d="M102 541l447 886h131l446 -886h-143l-371 737l-364 -737h-146z" />
<glyph unicode="_" horiz-adv-x="1024" d="M0 -154h1024v-102h-1024v102z" />
<glyph unicode="`" horiz-adv-x="454" d="M-47 1497h223l176 -293h-131z" />
<glyph unicode="a" horiz-adv-x="1099" d="M74 272q0 86 28.5 146.5t86 94.5t109.5 51.5t134 33.5q41 8 108.5 17.5t102.5 16.5t74 20.5t55 39t16 62.5q0 176 -235 176q-254 0 -264 -201h-174q8 184 131 269t317 85q397 0 398 -290v-545q0 -72 8 -95.5t47 -23.5q24 0 53 10v-135q-47 -29 -125 -29q-147 0 -147 164 q-139 -164 -373 -164q-156 0 -253 74t-97 223zM258 285q0 -80 58.5 -118t146.5 -38q156 0 239.5 77t83.5 163v178q-31 -23 -76.5 -35t-128.5 -22.5t-110 -14.5q-100 -18 -156.5 -60t-56.5 -130z" />
<glyph unicode="b" horiz-adv-x="1214" d="M137 0v1462h174v-547h4q41 84 132.5 126t205.5 42q233 0 360.5 -159.5t127.5 -397t-126 -394.5t-358 -157q-96 0 -192 40t-150 126h-4v-141h-174zM305 530q0 -172 83 -286.5t251 -114.5q166 0 241.5 118t75.5 292q0 162 -84 276.5t-243 114.5q-164 0 -244 -117t-80 -283z " />
<glyph unicode="c" horiz-adv-x="1099" d="M74 516q0 250 129 408.5t370 158.5q190 0 314.5 -92t142.5 -272h-180q-20 100 -88 155.5t-174 55.5q-90 0 -156.5 -34t-103.5 -93.5t-53.5 -130t-16.5 -156.5q0 -162 77 -274.5t232 -112.5q125 0 200 68.5t91 189.5h178q-29 -197 -149.5 -304.5t-317.5 -107.5 q-238 0 -366.5 148.5t-128.5 392.5z" />
<glyph unicode="d" horiz-adv-x="1214" d="M74 532.5q0 237.5 126 394t357 156.5q96 0 192.5 -39.5t149.5 -125.5h4v544h174v-1462h-174v143h-4q-41 -84 -132 -126t-206 -42q-233 0 -360 160t-127 397.5zM258 520q0 -162 84 -276.5t244 -114.5q164 0 243.5 116.5t79.5 282.5q0 172 -83 287t-251 115 q-166 0 -241.5 -118t-75.5 -292z" />
<glyph unicode="e" horiz-adv-x="1099" d="M74 532q0 238 140 394.5t357 156.5q109 0 195 -38.5t139 -100t88 -143.5t49 -163q10 -62 10 -124q0 -18 -1 -37h-793v-13q0 -138 80 -234q84 -100 250 -101q227 0 274 207h172q-35 -174 -153.5 -267.5t-298.5 -93.5q-244 0 -372 152t-136 405zM258 631h608 q-6 127 -92 213t-213 86q-131 0 -212 -86t-91 -213z" />
<glyph unicode="f" horiz-adv-x="606" d="M25 905v154h178v158q0 129 74.5 195.5t218.5 66.5q59 0 112 -17v-151q-43 14 -98 14q-68 0 -100.5 -26.5t-32.5 -92.5v-147h205v-154h-205v-905h-174v905h-178z" />
<glyph unicode="g" horiz-adv-x="1175" d="M74 524q0 100 25.5 193.5t79.5 178.5t153.5 136t230.5 51q219 0 316 -176h2v152h163v-969q0 -520 -491 -520q-109 0 -201 27.5t-162.5 101.5t-74.5 182h174q6 -86 89 -129t185 -43q317 0 318 402v69h-4q-41 -92 -132.5 -142t-197.5 -50q-225 0 -349 153.5t-124 382.5z M258 545q0 -104 25.5 -190.5t95 -150t178.5 -63.5q160 0 237.5 121t77.5 289q0 158 -74.5 268.5t-226.5 110.5q-158 0 -235.5 -109.5t-77.5 -275.5z" />
<glyph unicode="h" d="M131 0v1462h174v-559h4q41 90 135.5 135t198.5 45q197 0 281 -101t84 -286v-696h-174v717q0 98 -58.5 155.5t-157.5 57.5q-154 0 -233.5 -91t-79.5 -241v-598h-174z" />
<glyph unicode="i" horiz-adv-x="454" d="M141 0v1059h174v-1059h-174zM141 1249v213h174v-213h-174z" />
<glyph unicode="j" horiz-adv-x="454" d="M-29 -248q25 -4 72 -4q57 0 77.5 32t20.5 114v1165h174v-1194q0 -137 -67.5 -204t-186.5 -67q-49 0 -90 9v149zM141 1249v213h174v-213h-174z" />
<glyph unicode="k" horiz-adv-x="1062" d="M141 0v1462h174v-866l484 463h233l-420 -385l451 -674h-221l-363 553l-164 -152v-401h-174z" />
<glyph unicode="l" horiz-adv-x="454" d="M141 0v1462h174v-1462h-174z" />
<glyph unicode="m" horiz-adv-x="1746" d="M131 0v1059h164v-156h4q119 180 342 180q104 0 182 -44t109 -136q53 84 141 132t191 48q352 0 352 -307v-776h-174v694q0 113 -43 174.5t-162 61.5q-125 0 -200.5 -74t-75.5 -197v-659h-175v694q0 113 -44 174.5t-154 61.5q-72 0 -130.5 -31t-89 -76t-47 -88t-16.5 -76 v-659h-174z" />
<glyph unicode="n" d="M131 0v1059h164v-168h4q108 192 342 192h2q197 0 281 -101t84 -286v-696h-174v717q0 98 -58.5 155.5t-157.5 57.5q-154 0 -233.5 -91t-79.5 -241v-598h-174z" />
<glyph unicode="o" horiz-adv-x="1175" d="M74 528q0 244 135 399.5t378.5 155.5t379 -155.5t135.5 -399.5q0 -242 -135.5 -397.5t-379 -155.5t-378.5 155.5t-135 397.5zM258 528.5q0 -186.5 94 -293t235.5 -106.5t236 106.5t94.5 293t-94.5 294t-236 107.5t-235.5 -107.5t-94 -294z" />
<glyph unicode="p" horiz-adv-x="1214" d="M137 -406v1465h174v-144h4q41 84 132.5 126t205.5 42q233 0 360.5 -159.5t127.5 -397t-126 -394.5t-358 -157q-96 0 -192 40t-150 126h-4v-547h-174zM305 530q0 -172 83 -286.5t251 -114.5q166 0 241.5 118t75.5 292q0 162 -84 276.5t-243 114.5q-164 0 -244 -117 t-80 -283z" />
<glyph unicode="q" horiz-adv-x="1214" d="M74 532.5q0 237.5 126 394t357 156.5q96 0 192.5 -39.5t149.5 -125.5h4v141h174v-1465h-174v549h-4q-41 -84 -132 -126t-206 -42q-233 0 -360 160t-127 397.5zM258 520q0 -162 84 -276.5t244 -114.5q164 0 243.5 116.5t79.5 282.5q0 172 -83 287t-251 115 q-166 0 -241.5 -118t-75.5 -292z" />
<glyph unicode="r" horiz-adv-x="681" d="M125 0v1059h164v-223h4q63 131 157 191q88 56 215 56h17v-184q-203 0 -293 -108.5t-90 -319.5v-471h-174z" />
<glyph unicode="s" horiz-adv-x="1024" d="M63 334h175q4 -109 83.5 -157t200.5 -48q256 0 256 158q0 23 -5 41t-19.5 33.5t-25.5 27.5t-36.5 22.5t-42 17.5t-51.5 16.5t-51.5 13.5t-57 12t-57.5 12q-76 16 -128 35t-107.5 52.5t-83 87t-27.5 124.5q0 147 119 224t276 77q416 0 434 -331h-174q-8 94 -77.5 136 t-167.5 42q-94 0 -160 -31t-66 -104q0 -27 9.5 -47.5t32 -37t43 -28.5t58.5 -22.5t63.5 -16.5t71.5 -16.5t68 -16.5q78 -16 130.5 -34.5t106.5 -52.5t82 -87t28 -127q0 -90 -39 -157.5t-106.5 -104.5t-143.5 -54.5t-162 -17.5q-195 0 -318 87.5t-131 271.5z" />
<glyph unicode="t" horiz-adv-x="645" d="M18 905v154h181v317h174v-317h211v-154h-211v-657q0 -59 24.5 -76.5t106.5 -17.5h80v-154h-133q-141 0 -196.5 46t-55.5 185v674h-181z" />
<glyph unicode="u" d="M131 362v697h174v-717q0 -96 58.5 -154.5t156.5 -58.5q154 0 234 91t80 241v598h174v-1059h-164v168h-4q-109 -193 -344 -193q-197 0 -281 101.5t-84 285.5z" />
<glyph unicode="v" horiz-adv-x="1024" d="M29 1059h194l297 -883h4l289 883h182l-387 -1059h-186z" />
<glyph unicode="w" horiz-adv-x="1552" d="M35 1059h192l240 -866h4l213 866h190l222 -866h4l237 866h181l-338 -1059h-185l-215 842h-4l-213 -842h-188z" />
<glyph unicode="x" horiz-adv-x="1060" d="M18 0l398 557l-369 502h223l254 -371l264 371h209l-364 -488l409 -571h-223l-295 438l-295 -438h-211z" />
<glyph unicode="y" horiz-adv-x="1024" d="M16 1059h197l309 -866h4l297 866h185l-461 -1200q-61 -158 -127 -220.5t-180 -62.5q-72 0 -121 18v160q75 -24 100 -24h2q92 0 144 96l71 180z" />
<glyph unicode="z" horiz-adv-x="983" d="M45 0v133l639 772h-598v154h823v-119l-647 -786h676v-154h-893z" />
<glyph unicode="{" horiz-adv-x="681" d="M98 475v139q68 0 119 69t51 173v373q0 123 69 195.5t152 72.5h144v-123h-103q-98 0 -98 -176v-375q0 -125 -60.5 -192.5t-117.5 -81.5v-6q23 -2 49.5 -16.5t57 -44t51 -85t20.5 -129.5v-374q0 -176 98 -177h103v-123h-144q-84 0 -152.5 73t-68.5 196v373q0 106 -51 172.5 t-119 66.5z" />
<glyph unicode="|" horiz-adv-x="454" d="M158 -438v2048h139v-2048h-139z" />
<glyph unicode="}" horiz-adv-x="681" d="M49 -283h103q98 0 98 177v374q0 125 60.5 192.5t117.5 82.5v6q-23 2 -49.5 16.5t-57 44t-51 85t-20.5 128.5v371q0 180 -98 180h-103v123h144q84 0 152.5 -72.5t68.5 -195.5v-373q0 -109 51 -175.5t119 -66.5v-139q-68 0 -119 -67.5t-51 -171.5v-373q0 -123 -69 -196 t-152 -73h-144v123z" />
<glyph unicode="~" horiz-adv-x="1228" d="M141 469q92 176 256 176q80 0 228 -65q20 -8 70 -34t82 -37t57 -11q39 0 75.5 28.5t53 51t51.5 75.5l73 -102q-41 -55 -67.5 -86t-77.5 -60.5t-111 -29.5q-86 0 -208 67q-141 80 -236 80q-100 0 -172 -155z" />
<glyph unicode="&#xa1;" horiz-adv-x="530" d="M152 831v228h227v-228h-227zM168 45l51 637h92l51 -637v-451h-194v451z" />
<glyph unicode="&#xa2;" d="M94 516.5q0 233.5 121 393t342 173.5v195h80v-195q174 -4 284.5 -94t131.5 -270h-179q-20 96 -80.5 152.5t-156.5 58.5v-801q209 20 248 258h174q-16 -166 -129 -289t-293 -123v-213h-80v213q-219 8 -341 158t-122 383.5zM279 516q0 -154 69.5 -265.5t208.5 -121.5v801 q-147 -18 -212.5 -132t-65.5 -282z" />
<glyph unicode="&#xa3;" d="M96 113q96 66 161 161t65 205q0 80 -52 191h-174v92h119q-96 160 -96 319q0 188 136 302t331 114q231 0 359 -135t124 -393h-174q-10 375 -299 374q-123 0 -208 -77.5t-85 -190.5q0 -47 11.5 -94t22.5 -72.5t37.5 -76t35.5 -70.5h325v-92h-280q41 -78 41 -154 q0 -86 -38 -161.5t-80 -117.5t-120 -106l4 -4q135 59 215 59q76 0 195 -30q125 -37 172 -37q86 0 182 76l88 -136q-111 -94 -299 -94q-76 0 -203 41q-141 43 -215 43q-98 0 -204 -72z" />
<glyph unicode="&#xa4;" d="M51 297l113 119q-106 129 -107 299q0 193 111 303l-117 119l101 100l114 -115q125 104 309 105q174 0 293 -103l117 115l102 -104l-112 -113q106 -117 106 -303q0 -178 -106 -307l112 -115l-96 -96l-114 118q-119 -113 -304 -112q-188 0 -311 110l-112 -118zM231 715 q0 -150 99.5 -252.5t242.5 -102.5q141 0 237.5 104.5t96.5 254.5q0 145 -96.5 249.5t-235.5 104.5q-145 0 -244.5 -103.5t-99.5 -254.5z" />
<glyph unicode="&#xa5;" d="M0 1462h223l357 -723l346 723h213l-365 -706h191v-123h-258l-37 -68v-86h295v-123h-295v-356h-195v356h-289v123h289v86l-37 68h-252v123h189z" />
<glyph unicode="&#xa6;" horiz-adv-x="454" d="M158 -182v512h139v-512h-139zM158 842v512h139v-512h-139z" />
<glyph unicode="&#xa7;" d="M72 666q0 94 63.5 176t155.5 106q-94 98 -94 217q0 152 113.5 242t264.5 90q172 0 272.5 -96.5t104.5 -282.5h-174q-2 96 -57 160.5t-150 64.5q-86 0 -140 -45t-54 -131q0 -20 5 -40.5t18.5 -40t25.5 -35t36.5 -34t41 -29.5t49.5 -30.5t50.5 -29.5t57 -32t56.5 -30 q160 -84 250 -174t90 -223q0 -98 -59.5 -182t-153.5 -119q121 -90 121 -246q0 -147 -107.5 -237.5t-275.5 -90.5q-180 0 -290 103.5t-122 284.5h174q2 -104 65.5 -169t168.5 -65q82 0 144 45t62 125q0 31 -9 57.5t-31.5 52t-42 44t-59.5 44t-63.5 39t-75.5 42t-75 41.5 q-78 41 -132 76.5t-110.5 88t-85 118t-28.5 145.5zM240 674q0 -45 16 -82t57 -72t62.5 -48t79.5 -48q164 -86 286 -170q147 61 148 190q0 41 -18.5 77t-61.5 71t-62.5 48t-74.5 46q-248 151 -283 174q-61 -20 -105 -72.5t-44 -113.5z" />
<glyph unicode="&#xa8;" horiz-adv-x="454" d="M-57 1212v213h184v-213h-184zM328 1212v213h184v-213h-184z" />
<glyph unicode="&#xa9;" horiz-adv-x="1638" d="M49 735q0 322 227.5 542t545 220t542.5 -220t225 -542q0 -326 -225 -548t-543 -222q-319 0 -545.5 222t-226.5 548zM188 735q0 -281 182.5 -469t450.5 -188q266 0 447.5 188.5t181.5 468.5q0 274 -181.5 461.5t-447.5 187.5q-268 0 -450.5 -187.5t-182.5 -461.5zM391 731 q0 209 121 338t328 129q152 0 257 -81t128 -230h-129q-16 88 -85 143t-169 55q-147 0 -229.5 -98t-82.5 -252q0 -150 87.5 -255t228.5 -105q100 0 168 58.5t82 150.5h131q-33 -147 -136.5 -234.5t-244.5 -87.5q-205 0 -330 132t-125 337z" />
<glyph unicode="&#xaa;" horiz-adv-x="774" d="M51 961q0 178 246 202q147 16 191 31.5t44 54.5q0 61 -41.5 81t-115.5 20q-164 0 -170 -115h-123q6 111 89 164t212 53q266 0 266 -178v-328q0 -66 29 -65q31 0 45 4v-90q-43 -16 -88 -17q-98 0 -105 94q-90 -94 -239 -94q-104 0 -172 46t-68 137zM190 965q0 -84 127 -84 q104 0 156.5 43t52.5 98v96q-31 -18 -204 -47q-63 -10 -97.5 -33.5t-34.5 -72.5z" />
<glyph unicode="&#xab;" horiz-adv-x="948" d="M102 479v180l312 246v-176l-205 -160l205 -159v-177zM504 479v180l311 246v-176l-205 -160l205 -159v-177z" />
<glyph unicode="&#xac;" horiz-adv-x="1228" d="M98 655v140h1032v-572h-139v432h-893z" />
<glyph unicode="&#xad;" horiz-adv-x="796" d="M102 487v164h592v-164h-592z" />
<glyph unicode="&#xae;" horiz-adv-x="1638" d="M49 735q0 322 227.5 542t545 220t542.5 -220t225 -542q0 -326 -225 -548t-543 -222q-319 0 -545.5 222t-226.5 548zM188 735q0 -281 182.5 -469t450.5 -188q266 0 447.5 188.5t181.5 468.5q0 274 -181.5 461.5t-447.5 187.5q-268 0 -450.5 -187.5t-182.5 -461.5zM522 285 v895h346q313 0 314 -256q0 -219 -236 -244l256 -395h-149l-244 385h-147v-385h-140zM662 782h145q45 0 72.5 2t62.5 9.5t54.5 22.5t32.5 44t13 70q0 137 -196 137h-184v-285z" />
<glyph unicode="&#xaf;" horiz-adv-x="454" d="M-121 1270v112h699v-112h-699z" />
<glyph unicode="&#xb0;" horiz-adv-x="819" d="M115 1157q0 123 86 209t208.5 86t209 -86t86.5 -209t-86.5 -209t-209 -86t-208.5 86t-86 209zM217 1157q0 -76 53.5 -134t139.5 -58t139 58t53 134t-53 134.5t-139 58.5t-139.5 -58.5t-53.5 -134.5z" />
<glyph unicode="&#xb1;" horiz-adv-x="1228" d="M98 0v139h1032v-139h-1032zM98 555v139h447v340h139v-340h446v-139h-446v-342h-139v342h-447z" />
<glyph unicode="&#xb2;" horiz-adv-x="681" d="M29 573q4 98 44 169t85 106t127 82q135 78 186 130t51 136q0 63 -49 103t-121 40q-86 0 -127 -57t-41 -145h-139q0 141 86 228t227 87q129 0 216.5 -69.5t87.5 -188.5q0 -55 -18.5 -100t-56.5 -82t-71 -60.5t-86 -54.5q-14 -8 -66.5 -39t-72 -43t-53 -36.5t-49 -46 t-21.5 -46.5h481v-113h-620z" />
<glyph unicode="&#xb3;" horiz-adv-x="681" d="M8 848h139q2 -84 51.5 -130t137.5 -46q80 0 136 40t56 107q0 80 -55 119t-135 39h-68v102h49q74 0 122 33t48 100q0 59 -44 93t-113 34q-80 0 -122 -49t-42 -127h-139q8 133 88 211t215 78q131 0 214 -62.5t83 -177.5q0 -55 -40 -102t-100 -72v-4q86 -16 132.5 -72.5 t46.5 -136.5q0 -127 -97.5 -196.5t-234.5 -69.5q-143 0 -235.5 76t-92.5 213z" />
<glyph unicode="&#xb4;" horiz-adv-x="454" d="M102 1204l177 293h223l-269 -293h-131z" />
<glyph unicode="&#xb6;" horiz-adv-x="1228" d="M98 1040q0 199 125 310.5t342 111.5h490v-1779h-140v1667h-249v-1667h-140v976q-186 0 -307 110t-121 271z" />
<glyph unicode="&#xb7;" horiz-adv-x="569" d="M154 637q0 53 38.5 92t92.5 39q51 0 91 -40t40 -91q0 -49 -40 -90t-89 -41q-53 0 -93 39t-40 92z" />
<glyph unicode="&#xb8;" horiz-adv-x="454" d="M10 -391l37 90q72 -27 125 -27q49 0 88 15.5t39 48.5q0 27 -27.5 45t-68.5 18q-35 0 -84 -16l-35 57l125 160h86l-86 -109l4 -4q20 14 68 15q70 0 121 -39t51 -111q0 -94 -77 -138t-177 -44q-83 0 -189 39z" />
<glyph unicode="&#xb9;" horiz-adv-x="681" d="M135 1204v103q242 4 273 145h102v-879h-139v631h-236z" />
<glyph unicode="&#xba;" horiz-adv-x="786" d="M51 1112.5q0 149.5 90 244.5t252 95t252 -95t90 -245q0 -152 -88 -243t-252 -91q-160 0 -252 92.5t-92 242zM190 1112q0 -100 50.5 -165.5t154.5 -65.5q102 0 151.5 64.5t49.5 164.5q0 133 -59.5 186.5t-143.5 53.5q-88 0 -145.5 -60.5t-57.5 -177.5z" />
<glyph unicode="&#xbb;" horiz-adv-x="948" d="M133 233v177l205 159l-205 160v176l311 -246v-180zM535 233v177l204 159l-204 160v176l311 -246v-180z" />
<glyph unicode="&#xbc;" horiz-adv-x="1708" d="M74 1204v103q242 0 272 145h103v-879h-140v631h-235zM307 -57l891 1542h131l-891 -1542h-131zM946 197v118l430 564h105v-570h123v-112h-123v-197h-127v197h-408zM1047 309h307v396h-4z" />
<glyph unicode="&#xbd;" horiz-adv-x="1708" d="M74 1204v103q242 0 272 145h103v-879h-140v631h-235zM276 -57l891 1542h131l-890 -1542h-132zM1012 0q4 98 44 169t85 105.5t127 81.5q135 78 186 130.5t51 136.5q0 63 -49 103t-121 40q-86 0 -127 -57.5t-41 -145.5h-139q0 141 86 228.5t227 87.5q129 0 216.5 -70 t87.5 -188q0 -55 -18.5 -100.5t-56.5 -82.5t-71 -60.5t-86 -53.5q-14 -8 -66.5 -39t-72 -43.5t-53 -37t-49 -46t-21.5 -45.5h481v-113h-620z" />
<glyph unicode="&#xbe;" horiz-adv-x="1708" d="M100 848h140q2 -84 51 -130t137 -46q80 0 136.5 40t56.5 107q0 80 -55.5 119t-135.5 39h-68v102h50q74 0 122 33t48 100q0 59 -44 93t-114 34q-80 0 -122 -49t-42 -127h-139q8 133 88 211t215 78q131 0 214 -62.5t83 -177.5q0 -55 -40 -102t-99 -72v-4q86 -16 132 -72.5 t46 -136.5q0 -127 -97.5 -196.5t-234.5 -69.5q-143 0 -235.5 76t-92.5 213zM440 -57l891 1542h131l-891 -1542h-131zM981 197v118l430 564h105v-570h122v-112h-122v-197h-127v197h-408zM1083 301h308v395h-5z" />
<glyph unicode="&#xbf;" d="M139 -20q0 78 28 146.5t60.5 108t87.5 93.5q63 59 90 87.5t58 89t31 126.5v63h174v-80q0 -49 -13.5 -95t-26 -72.5t-48 -69.5t-45 -52.5l-52.5 -52.5q-96 -96 -123 -145q-43 -74 -36 -164q8 -113 73.5 -176t173.5 -63q139 0 213 93.5t72 243.5h174q4 -215 -122 -353 t-337 -138q-193 0 -312.5 109.5t-119.5 300.5zM463 831v228h227v-228h-227z" />
<glyph unicode="&#xc0;" horiz-adv-x="1327" d="M-14 0l571 1462h215l571 -1462h-215l-159 440h-619l-164 -440h-200zM389 1859h223l176 -293h-131zM412 604h495l-243 682h-5z" />
<glyph unicode="&#xc1;" horiz-adv-x="1327" d="M-14 0l571 1462h215l571 -1462h-215l-159 440h-619l-164 -440h-200zM412 604h495l-243 682h-5zM538 1566l177 293h223l-269 -293h-131z" />
<glyph unicode="&#xc2;" horiz-adv-x="1327" d="M-14 0l571 1462h215l571 -1462h-215l-159 440h-619l-164 -440h-200zM356 1566l211 293h191l213 -293h-173l-141 197l-143 -197h-158zM412 604h495l-243 682h-5z" />
<glyph unicode="&#xc3;" horiz-adv-x="1327" d="M-14 0l571 1462h215l571 -1462h-215l-159 440h-619l-164 -440h-200zM317 1585q29 104 78 164.5t137 60.5q57 0 151.5 -41t135.5 -41q67 0 94 90h107q-12 -90 -64 -164q-57 -63 -162 -63q-37 0 -135 41q-104 39 -137 39q-37 0 -68.5 -24.5t-29.5 -61.5h-107zM412 604h495 l-243 682h-5z" />
<glyph unicode="&#xc4;" horiz-adv-x="1327" d="M-14 0l571 1462h215l571 -1462h-215l-159 440h-619l-164 -440h-200zM379 1574v213h184v-213h-184zM412 604h495l-243 682h-5zM764 1574v213h184v-213h-184z" />
<glyph unicode="&#xc5;" horiz-adv-x="1327" d="M-14 0l571 1462h215l571 -1462h-215l-159 440h-619l-164 -440h-200zM412 604h495l-243 682h-5zM432 1718q0 94 67.5 162.5t164 68.5t164 -68.5t67.5 -162.5t-67.5 -163t-164 -69t-164 69t-67.5 163zM524 1717.5q0 -57.5 40 -98t99.5 -40.5t99.5 40.5t40 98t-40 98.5 t-99.5 41t-99.5 -41t-40 -98.5z" />
<glyph unicode="&#xc6;" horiz-adv-x="1896" d="M-14 0l739 1462h1096v-164h-719v-464h676v-164h-676v-506h731v-164h-915v426h-504l-209 -426h-219zM489 590h429v708h-84z" />
<glyph unicode="&#xc7;" horiz-adv-x="1478" d="M88 727q0 332 183.5 551t508.5 219q238 0 403.5 -124t198.5 -351h-194q-31 152 -141.5 231.5t-268.5 79.5q-246 0 -370.5 -171t-124.5 -421q0 -268 123.5 -440t373.5 -172q186 0 297 116.5t125 305.5h195q-29 -270 -189.5 -426t-427.5 -158l-59 -76l4 -4q20 14 68 15 q70 0 121 -39t51 -111q0 -94 -77 -138t-177 -44q-82 0 -189 39l37 90q72 -27 125 -27q49 0 88 15.5t39 48.5q0 27 -27.5 45t-68.5 18q-35 0 -84 -16l-35 57l100 129q-297 23 -452.5 232t-155.5 526z" />
<glyph unicode="&#xc8;" horiz-adv-x="1251" d="M160 0v1462h1009v-164h-815v-464h760v-164h-760v-506h822v-164h-1016zM352 1859h223l176 -293h-131z" />
<glyph unicode="&#xc9;" horiz-adv-x="1251" d="M160 0v1462h1009v-164h-815v-464h760v-164h-760v-506h822v-164h-1016zM501 1566l177 293h223l-269 -293h-131z" />
<glyph unicode="&#xca;" horiz-adv-x="1251" d="M160 0v1462h1009v-164h-815v-464h760v-164h-760v-506h822v-164h-1016zM319 1566l211 293h191l213 -293h-173l-141 197l-143 -197h-158z" />
<glyph unicode="&#xcb;" horiz-adv-x="1251" d="M160 0v1462h1009v-164h-815v-464h760v-164h-760v-506h822v-164h-1016zM342 1574v213h184v-213h-184zM727 1574v213h184v-213h-184z" />
<glyph unicode="&#xcc;" horiz-adv-x="530" d="M-8 1859h223l176 -293h-131zM168 0v1462h194v-1462h-194z" />
<glyph unicode="&#xcd;" horiz-adv-x="530" d="M141 1566l177 293h223l-269 -293h-131zM168 0v1462h194v-1462h-194z" />
<glyph unicode="&#xce;" horiz-adv-x="530" d="M-41 1566l211 293h191l213 -293h-173l-141 197l-143 -197h-158zM168 0v1462h194v-1462h-194z" />
<glyph unicode="&#xcf;" horiz-adv-x="530" d="M-18 1574v213h184v-213h-184zM168 0v1462h194v-1462h-194zM367 1574v213h184v-213h-184z" />
<glyph unicode="&#xd0;" horiz-adv-x="1441" d="M16 694v140h144v628h502q342 0 522 -174t180 -522q0 -766 -702 -766h-502v694h-144zM354 164h324q53 0 103 7t126 41t129.5 91t93 170t39.5 266q0 274 -114.5 416.5t-372.5 142.5h-328v-464h439v-140h-439v-530z" />
<glyph unicode="&#xd1;" horiz-adv-x="1478" d="M158 0v1462h207l770 -1186h4v1186h184v-1462h-213l-764 1174h-4v-1174h-184zM393 1585q29 104 78 164.5t137 60.5q57 0 151.5 -41t135.5 -41q67 0 94 90h107q-12 -90 -64 -164q-57 -63 -162 -63q-37 0 -135 41q-104 39 -137 39q-37 0 -68.5 -24.5t-29.5 -61.5h-107z" />
<glyph unicode="&#xd2;" horiz-adv-x="1556" d="M78 731q0 205 75.5 375t238.5 280.5t386 110.5t386 -110.5t239 -280.5t76 -375t-76 -375t-239 -280.5t-386 -110.5t-386 110.5t-238.5 280.5t-75.5 375zM272 731q0 -156 50.5 -288t168 -223t287.5 -91t288 91t168 223t50 288t-50 288t-168 223t-288 91t-287.5 -91 t-168 -223t-50.5 -288zM504 1859h223l176 -293h-131z" />
<glyph unicode="&#xd3;" horiz-adv-x="1556" d="M78 731q0 205 75.5 375t238.5 280.5t386 110.5t386 -110.5t239 -280.5t76 -375t-76 -375t-239 -280.5t-386 -110.5t-386 110.5t-238.5 280.5t-75.5 375zM272 731q0 -156 50.5 -288t168 -223t287.5 -91t288 91t168 223t50 288t-50 288t-168 223t-288 91t-287.5 -91 t-168 -223t-50.5 -288zM653 1566l177 293h223l-269 -293h-131z" />
<glyph unicode="&#xd4;" horiz-adv-x="1556" d="M78 731q0 205 75.5 375t238.5 280.5t386 110.5t386 -110.5t239 -280.5t76 -375t-76 -375t-239 -280.5t-386 -110.5t-386 110.5t-238.5 280.5t-75.5 375zM272 731q0 -156 50.5 -288t168 -223t287.5 -91t288 91t168 223t50 288t-50 288t-168 223t-288 91t-287.5 -91 t-168 -223t-50.5 -288zM471 1566l211 293h191l213 -293h-173l-141 197l-143 -197h-158z" />
<glyph unicode="&#xd5;" horiz-adv-x="1556" d="M78 731q0 205 75.5 375t238.5 280.5t386 110.5t386 -110.5t239 -280.5t76 -375t-76 -375t-239 -280.5t-386 -110.5t-386 110.5t-238.5 280.5t-75.5 375zM272 731q0 -156 50.5 -288t168 -223t287.5 -91t288 91t168 223t50 288t-50 288t-168 223t-288 91t-287.5 -91 t-168 -223t-50.5 -288zM432 1585q29 104 78 164.5t137 60.5q57 0 151.5 -41t135.5 -41q67 0 94 90h107q-12 -90 -64 -164q-57 -63 -162 -63q-37 0 -135 41q-104 39 -137 39q-37 0 -68.5 -24.5t-29.5 -61.5h-107z" />
<glyph unicode="&#xd6;" horiz-adv-x="1556" d="M78 731q0 205 75.5 375t238.5 280.5t386 110.5t386 -110.5t239 -280.5t76 -375t-76 -375t-239 -280.5t-386 -110.5t-386 110.5t-238.5 280.5t-75.5 375zM272 731q0 -156 50.5 -288t168 -223t287.5 -91t288 91t168 223t50 288t-50 288t-168 223t-288 91t-287.5 -91 t-168 -223t-50.5 -288zM494 1574v213h184v-213h-184zM879 1574v213h184v-213h-184z" />
<glyph unicode="&#xd7;" horiz-adv-x="1228" d="M145 147l373 373l-371 369l99 98l370 -369l369 369l98 -98l-368 -369l370 -373l-98 -98l-371 373l-372 -373z" />
<glyph unicode="&#xd8;" horiz-adv-x="1556" d="M76 20l172 189q-170 211 -170 522q0 205 75.5 375t238.5 280.5t386 110.5q289 0 475 -180l162 178l66 -61l-168 -185q166 -211 166 -518q0 -205 -76 -375t-239 -280.5t-386 -110.5q-287 0 -469 176l-166 -182zM272 731q1 -223 103 -383l755 834q-131 152 -352 151 q-170 0 -287.5 -91t-168 -223t-50.5 -288zM430 274q129 -145 348 -145q170 0 288 91t168 223t50 288q0 221 -98 377z" />
<glyph unicode="&#xd9;" horiz-adv-x="1478" d="M152 528v934h194v-934q0 -193 105.5 -296t300.5 -103q184 0 282.5 103.5t98.5 295.5v934h194v-934q0 -274 -149.5 -418.5t-425.5 -144.5q-291 0 -445.5 139.5t-154.5 423.5zM465 1859h223l176 -293h-131z" />
<glyph unicode="&#xda;" horiz-adv-x="1478" d="M152 528v934h194v-934q0 -193 105.5 -296t300.5 -103q184 0 282.5 103.5t98.5 295.5v934h194v-934q0 -274 -149.5 -418.5t-425.5 -144.5q-291 0 -445.5 139.5t-154.5 423.5zM614 1566l177 293h223l-269 -293h-131z" />
<glyph unicode="&#xdb;" horiz-adv-x="1478" d="M152 528v934h194v-934q0 -193 105.5 -296t300.5 -103q184 0 282.5 103.5t98.5 295.5v934h194v-934q0 -274 -149.5 -418.5t-425.5 -144.5q-291 0 -445.5 139.5t-154.5 423.5zM432 1566l211 293h191l213 -293h-173l-141 197l-143 -197h-158z" />
<glyph unicode="&#xdc;" horiz-adv-x="1478" d="M152 528v934h194v-934q0 -193 105.5 -296t300.5 -103q184 0 282.5 103.5t98.5 295.5v934h194v-934q0 -274 -149.5 -418.5t-425.5 -144.5q-291 0 -445.5 139.5t-154.5 423.5zM455 1574v213h184v-213h-184zM840 1574v213h184v-213h-184z" />
<glyph unicode="&#xdd;" horiz-adv-x="1327" d="M4 1462h232l438 -696l428 696h221l-559 -864v-598h-195v598zM538 1566l177 293h223l-269 -293h-131z" />
<glyph unicode="&#xde;" horiz-adv-x="1327" d="M160 0v1462h194v-233h447q217 0 332.5 -114t115.5 -320q0 -205 -115.5 -319t-332.5 -111h-447v-365h-194zM354 528h381q319 -2 320 267q0 270 -320 270h-381v-537z" />
<glyph unicode="&#xdf;" d="M131 0v1087q0 182 111.5 296t294.5 114q166 0 295 -95t129 -263q0 -248 -213 -318v-4q133 -16 205.5 -120.5t72.5 -245.5q0 -211 -131 -343.5t-342 -132.5q-31 0 -88 9v151q23 -6 70 -6q139 0 223 83t84 216q0 186 -92.5 246.5t-284.5 60.5v139q137 -8 224 48.5t87 189.5 q0 96 -65.5 163.5t-161.5 67.5q-119 0 -181.5 -63t-62.5 -223v-1057h-174z" />
<glyph unicode="&#xe0;" horiz-adv-x="1099" d="M74 272q0 86 28.5 146.5t86 94.5t109.5 51.5t134 33.5q41 8 108.5 17.5t102.5 16.5t74 20.5t55 39t16 62.5q0 176 -235 176q-254 0 -264 -201h-174q8 184 131 269t317 85q397 0 398 -290v-545q0 -72 8 -95.5t47 -23.5q24 0 53 10v-135q-47 -29 -125 -29q-147 0 -147 164 q-139 -164 -373 -164q-156 0 -253 74t-97 223zM258 285q0 -80 58.5 -118t146.5 -38q156 0 239.5 77t83.5 163v178q-31 -23 -76.5 -35t-128.5 -22.5t-110 -14.5q-100 -18 -156.5 -60t-56.5 -130zM277 1497h223l176 -293h-131z" />
<glyph unicode="&#xe1;" horiz-adv-x="1099" d="M74 272q0 86 28.5 146.5t86 94.5t109.5 51.5t134 33.5q41 8 108.5 17.5t102.5 16.5t74 20.5t55 39t16 62.5q0 176 -235 176q-254 0 -264 -201h-174q8 184 131 269t317 85q397 0 398 -290v-545q0 -72 8 -95.5t47 -23.5q24 0 53 10v-135q-47 -29 -125 -29q-147 0 -147 164 q-139 -164 -373 -164q-156 0 -253 74t-97 223zM258 285q0 -80 58.5 -118t146.5 -38q156 0 239.5 77t83.5 163v178q-31 -23 -76.5 -35t-128.5 -22.5t-110 -14.5q-100 -18 -156.5 -60t-56.5 -130zM426 1204l177 293h223l-269 -293h-131z" />
<glyph unicode="&#xe2;" horiz-adv-x="1099" d="M74 272q0 86 28.5 146.5t86 94.5t109.5 51.5t134 33.5q41 8 108.5 17.5t102.5 16.5t74 20.5t55 39t16 62.5q0 176 -235 176q-254 0 -264 -201h-174q8 184 131 269t317 85q397 0 398 -290v-545q0 -72 8 -95.5t47 -23.5q24 0 53 10v-135q-47 -29 -125 -29q-147 0 -147 164 q-139 -164 -373 -164q-156 0 -253 74t-97 223zM244 1204l211 293h191l213 -293h-173l-141 197l-143 -197h-158zM258 285q0 -80 58.5 -118t146.5 -38q156 0 239.5 77t83.5 163v178q-31 -23 -76.5 -35t-128.5 -22.5t-110 -14.5q-100 -18 -156.5 -60t-56.5 -130z" />
<glyph unicode="&#xe3;" horiz-adv-x="1099" d="M74 272q0 86 28.5 146.5t86 94.5t109.5 51.5t134 33.5q41 8 108.5 17.5t102.5 16.5t74 20.5t55 39t16 62.5q0 176 -235 176q-254 0 -264 -201h-174q8 184 131 269t317 85q397 0 398 -290v-545q0 -72 8 -95.5t47 -23.5q24 0 53 10v-135q-47 -29 -125 -29q-147 0 -147 164 q-139 -164 -373 -164q-156 0 -253 74t-97 223zM205 1223q29 104 78 164.5t137 60.5q57 0 151.5 -41t135.5 -41q67 0 94 90h107q-12 -90 -64 -164q-57 -63 -162 -63q-37 0 -135 41q-104 39 -137 39q-37 0 -68.5 -24.5t-29.5 -61.5h-107zM258 285q0 -80 58.5 -118t146.5 -38 q156 0 239.5 77t83.5 163v178q-31 -23 -76.5 -35t-128.5 -22.5t-110 -14.5q-100 -18 -156.5 -60t-56.5 -130z" />
<glyph unicode="&#xe4;" horiz-adv-x="1099" d="M74 272q0 86 28.5 146.5t86 94.5t109.5 51.5t134 33.5q41 8 108.5 17.5t102.5 16.5t74 20.5t55 39t16 62.5q0 176 -235 176q-254 0 -264 -201h-174q8 184 131 269t317 85q397 0 398 -290v-545q0 -72 8 -95.5t47 -23.5q24 0 53 10v-135q-47 -29 -125 -29q-147 0 -147 164 q-139 -164 -373 -164q-156 0 -253 74t-97 223zM258 285q0 -80 58.5 -118t146.5 -38q156 0 239.5 77t83.5 163v178q-31 -23 -76.5 -35t-128.5 -22.5t-110 -14.5q-100 -18 -156.5 -60t-56.5 -130zM267 1212v213h184v-213h-184zM652 1212v213h184v-213h-184z" />
<glyph unicode="&#xe5;" horiz-adv-x="1099" d="M74 272q0 86 28.5 146.5t86 94.5t109.5 51.5t134 33.5q41 8 108.5 17.5t102.5 16.5t74 20.5t55 39t16 62.5q0 176 -235 176q-254 0 -264 -201h-174q8 184 131 269t317 85q397 0 398 -290v-545q0 -72 8 -95.5t47 -23.5q24 0 53 10v-135q-47 -29 -125 -29q-147 0 -147 164 q-139 -164 -373 -164q-156 0 -253 74t-97 223zM258 285q0 -80 58.5 -118t146.5 -38q156 0 239.5 77t83.5 163v178q-31 -23 -76.5 -35t-128.5 -22.5t-110 -14.5q-100 -18 -156.5 -60t-56.5 -130zM320 1356q0 94 67.5 162.5t164 68.5t164 -68.5t67.5 -162.5t-67.5 -163 t-164 -69t-164 69t-67.5 163zM412 1355.5q0 -57.5 40 -98t99.5 -40.5t99.5 40.5t40 98t-40 98.5t-99.5 41t-99.5 -41t-40 -98.5z" />
<glyph unicode="&#xe6;" horiz-adv-x="1781" d="M74 272q0 86 28.5 146.5t86 94.5t109.5 51.5t134 33.5q41 8 99.5 18.5t85 14.5t63.5 13t52.5 18.5t32.5 23.5t22.5 33.5t5.5 46.5q0 96 -65.5 130t-174.5 34q-254 0 -264 -201h-174q8 184 131 269t317 85q281 0 355 -153q100 154 337 153q478 0 478 -606h-777 q0 -150 82 -249t236 -99q100 0 172 52t96 153h178q-39 -170 -159.5 -264.5t-298.5 -94.5q-291 0 -383 207q-113 -207 -447 -207q-162 0 -260 74t-98 223zM258 285q0 -80 58.5 -118t146.5 -38q158 0 244 77t86 163v178q-31 -20 -81 -32.5t-132 -24t-109 -15.5 q-100 -18 -156.5 -60t-56.5 -130zM956 631h592q-4 129 -81.5 214t-211.5 85q-137 0 -218 -84t-81 -215z" />
<glyph unicode="&#xe7;" horiz-adv-x="1099" d="M74 516q0 250 129 408.5t370 158.5q190 0 314.5 -92t142.5 -272h-180q-20 100 -88 155.5t-174 55.5q-90 0 -156.5 -34t-103.5 -93.5t-53.5 -130t-16.5 -156.5q0 -162 77 -274.5t232 -112.5q125 0 200 68.5t91 189.5h178q-29 -188 -140.5 -294.5t-295.5 -115.5l-68 -86 l5 -4q20 14 67 15q70 0 121 -39t51 -111q0 -94 -76.5 -138t-177.5 -44q-82 0 -188 39l37 90q72 -27 125 -27q49 0 88 15.5t39 48.5q0 27 -28 45t-69 18q-35 0 -84 -16l-34 57l108 140q-211 16 -326.5 161.5t-115.5 374.5z" />
<glyph unicode="&#xe8;" horiz-adv-x="1099" d="M74 532q0 238 140 394.5t357 156.5q109 0 195 -38.5t139 -100t88 -143.5t48.5 -163t9.5 -161h-793q-4 -147 80 -247.5t250 -100.5q227 0 274 207h172q-35 -174 -153.5 -267.5t-298.5 -93.5q-244 0 -372 152t-136 405zM258 631h608q-6 127 -92 213t-213 86 q-131 0 -212 -86t-91 -213zM277 1497h223l176 -293h-131z" />
<glyph unicode="&#xe9;" horiz-adv-x="1099" d="M74 532q0 238 140 394.5t357 156.5q109 0 195 -38.5t139 -100t88 -143.5t48.5 -163t9.5 -161h-793q-4 -147 80 -247.5t250 -100.5q227 0 274 207h172q-35 -174 -153.5 -267.5t-298.5 -93.5q-244 0 -372 152t-136 405zM258 631h608q-6 127 -92 213t-213 86 q-131 0 -212 -86t-91 -213zM426 1204l177 293h223l-269 -293h-131z" />
<glyph unicode="&#xea;" horiz-adv-x="1099" d="M74 532q0 238 140 394.5t357 156.5q109 0 195 -38.5t139 -100t88 -143.5t48.5 -163t9.5 -161h-793q-4 -147 80 -247.5t250 -100.5q227 0 274 207h172q-35 -174 -153.5 -267.5t-298.5 -93.5q-244 0 -372 152t-136 405zM244 1204l211 293h191l213 -293h-173l-141 197 l-143 -197h-158zM258 631h608q-6 127 -92 213t-213 86q-131 0 -212 -86t-91 -213z" />
<glyph unicode="&#xeb;" horiz-adv-x="1099" d="M74 532q0 238 140 394.5t357 156.5q109 0 195 -38.5t139 -100t88 -143.5t48.5 -163t9.5 -161h-793q-4 -147 80 -247.5t250 -100.5q227 0 274 207h172q-35 -174 -153.5 -267.5t-298.5 -93.5q-244 0 -372 152t-136 405zM258 631h608q-6 127 -92 213t-213 86 q-131 0 -212 -86t-91 -213zM267 1212v213h184v-213h-184zM652 1212v213h184v-213h-184z" />
<glyph unicode="&#xec;" horiz-adv-x="454" d="M-47 1497h223l176 -293h-131zM141 0v1059h174v-1059h-174z" />
<glyph unicode="&#xed;" horiz-adv-x="454" d="M102 1204l177 293h223l-269 -293h-131zM141 0v1059h174v-1059h-174z" />
<glyph unicode="&#xee;" horiz-adv-x="454" d="M-80 1204l211 293h191l213 -293h-173l-141 197l-143 -197h-158zM141 0v1059h174v-1059h-174z" />
<glyph unicode="&#xef;" horiz-adv-x="454" d="M-57 1212v213h184v-213h-184zM141 0v1059h174v-1059h-174zM328 1212v213h184v-213h-184z" />
<glyph unicode="&#xf0;" horiz-adv-x="1175" d="M74 528q0 211 130 359.5t353 148.5q184 0 285 -114h4q-43 96 -117 182t-133 127l-236 -111l-77 82l223 105q-55 47 -144 98l144 92q147 -106 158 -115l245 115l72 -76l-236 -108q356 -293 357 -785q0 -242 -135.5 -397.5t-379 -155.5t-378.5 156t-135 397zM258 528 q0 -186 94 -292.5t235.5 -106.5t236 106.5t94.5 292.5q0 152 -85 253.5t-255 101.5q-154 0 -237 -96.5t-83 -258.5z" />
<glyph unicode="&#xf1;" d="M131 0v1059h164v-168h4q109 193 344 192q197 0 281 -101t84 -286v-696h-174v717q0 98 -58.5 155.5t-157.5 57.5q-154 0 -233.5 -91t-79.5 -241v-598h-174zM223 1223q29 104 78 164.5t137 60.5q57 0 151.5 -41t135.5 -41q67 0 94 90h107q-12 -90 -64 -164 q-57 -63 -162 -63q-37 0 -135 41q-104 39 -137 39q-37 0 -68.5 -24.5t-29.5 -61.5h-107z" />
<glyph unicode="&#xf2;" horiz-adv-x="1175" d="M74 528q0 244 135 399.5t378.5 155.5t379 -155.5t135.5 -399.5q0 -242 -135.5 -397.5t-379 -155.5t-378.5 155.5t-135 397.5zM258 528.5q0 -186.5 94 -293t235.5 -106.5t236 106.5t94.5 293t-94.5 294t-236 107.5t-235.5 -107.5t-94 -294zM313 1497h223l176 -293h-131z " />
<glyph unicode="&#xf3;" horiz-adv-x="1175" d="M74 528q0 244 135 399.5t378.5 155.5t379 -155.5t135.5 -399.5q0 -242 -135.5 -397.5t-379 -155.5t-378.5 155.5t-135 397.5zM258 528.5q0 -186.5 94 -293t235.5 -106.5t236 106.5t94.5 293t-94.5 294t-236 107.5t-235.5 -107.5t-94 -294zM462 1204l177 293h223 l-269 -293h-131z" />
<glyph unicode="&#xf4;" horiz-adv-x="1175" d="M74 528q0 244 135 399.5t378.5 155.5t379 -155.5t135.5 -399.5q0 -242 -135.5 -397.5t-379 -155.5t-378.5 155.5t-135 397.5zM258 528.5q0 -186.5 94 -293t235.5 -106.5t236 106.5t94.5 293t-94.5 294t-236 107.5t-235.5 -107.5t-94 -294zM280 1204l211 293h191l213 -293 h-173l-141 197l-143 -197h-158z" />
<glyph unicode="&#xf5;" horiz-adv-x="1175" d="M74 528q0 244 135 399.5t378.5 155.5t379 -155.5t135.5 -399.5q0 -242 -135.5 -397.5t-379 -155.5t-378.5 155.5t-135 397.5zM241 1223q29 104 78 164.5t137 60.5q57 0 151.5 -41t135.5 -41q67 0 94 90h107q-12 -90 -64 -164q-57 -63 -162 -63q-37 0 -135 41 q-104 39 -137 39q-37 0 -68.5 -24.5t-29.5 -61.5h-107zM258 528.5q0 -186.5 94 -293t235.5 -106.5t236 106.5t94.5 293t-94.5 294t-236 107.5t-235.5 -107.5t-94 -294z" />
<glyph unicode="&#xf6;" horiz-adv-x="1175" d="M74 528q0 244 135 399.5t378.5 155.5t379 -155.5t135.5 -399.5q0 -242 -135.5 -397.5t-379 -155.5t-378.5 155.5t-135 397.5zM258 528.5q0 -186.5 94 -293t235.5 -106.5t236 106.5t94.5 293t-94.5 294t-236 107.5t-235.5 -107.5t-94 -294zM303 1212v213h184v-213h-184z M688 1212v213h184v-213h-184z" />
<glyph unicode="&#xf7;" horiz-adv-x="1228" d="M98 449v139h1032v-139h-1032zM483 96.5q0 53.5 39 92t92.5 38.5t92 -40t38.5 -91q0 -49 -38.5 -90t-90.5 -41q-53 0 -93 39t-40 92.5zM483 940q0 53 39 92t92.5 39t92 -40t38.5 -91q0 -49 -38.5 -90t-90.5 -41q-53 0 -93 39t-40 92z" />
<glyph unicode="&#xf8;" horiz-adv-x="1175" d="M70 4l127 141q-123 150 -123 383q0 244 135 399.5t379 155.5q211 0 344 -120l119 133l55 -54l-123 -135q119 -147 119 -379q0 -242 -135.5 -397.5t-378.5 -155.5q-205 0 -338 117l-123 -137zM258 528q0 -141 61 -247l496 553q-90 96 -227 96q-141 0 -235.5 -107.5 t-94.5 -294.5zM365 221q92 -92 223 -92q141 0 235.5 106.5t94.5 292.5q-1 144 -58 244z" />
<glyph unicode="&#xf9;" d="M131 362v697h174v-717q0 -96 58.5 -154.5t156.5 -58.5q154 0 234 91t80 241v598h174v-1059h-164v168h-4q-109 -193 -344 -193q-197 0 -281 101.5t-84 285.5zM295 1497h223l176 -293h-131z" />
<glyph unicode="&#xfa;" d="M131 362v697h174v-717q0 -96 58.5 -154.5t156.5 -58.5q154 0 234 91t80 241v598h174v-1059h-164v168h-4q-109 -193 -344 -193q-197 0 -281 101.5t-84 285.5zM444 1204l177 293h223l-269 -293h-131z" />
<glyph unicode="&#xfb;" d="M131 362v697h174v-717q0 -96 58.5 -154.5t156.5 -58.5q154 0 234 91t80 241v598h174v-1059h-164v168h-4q-109 -193 -344 -193q-197 0 -281 101.5t-84 285.5zM262 1204l211 293h191l213 -293h-173l-141 197l-143 -197h-158z" />
<glyph unicode="&#xfc;" d="M131 362v697h174v-717q0 -96 58.5 -154.5t156.5 -58.5q154 0 234 91t80 241v598h174v-1059h-164v168h-4q-109 -193 -344 -193q-197 0 -281 101.5t-84 285.5zM285 1212v213h184v-213h-184zM670 1212v213h184v-213h-184z" />
<glyph unicode="&#xfd;" horiz-adv-x="1024" d="M16 1059h197l309 -866h4l297 866h185l-461 -1200q-61 -158 -127 -220.5t-180 -62.5q-72 0 -121 18v160q78 -25 102 -24q92 0 144 96l71 180zM387 1204l177 293h223l-269 -293h-131z" />
<glyph unicode="&#xfe;" horiz-adv-x="1214" d="M137 -406v1868h174v-547h4q41 84 132.5 126t205.5 42q233 0 360.5 -159.5t127.5 -397t-126 -394.5t-358 -157q-96 0 -192 40t-150 126h-4v-547h-174zM305 530q0 -172 83 -286.5t251 -114.5q166 0 241.5 118t75.5 292q0 162 -84 276.5t-243 114.5q-164 0 -244 -117 t-80 -283z" />
<glyph unicode="&#xff;" horiz-adv-x="1024" d="M16 1059h197l309 -866h4l297 866h185l-461 -1200q-61 -158 -127 -220.5t-180 -62.5q-72 0 -121 18v160q78 -25 102 -24q92 0 144 96l71 180zM228 1212v213h184v-213h-184zM613 1212v213h184v-213h-184z" />
<glyph unicode="&#x131;" horiz-adv-x="454" d="M141 0v1059h174v-1059h-174z" />
<glyph unicode="&#x141;" d="M-2 377v155l162 115v815h194v-676l467 328v-156l-467 -327v-467h774v-164h-968v492z" />
<glyph unicode="&#x142;" horiz-adv-x="454" d="M-2 545v145l143 115v657h174v-520l144 115v-146l-144 -114v-797h-174v657z" />
<glyph unicode="&#x152;" horiz-adv-x="2199" d="M78 727q0 338 184 554t502 216q111 0 215 -41t145 -115h4v121h977v-164h-782v-464h717v-164h-717v-506h795v-164h-990v141h-4q-53 -82 -156.5 -129t-219.5 -47q-315 0 -492.5 215t-177.5 547zM272 719q0 -256 129.5 -423t360.5 -167q156 0 261 82t105 207v616 q0 94 -30 142q-45 68 -133 112.5t-199 44.5q-238 0 -366 -176t-128 -438z" />
<glyph unicode="&#x153;" horiz-adv-x="1824" d="M74 530q0 244 122.5 398.5t358.5 154.5q279 0 367 -186q53 90 155.5 138t218.5 48q252 0 369.5 -170t103.5 -436h-768q-4 -145 77 -246.5t229 -101.5q104 0 180 54.5t106 152.5h166q-104 -360 -452 -361q-295 0 -385 209q-90 -209 -367 -209q-238 0 -359.5 157 t-121.5 398zM258 508q0 -154 74 -266.5t223 -112.5q111 0 179.5 63.5t92 148.5t23.5 191q0 397 -295 398q-154 0 -225.5 -122t-71.5 -300zM1001 631h584q0 135 -76.5 217t-212 82t-216.5 -83t-79 -216z" />
<glyph unicode="&#x160;" horiz-adv-x="1327" d="M76 481h184q0 -174 123 -263t303 -89q156 0 263.5 61.5t107.5 204.5q0 53 -23.5 95t-59.5 69t-95.5 49.5t-111.5 34.5t-128 29q-33 6 -49 10q-84 18 -140.5 33.5t-124 47.5t-108.5 69.5t-68.5 98t-27.5 138.5q0 209 155.5 318.5t374.5 109.5q236 0 383.5 -116t155.5 -347 h-184q-33 299 -363 299q-139 0 -233.5 -59.5t-94.5 -190.5q0 -29 7.5 -54t26 -44.5t35.5 -36t50 -31t57.5 -23.5t67.5 -20.5t70.5 -17.5t78 -16.5t76.5 -16.5q102 -23 174 -49t145 -72.5t110.5 -122t37.5 -178.5q0 -147 -90 -249.5t-214 -144.5t-267 -42q-262 0 -433 131 t-171 385zM356 1859h172l141 -197l144 197h158l-211 -293h-191z" />
<glyph unicode="&#x161;" horiz-adv-x="1024" d="M63 334h175q4 -109 83.5 -157t200.5 -48q256 0 256 158q0 23 -5 41t-19.5 33.5t-25.5 27.5t-36.5 22.5t-42 17.5t-51.5 16.5t-51.5 13.5t-57 12t-57.5 12q-76 16 -128 35t-107.5 52.5t-83 87t-27.5 124.5q0 147 119 224t276 77q416 0 434 -331h-174q-8 94 -77.5 136 t-167.5 42q-94 0 -160 -31t-66 -104q0 -27 9.5 -47.5t32 -37t43 -28.5t58.5 -22.5t63.5 -16.5t71.5 -16.5t68 -16.5q78 -16 130.5 -34.5t106.5 -52.5t82 -87t28 -127q0 -90 -39 -157.5t-106.5 -104.5t-143.5 -54.5t-162 -17.5q-195 0 -318 87.5t-131 271.5zM205 1497h172 l141 -197l144 197h158l-211 -293h-191z" />
<glyph unicode="&#x178;" horiz-adv-x="1327" d="M4 1462h232l438 -696l428 696h221l-559 -864v-598h-195v598zM379 1574v213h184v-213h-184zM764 1574v213h184v-213h-184z" />
<glyph unicode="&#x17d;" horiz-adv-x="1251" d="M45 0v164l909 1134h-839v164h1069v-164l-908 -1134h932v-164h-1163zM319 1859h172l141 -197l144 197h158l-211 -293h-191z" />
<glyph unicode="&#x17e;" horiz-adv-x="983" d="M45 0v133l639 772h-598v154h823v-119l-647 -786h676v-154h-893zM184 1497h172l141 -197l144 197h158l-211 -293h-191z" />
<glyph unicode="&#x192;" d="M6 -338l29 154q164 0 211 34.5t73 174.5l144 755h-189l27 140h186l54 278q25 121 106.5 192.5t208.5 71.5h152l-29 -153h-121q-102 0 -127 -107l-63 -282h209l-29 -140h-205l-113 -637q-49 -276 -133 -378.5t-256 -102.5h-135z" />
<glyph unicode="&#x2c6;" horiz-adv-x="454" d="M-80 1204l211 293h191l213 -293h-173l-141 197l-143 -197h-158z" />
<glyph unicode="&#x2c7;" horiz-adv-x="454" d="M-80 1497h172l141 -197l144 197h158l-211 -293h-191z" />
<glyph unicode="&#x2d8;" horiz-adv-x="454" d="M-92 1497h102q49 -170 230 -170q82 0 125 41t77 129h105q-23 -133 -107 -208t-217 -75q-274 0 -315 283z" />
<glyph unicode="&#x2d9;" horiz-adv-x="454" d="M135 1212v213h184v-213h-184z" />
<glyph unicode="&#x2da;" horiz-adv-x="454" d="M-4 1356q0 94 67.5 162.5t164 68.5t164 -68.5t67.5 -162.5t-67.5 -163t-164 -69t-164 69t-67.5 163zM88 1355.5q0 -57.5 40 -98t99.5 -40.5t99.5 40.5t40 98t-40 98.5t-99.5 41t-99.5 -41t-40 -98.5z" />
<glyph unicode="&#x2db;" horiz-adv-x="454" d="M156 -262q0 27 12 58.5t69.5 92t151.5 117.5h82q-176 -145 -176 -248q0 -35 19.5 -60.5t58.5 -25.5q78 0 127 62l65 -37q-74 -127 -221 -127q-188 0 -188 168z" />
<glyph unicode="&#x2dc;" horiz-adv-x="454" d="M-119 1223q29 104 78 164.5t137 60.5q57 0 151.5 -41t135.5 -41q67 0 94 90h107q-12 -90 -64 -164q-57 -63 -162 -63q-37 0 -135 41q-104 39 -137 39q-37 0 -68.5 -24.5t-29.5 -61.5h-107z" />
<glyph unicode="&#x2dd;" horiz-adv-x="454" d="M-98 1204l166 293h215l-246 -293h-135zM221 1204l166 293h215l-246 -293h-135z" />
<glyph unicode="&#x3bc;" d="M131 -406v1465h174v-717q0 -96 58.5 -154.5t156.5 -58.5q154 0 234 91t80 241v598h174v-1059h-164v168h-4q-109 -193 -344 -193q-137 0 -187 78h-4v-459h-174z" />
<glyph unicode="&#x2000;" horiz-adv-x="974" />
<glyph unicode="&#x2001;" horiz-adv-x="1949" />
<glyph unicode="&#x2002;" horiz-adv-x="974" />
<glyph unicode="&#x2003;" horiz-adv-x="1949" />
<glyph unicode="&#x2004;" horiz-adv-x="649" />
<glyph unicode="&#x2005;" horiz-adv-x="487" />
<glyph unicode="&#x2006;" horiz-adv-x="324" />
<glyph unicode="&#x2007;" horiz-adv-x="324" />
<glyph unicode="&#x2008;" horiz-adv-x="243" />
<glyph unicode="&#x2009;" horiz-adv-x="389" />
<glyph unicode="&#x200a;" horiz-adv-x="108" />
<glyph unicode="&#x2010;" horiz-adv-x="796" d="M102 487v164h592v-164h-592z" />
<glyph unicode="&#x2011;" horiz-adv-x="796" d="M102 487v164h592v-164h-592z" />
<glyph unicode="&#x2012;" horiz-adv-x="796" d="M102 487v164h592v-164h-592z" />
<glyph unicode="&#x2013;" horiz-adv-x="1024" d="M0 487v164h1024v-164h-1024z" />
<glyph unicode="&#x2014;" horiz-adv-x="2048" d="M266 487v164h1516v-164h-1516z" />
<glyph unicode="&#x2018;" horiz-adv-x="569" d="M172 934v227q0 131 56.5 216t168.5 85v-102q-63 0 -90.5 -58.5t-27.5 -140.5h120v-227h-227z" />
<glyph unicode="&#x2019;" horiz-adv-x="569" d="M170 1235v227h227v-227q0 -131 -56 -216t-169 -85v102q63 0 91 58.5t28 140.5h-121z" />
<glyph unicode="&#x201a;" horiz-adv-x="569" d="M170 0v227h227v-227q0 -131 -56 -216t-169 -85v102q63 0 91 58.5t28 140.5h-121z" />
<glyph unicode="&#x201c;" horiz-adv-x="872" d="M135 934v227q0 131 56.5 216t168.5 85v-102q-63 0 -90.5 -58.5t-27.5 -140.5h120v-227h-227zM510 934v227q0 131 56.5 216t168.5 85v-102q-63 0 -91 -58.5t-28 -140.5h121v-227h-227z" />
<glyph unicode="&#x201d;" horiz-adv-x="872" d="M135 1235v227h227v-227q0 -131 -56 -216t-169 -85v102q63 0 91 58.5t28 140.5h-121zM510 1235v227h227v-227q0 -131 -56 -216t-169 -85v102q63 0 91 58.5t28 140.5h-121z" />
<glyph unicode="&#x201e;" horiz-adv-x="872" d="M135 0v227h227v-227q0 -131 -56 -216t-169 -85v102q63 0 91 58.5t28 140.5h-121zM510 0v227h227v-227q0 -131 -56 -216t-169 -85v102q63 0 91 58.5t28 140.5h-121z" />
<glyph unicode="&#x2020;" d="M86 905v154h397v403h164v-403h406v-154h-406v-1222h-164v1222h-397z" />
<glyph unicode="&#x2021;" d="M86 86v154h397v665h-397v154h397v403h164v-403h406v-154h-406v-665h406v-154h-406v-403h-164v403h-397z" />
<glyph unicode="&#x2022;" horiz-adv-x="1024" d="M147 731.5q0 151.5 106.5 258t258.5 106.5t259.5 -106.5t107.5 -258t-107.5 -259t-259.5 -107.5t-258.5 107.5t-106.5 259z" />
<glyph unicode="&#x2026;" horiz-adv-x="2048" d="M227 0v227h228v-227h-228zM909 0v227h228v-227h-228zM1591 0v227h228v-227h-228z" />
<glyph unicode="&#x202f;" horiz-adv-x="389" />
<glyph unicode="&#x2030;" horiz-adv-x="2351" d="M147 1096q0 162 73 259t231 97q156 0 227.5 -93t71.5 -253q0 -158 -82 -260q-72 -92 -222 -92q-152 0 -225.5 93t-73.5 249zM184 -45l1102 1524h174l-1100 -1524h-176zM301 1102q0 -236 148 -236q82 0 114.5 70t32.5 164q0 53 -9 102t-43 93t-87 44q-84 0 -120 -70.5 t-36 -166.5zM895 317q0 162 72.5 259.5t230.5 97.5q156 0 227.5 -93.5t71.5 -252.5q0 -158 -82 -260q-72 -92 -221 -93q-152 0 -225.5 93t-73.5 249zM1049 324q0 -236 147 -236q82 0 114.5 69.5t32.5 164.5q0 53 -9 102t-43 93t-87 44q-84 0 -119.5 -70.5t-35.5 -166.5z M1602 317q0 162 72.5 259.5t230.5 97.5q156 0 227.5 -93.5t71.5 -252.5q0 -158 -82 -260q-72 -92 -221 -93q-152 0 -225.5 93t-73.5 249zM1755 324q0 -236 148 -236q82 0 114.5 69.5t32.5 164.5q0 53 -9 102t-43 93t-87 44q-84 0 -120 -70.5t-36 -166.5z" />
<glyph unicode="&#x2039;" horiz-adv-x="530" d="M102 479v180l312 246v-176l-205 -160l205 -159v-177z" />
<glyph unicode="&#x203a;" horiz-adv-x="530" d="M117 233v177l205 159l-205 160v176l311 -246v-180z" />
<glyph unicode="&#x2044;" horiz-adv-x="342" d="M-340 -57l891 1542h131l-891 -1542h-131z" />
<glyph unicode="&#x205f;" horiz-adv-x="487" />
<glyph unicode="&#x2122;" horiz-adv-x="2027" d="M131 1350v112h668v-112h-264v-732h-140v732h-264zM971 618v844h215l252 -641l248 641h212v-844h-139v705h-4l-276 -705h-88l-277 705h-4v-705h-139z" />
<glyph unicode="&#x2212;" horiz-adv-x="1228" d="M98 449v139h1032v-139h-1032z" />
<glyph unicode="&#xe000;" horiz-adv-x="1054" d="M0 0v1055h1055v-1055h-1055z" />
<glyph unicode="&#xfb01;" horiz-adv-x="1060" d="M25 905v154h178v158q0 129 74.5 195.5t218.5 66.5q59 0 112 -17v-151q-43 14 -98 14q-68 0 -100.5 -26.5t-32.5 -92.5v-147h205v-154h-205v-905h-174v905h-178zM748 0v1059h174v-1059h-174zM748 1249v213h174v-213h-174z" />
<glyph unicode="&#xfb02;" horiz-adv-x="1060" d="M25 905v154h178v158q0 129 74.5 195.5t218.5 66.5q59 0 112 -17v-151q-43 14 -98 14q-68 0 -100.5 -26.5t-32.5 -92.5v-147h205v-154h-205v-905h-174v905h-178zM748 0v1462h174v-1462h-174z" />
</font>
</defs>
</svg>
