<?xml version="1.0" standalone="no"?>
<!DOCTYPE svg PUBLIC "-//W3C//DTD SVG 1.1//EN" "http://www.w3.org/Graphics/SVG/1.1/DTD/svg11.dtd" >
<svg xmlns="http://www.w3.org/2000/svg">
<metadata></metadata>
<defs>
<font id="helvetica_neuebold" horiz-adv-x="1138" >
<font-face units-per-em="2048" ascent="1638" descent="-410" />
<missing-glyph horiz-adv-x="569" />
<glyph unicode="&#xd;" horiz-adv-x="681" />
<glyph unicode=" "  horiz-adv-x="569" />
<glyph unicode="&#x09;" horiz-adv-x="569" />
<glyph unicode="&#xa0;" horiz-adv-x="569" />
<glyph unicode="!" horiz-adv-x="569" d="M125 0v315h321v-315h-321zM133 1069v393h303v-393l-80 -631h-145z" />
<glyph unicode="&#x22;" horiz-adv-x="948" d="M174 805v657h219v-657h-219zM555 805v657h219v-657h-219z" />
<glyph unicode="#" d="M68 406v184h194l37 254h-170v184h195l57 406h199l-58 -406h199l55 406h199l-55 -406h151v-184h-178l-35 -254h152v-184h-179l-55 -406h-198l55 406h-197l-57 -406h-199l58 406h-170zM461 590h198l35 254h-196z" />
<glyph unicode="$" d="M-2 475h291q-2 -109 59.5 -180.5t159.5 -89.5v428q-16 6 -66 18q-92 25 -153.5 50.5t-126 70.5t-97 117t-32.5 170q0 199 138 312.5t337 125.5v158h121v-158q197 -23 322.5 -129t138.5 -307h-291q-2 82 -51.5 139t-118.5 57v-362q86 -20 104 -27q115 -31 196 -80t121 -94 t62.5 -107.5t25.5 -100t3 -93.5q0 -39 -13.5 -87t-50.5 -106.5t-91 -106.5t-147.5 -84t-209.5 -44v-174h-121v174q-465 35 -510 510zM324 1087q0 -68 42 -104t142 -59v333q-74 0 -129 -45t-55 -125zM629 205q88 8 154.5 59t66.5 142q0 80 -47 118.5t-174 73.5v-393z" />
<glyph unicode="%" horiz-adv-x="2048" d="M154 1057q0 178 88 291.5t260 113.5q178 0 257 -113.5t79 -299.5q0 -176 -87 -280.5t-259 -104.5q-338 0 -338 393zM362 1053q0 -37 1.5 -59.5t8.5 -60.5t19 -59.5t39 -39t64 -17.5q135 0 135 234q0 258 -127 258q-140 0 -140 -256zM520 -45l848 1524h174l-844 -1524 h-178zM1210 375q0 176 88 285.5t261 109.5q336 0 335 -403q0 -176 -87 -286t-259 -110q-178 0 -258 110t-80 294zM1419 373q0 -39 1 -61.5t8.5 -62.5t19.5 -63.5t38.5 -42t63.5 -18.5q135 0 135.5 245.5t-126.5 245.5q-140 1 -140 -243z" />
<glyph unicode="&#x26;" horiz-adv-x="1402" d="M66 410q0 143 92 249.5t235 174.5q-70 86 -104.5 155.5t-34.5 155.5q0 147 114.5 240.5t266.5 93.5q174 0 287.5 -91.5t113.5 -259.5q0 -227 -260 -364l189 -232q39 74 53 175h252q-23 -213 -142 -361l297 -346h-356l-119 145q-178 -174 -411 -174q-205 0 -339 118 t-134 321zM342 403q0 -80 62.5 -136t146.5 -56q131 0 246 129l-250 305q-205 -90 -205 -242zM518 1155q0 -18 3 -36.5t11.5 -36t13.5 -30t19.5 -32t20.5 -27.5t24.5 -29.5t22.5 -27.5q51 33 77.5 55.5t49 62.5t22.5 91q0 57 -40 98t-93 41t-92 -37t-39 -92z" />
<glyph unicode="'" horiz-adv-x="569" d="M176 805v657h219v-657h-219z" />
<glyph unicode="(" horiz-adv-x="606" d="M106 549q0 242 71 502t200 446h244q-223 -426 -224 -928q0 -512 221 -942h-241q-270 449 -271 922z" />
<glyph unicode=")" horiz-adv-x="606" d="M-14 -373q223 422 223 926q0 510 -221 944h241q270 -453 271 -924q0 -242 -71 -501t-200 -445h-243z" />
<glyph unicode="*" horiz-adv-x="833" d="M45 1139l55 157l232 -90v256h164v-256l237 90l55 -157l-241 -80l151 -201l-135 -100l-151 211l-144 -211l-137 100l152 201z" />
<glyph unicode="+" horiz-adv-x="1228" d="M98 408v219h408v407h219v-407h408v-219h-408v-408h-219v408h-408z" />
<glyph unicode="," horiz-adv-x="569" d="M125 0v315h321v-315q0 -137 -91 -228t-228 -112v147q63 10 106 67.5t39 125.5h-147z" />
<glyph unicode="-" horiz-adv-x="833" d="M109 434v250h616v-250h-616z" />
<glyph unicode="." horiz-adv-x="569" d="M123 0v315h321v-315h-321z" />
<glyph unicode="/" horiz-adv-x="759" d="M-23 -35l572 1532h233l-571 -1532h-234z" />
<glyph unicode="0" d="M43 723q0 391 144.5 565t379.5 174q113 0 205 -38t167 -120.5t116 -230t41 -350.5q0 -401 -145.5 -576.5t-383.5 -175.5q-236 0 -380 176.5t-144 575.5zM334 723q0 -72 1 -118t13 -130t35 -134t71 -90t113 -40q68 0 116 40t70.5 90t35 134t14.5 130t2 118q0 47 -1 75.5 t-5 87t-12.5 97.5t-26 88t-42 79t-63.5 51.5t-88 21.5t-87 -21.5t-61.5 -51.5t-41 -79t-25.5 -88t-12 -97.5t-5 -87t-1 -75.5z" />
<glyph unicode="1" d="M152 930v219q168 -4 282.5 63.5t136.5 221.5h232v-1434h-291v930h-360z" />
<glyph unicode="2" d="M43 0q0 96 26.5 179t60.5 140.5t102.5 121t118.5 100.5t145 100q8 6 63 42t72.5 49t59.5 49t57.5 61.5t32 65.5t16.5 83q0 100 -60.5 160.5t-154.5 60.5q-119 0 -173.5 -98t-54.5 -231h-278q-8 254 130 416.5t390 162.5q205 0 348 -122.5t143 -325.5q0 -147 -66.5 -246.5 t-189.5 -187.5q-35 -25 -106.5 -72t-116.5 -77t-99 -80t-91 -101h678v-250h-1053z" />
<glyph unicode="3" d="M37 494h276q4 -125 67.5 -204t184.5 -79q100 0 167 62.5t67 162.5q0 53 -13.5 91t-43 60.5t-54 36t-74 18.5t-73 6t-74.5 1v205q53 -4 101 1t96.5 22.5t78 57.5t29.5 97q0 88 -59.5 139.5t-143.5 51.5q-106 0 -164.5 -71t-56.5 -185h-276q8 221 142 358t353 137 q186 0 334 -108.5t148 -288.5q0 -106 -52.5 -186t-148.5 -107v-4q117 -27 185.5 -116t68.5 -210q0 -217 -155.5 -344t-377.5 -127q-246 0 -391 139.5t-141 383.5z" />
<glyph unicode="4" d="M33 332v266l622 836h260v-863h191v-239h-191v-332h-276v332h-606zM262 571h377v498h-6z" />
<glyph unicode="5" d="M37 426h291q10 -96 75.5 -155.5t159.5 -59.5q111 0 179.5 82t68.5 194q0 115 -66.5 192t-181.5 77q-76 0 -125 -27t-94 -88h-262l141 793h801v-240h-592l-57 -326l4 -4q109 111 280 111q205 0 324 -139.5t119 -348.5q0 -219 -157 -369.5t-376 -146.5q-221 0 -375.5 120 t-156.5 335z" />
<glyph unicode="6" d="M43 713q0 137 31.5 265t96.5 239.5t177.5 178t257.5 66.5q188 0 314 -105.5t151 -291.5h-276q-14 76 -66.5 127t-126.5 51t-129 -44t-85 -115.5t-43 -139t-17 -137.5l4 -4q113 160 323 160q92 0 180.5 -40t149.5 -108q111 -129 111 -319q0 -223 -140.5 -374t-361.5 -151 q-156 0 -268.5 63.5t-171 173t-85 233.5t-26.5 272zM354 477q0 -106 63.5 -186t168.5 -80q98 0 158.5 79t60.5 183q0 111 -56.5 190.5t-162.5 79.5q-111 0 -171.5 -76.5t-60.5 -189.5z" />
<glyph unicode="7" d="M80 1163v271h979v-250q-213 -186 -339 -529.5t-130 -654.5h-311q25 315 149.5 615t331.5 548h-680z" />
<glyph unicode="8" d="M29 420q0 135 71.5 228t198.5 124v4q-102 29 -156.5 107.5t-54.5 187.5q0 182 146.5 286.5t336.5 104.5q127 0 224.5 -40t150.5 -101t79 -123.5t26 -120.5q0 -109 -54.5 -188.5t-154.5 -112.5v-4q127 -29 197.5 -122t70.5 -228q0 -213 -159.5 -332t-377.5 -119 q-225 0 -384.5 115t-159.5 334zM319 434q0 -109 74 -176.5t180.5 -67.5t176 68t69.5 174q0 100 -70.5 165t-175.5 65q-111 0 -182.5 -61t-71.5 -167zM352 1044q0 -90 63.5 -139t156 -49t153.5 50t61 138q0 76 -48 137.5t-167 61.5q-92 0 -155.5 -53.5t-63.5 -145.5z" />
<glyph unicode="9" d="M43 938q0 223 140.5 373.5t361.5 150.5q156 0 268.5 -63.5t170.5 -173t85 -233.5t27 -271q0 -137 -32 -265t-96.5 -240t-177 -178.5t-258.5 -66.5q-188 0 -313.5 106t-150.5 292h276q14 -76 66.5 -127.5t126 -51.5t129 44.5t85 116t43 139t17.5 137.5l-4 4 q-113 -160 -324 -160q-92 0 -180 40t-149 107q-111 129 -111 320zM334 961q0 -111 56.5 -191t162.5 -80q111 0 171 77t60 189q0 106 -63.5 186.5t-167.5 80.5q-98 0 -158.5 -79t-60.5 -183z" />
<glyph unicode=":" horiz-adv-x="569" d="M125 0v315h321v-315h-321zM125 725v315h321v-315h-321z" />
<glyph unicode=";" horiz-adv-x="569" d="M125 0v315h321v-315q-2 -137 -92 -228t-227 -112v147q63 10 106 67.5t39 125.5h-147zM125 725v315h321v-315h-321z" />
<glyph unicode="&#x3c;" horiz-adv-x="1228" d="M94 397v242l1041 414v-236l-752 -299l752 -299v-235z" />
<glyph unicode="=" horiz-adv-x="1228" d="M98 188v220h1035v-220h-1035zM98 627v219h1035v-219h-1035z" />
<glyph unicode="&#x3e;" horiz-adv-x="1228" d="M94 -16v235l752 299l-752 299v236l1041 -414v-242z" />
<glyph unicode="?" d="M66 991q4 223 140 364.5t357 141.5q137 0 241.5 -39t160 -100.5t82 -127t26.5 -128.5q0 -133 -45 -208t-127 -138q-10 -8 -36.5 -27.5t-39 -29t-34 -28t-32.5 -31.5t-25.5 -33.5t-21.5 -43t-12 -47.5v-78h-276v92q8 121 54 192t124 130q94 74 117 111q33 47 33 110 q0 184 -174 184q-104 0 -156.5 -74.5t-54.5 -191.5h-301zM395 0v315h322v-315h-322z" />
<glyph unicode="@" horiz-adv-x="1638" d="M74 731q0 322 228 544t550 222q291 0 502 -175t211 -450q0 -121 -38 -223t-94.5 -168.5t-124 -114t-125 -67.5t-100.5 -20q-63 0 -104 32.5t-45 83.5h-4q-72 -119 -221 -119q-131 0 -226.5 103.5t-95.5 247.5q0 205 126 363.5t321 158.5q74 0 140 -35t99 -108l33 110h168 l-129 -528q-41 -135 18 -135q92 0 167 109.5t75 266.5q0 238 -156.5 371t-398.5 133q-260 0 -420 -171t-160 -435q0 -266 169 -432t435 -166q272 0 441 168h172q-104 -158 -268 -245t-357 -87q-330 0 -559 220.5t-229 545.5zM596 653q0 -82 44 -132t116 -50q104 0 178 98.5 t74 210.5q0 74 -46.5 124t-111.5 50q-104 0 -179 -96t-75 -205z" />
<glyph unicode="A" horiz-adv-x="1402" d="M-14 0l555 1462h329l547 -1462h-334l-110 326h-547l-115 -326h-325zM510 565h379l-184 537h-5z" />
<glyph unicode="B" horiz-adv-x="1441" d="M141 0v1462h688q467 0 467 -362q0 -209 -198 -305q131 -37 199.5 -134.5t68.5 -236.5q0 -209 -149.5 -316.5t-366.5 -107.5h-709zM463 250h344q238 0 237 192q0 209 -231 209h-350v-401zM463 870h325q90 0 143.5 43t53.5 131q0 168 -221 168h-301v-342z" />
<glyph unicode="C" horiz-adv-x="1517" d="M78 725q0 336 193.5 554t525.5 218q250 0 425.5 -140t204.5 -386h-311q-14 109 -106 182.5t-213 73.5q-137 0 -229.5 -74t-130.5 -183.5t-38 -244.5q0 -205 98.5 -347t299.5 -142q143 0 228 89t103 238h312q-25 -272 -200 -435t-443 -163q-330 0 -524.5 216t-194.5 544z " />
<glyph unicode="D" horiz-adv-x="1517" d="M141 0v1462h631q297 0 480.5 -185t183.5 -538q0 -332 -170 -535.5t-494 -203.5h-631zM463 270h287q156 0 260 106.5t104 332.5q0 236 -96 359.5t-326 123.5h-229v-922z" />
<glyph unicode="E" horiz-adv-x="1327" d="M141 0v1462h1094v-270h-772v-313h708v-250h-708v-359h788v-270h-1110z" />
<glyph unicode="F" horiz-adv-x="1214" d="M141 0v1462h1028v-270h-706v-338h612v-250h-612v-604h-322z" />
<glyph unicode="G" horiz-adv-x="1554" d="M78 725q0 336 193.5 554t525.5 218q236 0 414 -138t202 -378h-307q-27 119 -110 182.5t-199 63.5q-137 0 -229.5 -74t-130.5 -183.5t-38 -244.5q0 -205 98.5 -347t299.5 -142q156 0 244.5 80.5t103.5 234.5h-324v240h615v-791h-205l-33 166q-156 -201 -401 -201 q-330 0 -524.5 216t-194.5 544z" />
<glyph unicode="H" horiz-adv-x="1517" d="M141 0v1462h322v-561h592v561h321v-1462h-321v631h-592v-631h-322z" />
<glyph unicode="I" horiz-adv-x="604" d="M141 0v1462h322v-1462h-322z" />
<glyph unicode="J" d="M29 418v127h290v-66q0 -119 40 -181t147 -62q49 0 83 16t50 36.5t25.5 59.5t10.5 61.5t1 65.5v987h321v-1001q0 -496 -487 -496q-201 0 -341 114t-140 339z" />
<glyph unicode="K" horiz-adv-x="1478" d="M141 0v1462h322v-606l571 606h402l-572 -577l627 -885h-404l-440 657l-184 -186v-471h-322z" />
<glyph unicode="L" horiz-adv-x="1214" d="M141 0v1462h322v-1192h713v-270h-1035z" />
<glyph unicode="M" horiz-adv-x="1857" d="M141 0v1462h453l342 -1005h4l324 1005h452v-1462h-301v1036h-4l-358 -1036h-248l-359 1026h-4v-1026h-301z" />
<glyph unicode="N" horiz-adv-x="1517" d="M141 0v1462h320l610 -981h4v981h301v-1462h-321l-609 979h-4v-979h-301z" />
<glyph unicode="O" horiz-adv-x="1593" d="M78 725q0 336 193.5 554t525 218t525.5 -218t194 -554q0 -328 -195 -544t-524.5 -216t-524 216t-194.5 544zM399 725q0 -205 98.5 -347t299 -142t299 142t98.5 347q0 135 -38 244.5t-130 183.5t-229.5 74t-229.5 -74t-130 -183.5t-38 -244.5z" />
<glyph unicode="P" horiz-adv-x="1366" d="M141 0v1462h660q174 0 291.5 -69.5t166 -171t48.5 -228.5t-48.5 -228t-166 -171t-291.5 -70h-338v-524h-322zM463 774h250q131 0 206.5 46t75.5 173t-75.5 173t-206.5 46h-250v-438z" />
<glyph unicode="Q" horiz-adv-x="1593" d="M78 725q0 336 193.5 554t525 218t525.5 -218t194 -554q0 -324 -191 -539l182 -166l-149 -157l-207 188q-150 -86 -354 -86q-330 0 -524.5 216t-194.5 544zM399 725q0 -205 98.5 -347t299.5 -142q106 0 129 20l-138 125l150 160l166 -152q90 125 90 336q0 135 -38 244.5 t-130 183.5t-229.5 74t-229.5 -74t-130 -183.5t-38 -244.5z" />
<glyph unicode="R" horiz-adv-x="1478" d="M141 0v1462h789q193 0 310.5 -116.5t117.5 -286.5q0 -272 -232 -367v-4q193 -49 213 -342q0 -12 3.5 -61t5.5 -79t8 -73t17 -76.5t28 -56.5h-322q-16 41 -25.5 99.5t-14.5 136t-11 114.5q-16 119 -70.5 170t-173.5 51h-321v-571h-322zM463 801h352q221 0 221 209 q0 202 -219 202h-2h-352v-411z" />
<glyph unicode="S" horiz-adv-x="1329" d="M49 485h311q0 -137 91.5 -203.5t232.5 -66.5q68 0 126 13.5t108.5 56.5t50.5 112q0 33 -11.5 59.5t-38 48t-52 36t-72.5 29t-79 23.5t-91.5 23.5t-89.5 22.5q-96 25 -162 51.5t-135.5 73.5t-104.5 119.5t-35 171.5q0 141 83 245.5t204 150.5t260 46q162 0 289 -45 t212 -154.5t85 -271.5h-311q-12 221 -289 221q-88 0 -154.5 -41t-66.5 -125q0 -80 69.5 -112.5t366.5 -108.5q195 -49 289 -121q145 -113 145 -305q0 -209 -159.5 -339t-448.5 -130q-264 0 -444 133q-179 132 -179 381v6z" />
<glyph unicode="T" horiz-adv-x="1251" d="M27 1192v270h1198v-270h-439v-1192h-321v1192h-438z" />
<glyph unicode="U" horiz-adv-x="1517" d="M135 553v909h322v-909q0 -145 62.5 -231t238.5 -86q168 0 235.5 74.5t67.5 242.5v909h321v-909q0 -291 -162.5 -439.5t-461.5 -148.5q-301 0 -462 147.5t-161 440.5z" />
<glyph unicode="V" horiz-adv-x="1290" d="M-16 1462h331l326 -1028h4l330 1028h332l-486 -1462h-362z" />
<glyph unicode="W" horiz-adv-x="1933" d="M6 1462h322l231 -995h4l254 995h301l250 -1007h4l240 1007h315l-393 -1462h-320l-247 995h-4l-244 -995h-326z" />
<glyph unicode="X" horiz-adv-x="1366" d="M-12 0l512 766l-471 696h372l287 -467l297 467h352l-469 -698l510 -764h-383l-319 506l-326 -506h-362z" />
<glyph unicode="Y" horiz-adv-x="1366" d="M-18 1462h362l342 -577l340 577h358l-542 -901v-561h-322v569z" />
<glyph unicode="Z" horiz-adv-x="1327" d="M47 0v254l784 938h-722v270h1151v-254l-785 -938h805v-270h-1233z" />
<glyph unicode="[" horiz-adv-x="681" d="M139 -373v1870h541v-229h-250v-1411h250v-230h-541z" />
<glyph unicode="\" horiz-adv-x="759" d="M-23 1497h234l571 -1532h-233z" />
<glyph unicode="]" horiz-adv-x="681" d="M2 -143h250v1411h-250v229h541v-1870h-541v230z" />
<glyph unicode="^" horiz-adv-x="1228" d="M125 645l352 789h275l352 -789h-240l-250 563l-249 -563h-240z" />
<glyph unicode="_" horiz-adv-x="1024" d="M0 -154h1024v-102h-1024v102z" />
<glyph unicode="`" horiz-adv-x="530" d="M-98 1481h321l197 -291h-203z" />
<glyph unicode="a" horiz-adv-x="1175" d="M66 289q0 86 29.5 147.5t85 95t111.5 51t134 27.5q29 4 74 9.5t72.5 9.5t62.5 10t56.5 14.5t41 21.5t28.5 31.5t9 43.5q0 86 -49 114.5t-139 28.5q-179 0 -193 -160h-291q12 188 152.5 271t345.5 83q465 0 465 -301v-550q0 -176 37 -236h-295q-18 57 -21 102 q-125 -131 -356 -131q-160 0 -260 81t-100 237zM356 301q0 -135 179 -135q235 0 235 244v108q-16 -14 -47 -25.5t-56.5 -15.5t-70.5 -10t-68 -10q-82 -16 -127 -50t-45 -106z" />
<glyph unicode="b" horiz-adv-x="1251" d="M111 0v1462h290v-532h5q103 157 330 157h3q176 0 307.5 -143t131.5 -414q0 -272 -131.5 -415.5t-307.5 -143.5q-258 0 -348 164h-4v-135h-276zM391 528q0 -143 63.5 -240.5t184.5 -97.5t184.5 97.5t63.5 240.5q0 145 -62.5 242.5t-185.5 97.5t-185.5 -97t-62.5 -243z" />
<glyph unicode="c" horiz-adv-x="1175" d="M78 514q0 254 144.5 413.5t395.5 159.5q201 0 343.5 -104t154.5 -297h-285q-29 182 -215 182q-127 0 -187 -103t-60 -241q0 -133 58 -233.5t183 -100.5q98 0 157.5 57.5t74.5 158.5h280q-27 -209 -163 -322t-347 -113q-238 0 -386 151.5t-148 391.5z" />
<glyph unicode="d" horiz-adv-x="1251" d="M66 539q0 229 123.5 388.5t345.5 159.5q96 0 181 -40.5t132 -116.5h4v532h291v-1462h-277v135h-4q-96 -164 -321 -164q-227 0 -351 166t-124 402zM356 530q0 -139 64.5 -239.5t191.5 -100.5q133 0 191.5 96t58.5 246q0 145 -59.5 240.5t-190.5 95.5q-133 0 -194.5 -96 t-61.5 -242z" />
<glyph unicode="e" horiz-adv-x="1175" d="M59 528q0 242 150.5 400.5t390.5 158.5q258 0 394 -184q122 -165 122 -390q0 -27 -2 -54h-764q12 -268 260 -269q84 0 149.5 42t80.5 96h256q-117 -356 -496 -357q-248 0 -394.5 155t-146.5 402zM350 643h473q-20 115 -74.5 170t-156.5 55q-123 0 -180.5 -71.5 t-61.5 -153.5z" />
<glyph unicode="f" horiz-adv-x="681" d="M0 864v195h174v82q0 145 91 233t263 88q29 0 84.5 -4t69.5 -4v-217q-53 6 -107 6q-59 0 -84.5 -27.5t-25.5 -93.5v-63h201v-195h-201v-864h-291v864h-174z" />
<glyph unicode="g" horiz-adv-x="1251" d="M78 563q0 219 120.5 371.5t333.5 152.5q219 0 316 -169h4v141h276v-991q0 -61 -9 -116.5t-44 -123.5t-91 -116t-160.5 -80.5t-243.5 -32.5q-178 0 -317.5 86t-149.5 254h288q35 -145 217 -146q117 0 176 72q58 70 58 182v8v140h-4q-45 -80 -131 -122t-187 -42 q-225 0 -338.5 149.5t-113.5 382.5zM369 567q0 -131 56 -224t179 -93q119 0 183.5 85t64.5 208q0 143 -58.5 234t-189.5 91q-117 0 -176 -86t-59 -215z" />
<glyph unicode="h" horiz-adv-x="1214" d="M111 0v1462h290v-551h7q53 86 138 131t171 45q219 0 303 -110.5t84 -325.5v-651h-291v598q0 133 -43 196.5t-143 63.5q-119 0 -172.5 -71.5t-53.5 -231.5v-555h-290z" />
<glyph unicode="i" horiz-adv-x="528" d="M119 0v1059h291v-1059h-291zM119 1223v239h291v-239h-291z" />
<glyph unicode="j" horiz-adv-x="569" d="M-39 -125q25 -8 64 -8q113 0 112 94v1098h291v-1112q0 -170 -80 -245t-293 -75q-33 0 -94 8v240zM137 1223v239h291v-239h-291z" />
<glyph unicode="k" horiz-adv-x="1175" d="M137 0v1462h291v-784l367 381h344l-400 -389l445 -670h-353l-290 473l-113 -108v-365h-291z" />
<glyph unicode="l" horiz-adv-x="528" d="M119 0v1462h291v-1462h-291z" />
<glyph unicode="m" horiz-adv-x="1855" d="M119 0v1059h274v-144h4q121 172 324 172q229 0 309 -176q51 76 133 126t187 50q180 0 283.5 -91t103.5 -287v-709h-291v600q0 49 -2 82t-12.5 69.5t-29 57t-52 35t-82.5 14.5q-195 0 -195 -268v-590h-291v594v14q0 49 -1 74t-10 64.5t-26.5 59t-52.5 36t-86 16.5 q-27 0 -55.5 -10t-63 -33.5t-56 -76t-21.5 -124.5v-614h-291z" />
<glyph unicode="n" horiz-adv-x="1214" d="M111 0v1059h276v-148h6q53 86 140.5 131t183.5 45q219 0 303 -110.5t84 -325.5v-651h-291v598q0 133 -43 196.5t-143 63.5q-119 0 -172.5 -71.5t-53.5 -231.5v-555h-290z" />
<glyph unicode="o" horiz-adv-x="1251" d="M78 528q0 254 149.5 406.5t397.5 152.5q250 0 399.5 -152.5t149.5 -406.5q0 -252 -150 -404.5t-399 -152.5q-248 0 -397.5 152.5t-149.5 404.5zM369 528.5q0 -145.5 60 -242t196 -96.5q137 0 197.5 96.5t60.5 242t-60.5 242.5t-197.5 97q-135 0 -195.5 -97t-60.5 -242.5z " />
<glyph unicode="p" horiz-adv-x="1251" d="M111 -373v1432h276v-135h4q99 163 313 163h3q236 0 358.5 -162.5t122.5 -406.5q0 -227 -122 -387t-343 -160q-96 0 -181 41t-136 119h-5v-504h-290zM391 526q0 -143 61.5 -239.5t192.5 -96.5q133 0 192.5 95.5t59.5 240.5q0 143 -62.5 242.5t-191.5 99.5 q-133 0 -192.5 -98t-59.5 -244z" />
<glyph unicode="q" horiz-adv-x="1251" d="M66 522q0 236 123.5 400.5t351.5 164.5q229 0 321 -163h4v135h277v-1432h-291v506h-4q-47 -82 -139.5 -122t-194.5 -40q-78 0 -152.5 30t-143 91.5t-110.5 173t-42 256.5zM356 528q0 -145 59.5 -241.5t192.5 -96.5q131 0 192.5 94.5t61.5 239.5q0 141 -60.5 242.5 t-187.5 101.5q-131 0 -194.5 -98.5t-63.5 -241.5z" />
<glyph unicode="r" horiz-adv-x="796" d="M111 0v1059h276v-197h4q39 98 135.5 161.5t202.5 63.5q33 0 64 -10v-270q-45 10 -105 10q-150 0 -218.5 -93t-68.5 -247v-477h-290z" />
<glyph unicode="s" horiz-adv-x="1099" d="M59 344h277q2 -90 65.5 -134t157.5 -44q76 0 133.5 32.5t57.5 102.5q0 33 -19.5 56.5t-69 43t-99.5 31.5t-142 33q-74 16 -125 34.5t-103.5 50.5t-80 81t-27.5 117q0 96 39 165.5t107.5 106.5t145.5 52t169 15q195 0 322.5 -78.5t144.5 -258.5h-277q-10 143 -198 143 q-162 0 -162 -98q0 -23 9 -40.5t28.5 -30.5t39 -22.5t54.5 -18.5t60.5 -15t68.5 -15.5t70 -15.5q158 -37 246.5 -100.5t88.5 -196.5q0 -193 -138 -281t-345 -88t-348.5 89t-149.5 284z" />
<glyph unicode="t" horiz-adv-x="720" d="M12 864v195h176v317h291v-317h213v-195h-213v-524q0 -74 24.5 -98.5t98.5 -24.5q49 0 90 8v-227q-61 -10 -170 -10q-156 0 -245 53t-89 199v624h-176z" />
<glyph unicode="u" horiz-adv-x="1214" d="M111 408v651h290v-598q0 -133 43 -196.5t144 -63.5q119 0 172 71.5t53 231.5v555h291v-1059h-277v147h-6q-53 -86 -140 -131t-183 -45q-219 0 -303 111t-84 326z" />
<glyph unicode="v" horiz-adv-x="1064" d="M10 1059h305l224 -723h4l223 723h289l-359 -1059h-323z" />
<glyph unicode="w" horiz-adv-x="1667" d="M12 1059h307l195 -719h4l176 719h283l180 -717h4l195 717h299l-334 -1059h-299l-188 711h-5l-180 -711h-301z" />
<glyph unicode="x" horiz-adv-x="1099" d="M0 0l381 557l-348 502h332l186 -277l184 277h322l-348 -496l391 -563h-332l-221 334l-221 -334h-326z" />
<glyph unicode="y" horiz-adv-x="1062" d="M-12 1059h311l240 -725h4l231 725h301l-442 -1192q-47 -129 -131 -184.5t-234 -55.5q-80 0 -178 11v239q150 -10 170 -10q72 8 100 69q13 32 13 64t-13 66z" />
<glyph unicode="z" horiz-adv-x="1062" d="M45 0v219l551 621h-510v219h893v-219l-551 -621h590v-219h-973z" />
<glyph unicode="{" horiz-adv-x="681" d="M-18 473v178q63 0 125.5 46t62.5 139v385q0 127 84 201.5t168 74.5h260v-229h-111q-111 0 -110 -150v-311q0 -215 -203 -242v-6q70 -6 136.5 -59.5t66.5 -165.5v-328q0 -150 110 -149h111v-230h-260q-84 0 -168 75t-84 202v399q0 84 -62.5 127t-125.5 43z" />
<glyph unicode="|" horiz-adv-x="456" d="M119 -438v2048h219v-2048h-219z" />
<glyph unicode="}" horiz-adv-x="681" d="M0 -143h111q111 0 110 149v328q0 113 66.5 166t136.5 59v6q-203 27 -203 242v311q0 150 -110 150h-111v229h260q84 0 168 -74.5t84 -201.5v-385q0 -92 62.5 -138.5t125.5 -46.5v-178q-63 0 -125.5 -43t-62.5 -127v-399q0 -127 -84 -202t-168 -75h-260v230z" />
<glyph unicode="~" horiz-adv-x="1228" d="M137 520q92 176 256 176q80 0 228 -65q14 -6 43.5 -19.5t47 -20.5t41 -16.5t42 -13.5t34.5 -4q39 0 75 24.5t55.5 50.5t50.5 73l82 -191q-41 -55 -68 -86t-78 -60.5t-110 -29.5q-86 0 -209 68q-127 72 -236 71q-104 0 -172 -147z" />
<glyph unicode="&#xa1;" horiz-adv-x="569" d="M125 772v315h321v-315h-321zM133 18l80 631h145l78 -631v-393h-303v393z" />
<glyph unicode="&#xa2;" d="M43 512q0 240 129 397.5t360 177.5v175h121v-175q178 -2 315.5 -114.5t143.5 -288.5h-285q-6 74 -55 126t-119 58v-678q74 14 125 80t53 146h285q-16 -190 -144 -309t-319 -136v-207h-121v207q-217 14 -353 167t-136 374zM334 541q-1 -290 198 -351v676 q-102 -27 -150 -118t-48 -207z" />
<glyph unicode="&#xa3;" d="M43 633v174h131q-35 45 -63.5 122t-28.5 161q0 172 138 289.5t386 117.5q236 0 368 -133t130 -379h-277q-4 41 -6 60.5t-15 67.5t-34.5 73.5t-64.5 48t-103 22.5q-90 0 -145.5 -51t-55.5 -137q0 -39 3.5 -64.5t23 -76.5t57.5 -121h273v-174h-215q16 -55 16 -127 q0 -154 -168 -287l4 -4q76 47 140 47q45 0 161 -22q106 -25 160 -25q96 0 180 88l123 -207q-137 -131 -319 -131q-121 0 -224 37q-119 41 -202 41q-136 0 -236 -78l-127 191q231 150 232 340q0 59 -39 137h-203z" />
<glyph unicode="&#xa4;" d="M41 305l117 119q-98 115 -99 291q0 197 99 295l-117 118l117 117l116 -115q111 94 299 95q178 0 281 -92l119 116l125 -125l-115 -112q92 -102 92 -293q0 -182 -94 -299l113 -115l-113 -112l-117 118q-106 -102 -293 -102q-190 0 -301 100l-114 -119zM313 715 q0 -119 69 -203t189 -84q119 0 184.5 86t65.5 205q0 117 -65.5 202t-182.5 85q-123 0 -191.5 -85t-68.5 -206z" />
<glyph unicode="&#xa5;" d="M-18 1462h333l271 -637l264 637h332l-318 -637h195v-194h-293l-31 -60v-94h324v-194h-324v-283h-311v283h-322v194h322v94l-29 60h-293v194h195z" />
<glyph unicode="&#xa6;" horiz-adv-x="456" d="M119 -182v512h219v-512h-219zM119 842v512h219v-512h-219z" />
<glyph unicode="&#xa7;" d="M20 637q0 221 220 299q-88 94 -88 207q0 164 129 259t299 95q188 0 310 -105.5t122 -289.5h-254q0 78 -47 127t-127 49q-59 0 -107.5 -37t-48.5 -94q0 -25 9 -46.5t30.5 -42t43 -35.5t58.5 -34.5t62.5 -32t72 -34t72.5 -33.5q162 -76 252 -161t90 -216q0 -100 -58.5 -182 t-154.5 -117q113 -86 113 -242q0 -162 -132 -253t-304 -91q-207 0 -335 99.5t-126 298.5h254q10 -178 200 -179q66 0 109 35t43 101q0 20 -5 37.5t-18.5 35t-25.5 30.5t-37 29.5t-42 27t-50 26.5t-52.5 25.5t-58.5 27t-59 27.5q-168 80 -263.5 167t-95.5 222zM274 662 q0 -66 66 -101l369 -201q33 -14 61 -14q37 0 65.5 38t28.5 75q0 80 -92 129l-338 190q-43 23 -55 21q-43 -4 -74 -47t-31 -90z" />
<glyph unicode="&#xa8;" horiz-adv-x="530" d="M-84 1223v239h277v-239h-277zM338 1223v239h276v-239h-276z" />
<glyph unicode="&#xa9;" horiz-adv-x="1638" d="M33 731q0 225 110.5 403.5t288.5 270.5t387 92t387 -92t289 -270.5t111 -403.5q0 -338 -231.5 -552t-555 -214t-555 214t-231.5 552zM242 731q0 -258 166.5 -430t410.5 -172q242 0 410 172t168 430q0 260 -168 431t-410 171q-244 0 -410.5 -171t-166.5 -431zM408 735 q0 203 117.5 331t318.5 128q145 0 247.5 -83t122.5 -234h-159q-14 72 -72.5 112.5t-138.5 40.5q-115 0 -177.5 -81t-62.5 -210q0 -123 67.5 -209t176.5 -86q84 0 141.5 43t65.5 117h166q-25 -150 -128.5 -236.5t-244.5 -86.5q-197 0 -318.5 130t-121.5 324z" />
<glyph unicode="&#xaa;" horiz-adv-x="704" d="M20 973q0 100 63.5 143t170.5 55q18 2 50 5.5t48.5 5.5t39 6t34.5 8t24.5 11t17.5 17.5t5 24.5q0 47 -31.5 63.5t-91.5 16.5q-39 0 -67.5 -22.5t-32.5 -67.5h-209q16 123 113 178q78 45 206 45q307 0 308 -182v-340q0 -111 24 -154h-207q-10 31 -14 64q-80 -82 -221 -82 q-102 0 -166 50t-64 155zM229 977q0 -76 93 -76q149 0 149 154v41q-12 -12 -34.5 -18.5t-59.5 -11.5t-43 -7q-104 -23 -105 -82z" />
<glyph unicode="&#xab;" horiz-adv-x="909" d="M86 420v276l322 252v-246l-185 -145l185 -147v-246zM502 420v276l321 252v-246l-184 -145l184 -147v-246z" />
<glyph unicode="&#xac;" horiz-adv-x="1228" d="M98 612v219h1032v-628h-219v409h-813z" />
<glyph unicode="&#xad;" horiz-adv-x="833" d="M109 434v250h616v-250h-616z" />
<glyph unicode="&#xae;" horiz-adv-x="1638" d="M33 733q0 338 231.5 551t555 213t555 -213t231.5 -551q0 -340 -231.5 -554t-555 -214t-555 214t-231.5 554zM242 733q0 -260 166.5 -432t410.5 -172q242 0 410 172t168 432q0 258 -168 429t-410 171q-244 0 -410.5 -171t-166.5 -429zM514 305v858h324q168 0 252 -59.5 t84 -194.5q0 -211 -226 -229l230 -375h-179l-208 367h-107v-367h-170zM684 805h152q84 0 126 23.5t42 95.5q0 106 -177 106h-143v-225z" />
<glyph unicode="&#xaf;" horiz-adv-x="530" d="M-117 1262v153h764v-153h-764z" />
<glyph unicode="&#xb0;" horiz-adv-x="819" d="M106 1159q0 127 88.5 215t215.5 88t215 -88t88 -215t-88 -215t-215 -88t-215.5 88t-88.5 215zM240 1159q0 -74 51 -127t118.5 -53t119 53t51.5 127t-51.5 127t-119 53t-118.5 -53t-51 -127z" />
<glyph unicode="&#xb1;" horiz-adv-x="1228" d="M98 0v219h1035v-219h-1035zM98 549v219h408v268h219v-268h408v-219h-408v-268h-219v268h-408z" />
<glyph unicode="&#xb2;" horiz-adv-x="802" d="M55 559q0 78 20.5 138.5t66.5 108.5t86 77.5t114 77.5q6 4 49 30.5t57.5 37.5t42 36t38 50.5t10.5 55.5q0 55 -35 91t-90 36q-78 0 -115 -59t-33 -133h-209q-2 164 92.5 260t278.5 96q135 0 227.5 -72.5t92.5 -203.5q0 -88 -43 -148.5t-123 -113.5q-10 -6 -85 -50.5 t-115 -76t-71 -74.5h428v-164h-684z" />
<glyph unicode="&#xb3;" horiz-adv-x="802" d="M45 868h197q4 -70 44 -116.5t113 -46.5q63 0 106.5 36.5t43.5 92.5q0 41 -18.5 66.5t-57.5 35.5t-64.5 12t-72.5 2v144q41 0 65.5 2t59.5 10t52 28.5t17 55.5q0 49 -37.5 78.5t-89.5 29.5q-63 0 -101 -42t-36 -105h-196q4 143 92 227t239 84q131 0 228.5 -66.5 t97.5 -185.5q0 -63 -35 -111t-100 -65v-4q76 -14 121 -67.5t45 -124.5q0 -141 -101.5 -219t-253.5 -78q-168 0 -264 85t-94 242z" />
<glyph unicode="&#xb4;" horiz-adv-x="530" d="M111 1190l196 291h322l-316 -291h-202z" />
<glyph unicode="&#xb6;" horiz-adv-x="1269" d="M4 1090q0 203 129 287.5t363 84.5h600v-1802h-209v1638h-225v-1638h-209v1071q-211 0 -330 97.5t-119 261.5z" />
<glyph unicode="&#xb7;" horiz-adv-x="569" d="M113 588q0 72 51 123t123 51q70 0 121 -52.5t51 -121.5q0 -66 -51.5 -119t-118.5 -53q-72 0 -124 51t-52 121z" />
<glyph unicode="&#xb8;" horiz-adv-x="530" d="M25 -401l43 98q86 -37 172 -37q82 0 82 70q0 66 -82 65q-43 0 -82 -14l-43 49l121 174h100l-80 -113h4q20 10 70 11q76 0 132 -37t56 -107q0 -205 -239 -204q-123 0 -254 45z" />
<glyph unicode="&#xb9;" horiz-adv-x="802" d="M158 1120v154q238 -8 262 170h172v-885h-209v561h-225z" />
<glyph unicode="&#xba;" horiz-adv-x="751" d="M25 1114q0 160 95 254t255 94t256 -94t96 -254t-95 -253t-257 -93q-160 0 -255 93t-95 253zM244 1114q0 -76 33.5 -134t97.5 -58q66 0 99.5 58t33.5 134q0 80 -34 137.5t-99 57.5q-63 0 -97 -57.5t-34 -137.5z" />
<glyph unicode="&#xbb;" horiz-adv-x="909" d="M86 164v246l184 147l-184 145v246l322 -252v-276zM502 164v246l184 147l-184 145v246l321 -252v-276z" />
<glyph unicode="&#xbc;" horiz-adv-x="1826" d="M49 1120v154q238 -8 262 170h172v-885h-209v561h-225zM311 -45l848 1524h174l-844 -1524h-178zM1018 182v191l385 487h205v-514h116v-164h-116v-182h-197v182h-393zM1174 346h237v295h-4z" />
<glyph unicode="&#xbd;" horiz-adv-x="1820" d="M49 1120v154q238 -8 262 170h172v-885h-209v561h-225zM311 -45l848 1524h174l-844 -1524h-178zM1040 0q0 78 20.5 138.5t67 108.5t86 77.5t113.5 76.5q6 4 49 31t57.5 38t42 35.5t38 50.5t10.5 56q0 55 -35 91t-90 36q-78 0 -115 -59t-33 -133h-209q-2 164 92.5 260 t278.5 96q135 0 227.5 -72.5t92.5 -203.5q0 -88 -43 -148.5t-123 -113.5q-10 -6 -85 -50.5t-115 -76t-71 -74.5h428v-164h-684z" />
<glyph unicode="&#xbe;" horiz-adv-x="1820" d="M80 868h196q4 -70 44 -116.5t114 -46.5q63 0 106.5 36.5t43.5 92.5q0 41 -18.5 66.5t-57.5 35.5t-64.5 12t-72.5 2v144q41 0 65.5 2t59 10t52 28.5t17.5 55.5q0 49 -38 78.5t-89 29.5q-63 0 -101 -42t-36 -105h-197q4 143 92.5 227t239.5 84q131 0 228.5 -66.5 t97.5 -185.5q0 -63 -35 -111t-100 -65v-4q76 -14 121 -67.5t45 -124.5q0 -141 -101.5 -219t-253.5 -78q-168 0 -264 85t-94 242zM489 -45l848 1524h174l-843 -1524h-179zM1059 182v191l385 487h205v-514h116v-164h-116v-182h-197v182h-393zM1214 346h238v295h-4z" />
<glyph unicode="&#xbf;" d="M66 -6q0 133 45 207.5t127 138.5q10 8 36.5 27.5t39 29t34 27.5t32.5 31.5t25.5 34t21.5 43t11 47.5v77h277v-92q-8 -121 -54.5 -191.5t-123.5 -129.5q-94 -74 -117 -111q-33 -47 -33 -110q0 -184 174 -185q102 0 153.5 74.5t53.5 191.5h301q-4 -223 -139 -364t-355 -141 q-137 0 -241.5 38.5t-159.5 100t-81.5 127t-26.5 129.5zM422 772v315h321v-315h-321z" />
<glyph unicode="&#xc0;" horiz-adv-x="1402" d="M-14 0l555 1462h329l547 -1462h-334l-110 326h-547l-115 -326h-325zM338 1884h321l197 -291h-203zM510 565h379l-184 537h-5z" />
<glyph unicode="&#xc1;" horiz-adv-x="1402" d="M-14 0l555 1462h329l547 -1462h-334l-110 326h-547l-115 -326h-325zM510 565h379l-184 537h-5zM547 1593l196 291h322l-316 -291h-202z" />
<glyph unicode="&#xc2;" horiz-adv-x="1402" d="M-14 0l555 1462h329l547 -1462h-334l-110 326h-547l-115 -326h-325zM342 1593l227 291h266l226 -291h-240l-127 166l-131 -166h-221zM510 565h379l-184 537h-5z" />
<glyph unicode="&#xc3;" horiz-adv-x="1402" d="M-14 0l555 1462h329l547 -1462h-334l-110 326h-547l-115 -326h-325zM325 1615q25 113 81.5 181.5t176.5 68.5q39 0 132 -35q86 -37 135 -36q43 0 65.5 20t20.5 51h141q-33 -106 -63 -151q-57 -82 -166 -82q-59 0 -168 35q-96 35 -144 34q-39 0 -57 -21.5t-29 -64.5h-125z M510 565h379l-184 537h-5z" />
<glyph unicode="&#xc4;" horiz-adv-x="1402" d="M-14 0l555 1462h329l547 -1462h-334l-110 326h-547l-115 -326h-325zM352 1626v239h277v-239h-277zM510 565h379l-184 537h-5zM774 1626v239h276v-239h-276z" />
<glyph unicode="&#xc5;" horiz-adv-x="1402" d="M-14 0l555 1462h329l547 -1462h-334l-110 326h-547l-115 -326h-325zM450 1746.5q0 102.5 74 176t176 73.5q104 0 178 -73.5t74 -176t-73.5 -176t-178.5 -73.5q-102 0 -176 73.5t-74 176zM510 565h379l-184 537h-5zM571 1746.5q0 -61.5 36 -102.5t93.5 -41t94 41 t36.5 102.5t-36.5 102.5t-94 41t-93.5 -41t-36 -102.5z" />
<glyph unicode="&#xc6;" horiz-adv-x="2009" d="M-23 0l699 1462h1241v-270h-680v-313h639v-250h-639v-359h696v-270h-1007v326h-459l-148 -326h-342zM573 565h353v627h-70z" />
<glyph unicode="&#xc7;" horiz-adv-x="1517" d="M78 725q0 336 193.5 554t525.5 218q250 0 425.5 -140t204.5 -386h-311q-14 109 -106 182.5t-213 73.5q-137 0 -229.5 -74t-130.5 -183.5t-38 -244.5q0 -205 98.5 -347t299.5 -142q143 0 228 89t103 238h312q-25 -272 -197 -433t-440 -165l-53 -74h4q20 10 69 11 q76 0 132.5 -37t56.5 -107q0 -205 -240 -204q-123 0 -254 45l43 98q86 -37 172 -37q82 0 82 70q0 66 -82 65q-43 0 -82 -14l-43 49l99 141q-291 31 -460 241t-169 513z" />
<glyph unicode="&#xc8;" horiz-adv-x="1327" d="M141 0v1462h1094v-270h-772v-313h708v-250h-708v-359h788v-270h-1110zM301 1884h321l197 -291h-203z" />
<glyph unicode="&#xc9;" horiz-adv-x="1327" d="M141 0v1462h1094v-270h-772v-313h708v-250h-708v-359h788v-270h-1110zM510 1593l196 291h322l-316 -291h-202z" />
<glyph unicode="&#xca;" horiz-adv-x="1327" d="M141 0v1462h1094v-270h-772v-313h708v-250h-708v-359h788v-270h-1110zM305 1593l227 291h266l226 -291h-240l-127 166l-131 -166h-221z" />
<glyph unicode="&#xcb;" horiz-adv-x="1327" d="M141 0v1462h1094v-270h-772v-313h708v-250h-708v-359h788v-270h-1110zM315 1626v239h277v-239h-277zM737 1626v239h276v-239h-276z" />
<glyph unicode="&#xcc;" horiz-adv-x="604" d="M-61 1884h321l197 -291h-203zM141 0v1462h322v-1462h-322z" />
<glyph unicode="&#xcd;" horiz-adv-x="604" d="M141 0v1462h322v-1462h-322zM148 1593l196 291h322l-316 -291h-202z" />
<glyph unicode="&#xce;" horiz-adv-x="604" d="M-57 1593l227 291h266l226 -291h-240l-127 166l-131 -166h-221zM141 0v1462h322v-1462h-322z" />
<glyph unicode="&#xcf;" horiz-adv-x="604" d="M-47 1626v239h277v-239h-277zM141 0v1462h322v-1462h-322zM375 1626v239h276v-239h-276z" />
<glyph unicode="&#xd0;" horiz-adv-x="1517" d="M6 637v237h135v588h631q297 0 480.5 -185t183.5 -538q0 -332 -170 -535.5t-494 -203.5h-631v637h-135zM463 270h287q156 0 260 106.5t104 332.5q0 236 -96 359.5t-326 123.5h-229v-318h328v-239h-328v-365z" />
<glyph unicode="&#xd1;" horiz-adv-x="1517" d="M141 0v1462h320l610 -981h4v981h301v-1462h-321l-609 979h-4v-979h-301zM383 1615q25 113 81.5 181.5t176.5 68.5q39 0 132 -35q86 -37 135 -36q43 0 65.5 20t20.5 51h141q-33 -106 -63 -151q-57 -82 -166 -82q-59 0 -168 35q-96 35 -144 34q-39 0 -57 -21.5t-29 -64.5 h-125z" />
<glyph unicode="&#xd2;" horiz-adv-x="1593" d="M78 725q0 336 193.5 554t525 218t525.5 -218t194 -554q0 -328 -195 -544t-524.5 -216t-524 216t-194.5 544zM399 725q0 -205 98.5 -347t299 -142t299 142t98.5 347q0 135 -38 244.5t-130 183.5t-229.5 74t-229.5 -74t-130 -183.5t-38 -244.5zM434 1884h321l197 -291h-203 z" />
<glyph unicode="&#xd3;" horiz-adv-x="1593" d="M78 725q0 336 193.5 554t525 218t525.5 -218t194 -554q0 -328 -195 -544t-524.5 -216t-524 216t-194.5 544zM399 725q0 -205 98.5 -347t299 -142t299 142t98.5 347q0 135 -38 244.5t-130 183.5t-229.5 74t-229.5 -74t-130 -183.5t-38 -244.5zM643 1593l196 291h322 l-316 -291h-202z" />
<glyph unicode="&#xd4;" horiz-adv-x="1593" d="M78 725q0 336 193.5 554t525 218t525.5 -218t194 -554q0 -328 -195 -544t-524.5 -216t-524 216t-194.5 544zM399 725q0 -205 98.5 -347t299 -142t299 142t98.5 347q0 135 -38 244.5t-130 183.5t-229.5 74t-229.5 -74t-130 -183.5t-38 -244.5zM438 1593l227 291h266 l226 -291h-240l-127 166l-131 -166h-221z" />
<glyph unicode="&#xd5;" horiz-adv-x="1593" d="M78 725q0 336 193.5 554t525 218t525.5 -218t194 -554q0 -328 -195 -544t-524.5 -216t-524 216t-194.5 544zM399 725q0 -205 98.5 -347t299 -142t299 142t98.5 347q0 135 -38 244.5t-130 183.5t-229.5 74t-229.5 -74t-130 -183.5t-38 -244.5zM421 1615q25 113 81.5 181.5 t176.5 68.5q39 0 132 -35q86 -37 135 -36q43 0 65.5 20t20.5 51h141q-33 -106 -63 -151q-57 -82 -166 -82q-59 0 -168 35q-96 35 -144 34q-39 0 -57 -21.5t-29 -64.5h-125z" />
<glyph unicode="&#xd6;" horiz-adv-x="1593" d="M78 725q0 336 193.5 554t525 218t525.5 -218t194 -554q0 -328 -195 -544t-524.5 -216t-524 216t-194.5 544zM399 725q0 -205 98.5 -347t299 -142t299 142t98.5 347q0 135 -38 244.5t-130 183.5t-229.5 74t-229.5 -74t-130 -183.5t-38 -244.5zM448 1626v239h277v-239h-277 zM870 1626v239h276v-239h-276z" />
<glyph unicode="&#xd7;" horiz-adv-x="1228" d="M131 190l330 328l-326 328l156 155l325 -327l328 327l156 -155l-330 -328l330 -328l-156 -155l-328 330l-329 -330z" />
<glyph unicode="&#xd8;" horiz-adv-x="1593" d="M70 20l176 195q-168 205 -168 510q0 336 193.5 554t525.5 218q276 0 460 -158l164 183l103 -90l-172 -191q164 -209 164 -516q0 -328 -195 -544t-524 -216q-274 0 -457 156l-170 -189zM399 725q1 -159 58 -276l606 673q-100 104 -266 105q-137 0 -229.5 -74 t-130.5 -183.5t-38 -244.5zM535 336q100 -100 262 -100q201 0 299 142t98 347q0 160 -55 279z" />
<glyph unicode="&#xd9;" horiz-adv-x="1517" d="M135 553v909h322v-909q0 -145 62.5 -231t238.5 -86q168 0 235.5 74.5t67.5 242.5v909h321v-909q0 -291 -162.5 -439.5t-461.5 -148.5q-301 0 -462 147.5t-161 440.5zM396 1884h321l197 -291h-203z" />
<glyph unicode="&#xda;" horiz-adv-x="1517" d="M135 553v909h322v-909q0 -145 62.5 -231t238.5 -86q168 0 235.5 74.5t67.5 242.5v909h321v-909q0 -291 -162.5 -439.5t-461.5 -148.5q-301 0 -462 147.5t-161 440.5zM605 1593l196 291h322l-316 -291h-202z" />
<glyph unicode="&#xdb;" horiz-adv-x="1517" d="M135 553v909h322v-909q0 -145 62.5 -231t238.5 -86q168 0 235.5 74.5t67.5 242.5v909h321v-909q0 -291 -162.5 -439.5t-461.5 -148.5q-301 0 -462 147.5t-161 440.5zM400 1593l227 291h266l226 -291h-240l-127 166l-131 -166h-221z" />
<glyph unicode="&#xdc;" horiz-adv-x="1517" d="M135 553v909h322v-909q0 -145 62.5 -231t238.5 -86q168 0 235.5 74.5t67.5 242.5v909h321v-909q0 -291 -162.5 -439.5t-461.5 -148.5q-301 0 -462 147.5t-161 440.5zM410 1626v239h277v-239h-277zM832 1626v239h276v-239h-276z" />
<glyph unicode="&#xdd;" horiz-adv-x="1366" d="M-18 1462h362l342 -577l340 577h358l-542 -901v-561h-322v569zM529 1593l196 291h322l-316 -291h-202z" />
<glyph unicode="&#xde;" horiz-adv-x="1366" d="M141 0v1462h322v-198h338q174 0 291.5 -70t166 -171t48.5 -228t-48.5 -228.5t-166 -171t-291.5 -69.5h-338v-326h-322zM463 575h250q131 0 206.5 46.5t75.5 173.5t-75.5 173t-206.5 46h-250v-439z" />
<glyph unicode="&#xdf;" horiz-adv-x="1251" d="M115 0v1006q-4 492 481 491q197 0 331 -100.5t134 -292.5q0 -96 -53.5 -177t-137.5 -108v-4q129 -29 198 -129t69 -237q0 -195 -127 -336.5t-318 -141.5q-86 0 -168 13v237q33 -10 84 -10q102 0 170 71.5t68 176.5q0 115 -62.5 182.5t-187.5 67.5q-23 0 -72 -4v192 q33 -4 45 -4q90 0 152.5 46t62.5 136q0 182 -196 182q-86 0 -134 -54t-48 -146v-1057h-291z" />
<glyph unicode="&#xe0;" horiz-adv-x="1175" d="M66 289q0 86 29.5 147.5t85 95t111.5 51t134 27.5q29 4 74 9.5t72.5 9.5t62.5 10t56.5 14.5t41 21.5t28.5 31.5t9 43.5q0 86 -49 114.5t-139 28.5q-179 0 -193 -160h-291q12 188 152.5 271t345.5 83q465 0 465 -301v-550q0 -176 37 -236h-295q-18 57 -21 102 q-125 -131 -356 -131q-160 0 -260 81t-100 237zM226 1481h321l197 -291h-203zM356 301q0 -135 179 -135q235 0 235 244v108q-16 -14 -47 -25.5t-56.5 -15.5t-70.5 -10t-68 -10q-82 -16 -127 -50t-45 -106z" />
<glyph unicode="&#xe1;" horiz-adv-x="1175" d="M66 289q0 86 29.5 147.5t85 95t111.5 51t134 27.5q29 4 74 9.5t72.5 9.5t62.5 10t56.5 14.5t41 21.5t28.5 31.5t9 43.5q0 86 -49 114.5t-139 28.5q-179 0 -193 -160h-291q12 188 152.5 271t345.5 83q465 0 465 -301v-550q0 -176 37 -236h-295q-18 57 -21 102 q-125 -131 -356 -131q-160 0 -260 81t-100 237zM356 301q0 -135 179 -135q235 0 235 244v108q-16 -14 -47 -25.5t-56.5 -15.5t-70.5 -10t-68 -10q-82 -16 -127 -50t-45 -106zM435 1190l196 291h322l-316 -291h-202z" />
<glyph unicode="&#xe2;" horiz-adv-x="1175" d="M66 289q0 86 29.5 147.5t85 95t111.5 51t134 27.5q29 4 74 9.5t72.5 9.5t62.5 10t56.5 14.5t41 21.5t28.5 31.5t9 43.5q0 86 -49 114.5t-139 28.5q-179 0 -193 -160h-291q12 188 152.5 271t345.5 83q465 0 465 -301v-550q0 -176 37 -236h-295q-18 57 -21 102 q-125 -131 -356 -131q-160 0 -260 81t-100 237zM230 1190l227 291h266l226 -291h-240l-127 166l-131 -166h-221zM356 301q0 -135 179 -135q235 0 235 244v108q-16 -14 -47 -25.5t-56.5 -15.5t-70.5 -10t-68 -10q-82 -16 -127 -50t-45 -106z" />
<glyph unicode="&#xe3;" horiz-adv-x="1175" d="M66 289q0 86 29.5 147.5t85 95t111.5 51t134 27.5q29 4 74 9.5t72.5 9.5t62.5 10t56.5 14.5t41 21.5t28.5 31.5t9 43.5q0 86 -49 114.5t-139 28.5q-179 0 -193 -160h-291q12 188 152.5 271t345.5 83q465 0 465 -301v-550q0 -176 37 -236h-295q-18 57 -21 102 q-125 -131 -356 -131q-160 0 -260 81t-100 237zM213 1212q25 113 81.5 181.5t176.5 68.5q39 0 132 -35q86 -37 135 -36q43 0 65.5 20t20.5 51h141q-33 -106 -63 -151q-57 -82 -166 -82q-59 0 -168 35q-96 35 -144 34q-39 0 -57 -21.5t-29 -64.5h-125zM356 301 q0 -135 179 -135q235 0 235 244v108q-16 -14 -47 -25.5t-56.5 -15.5t-70.5 -10t-68 -10q-82 -16 -127 -50t-45 -106z" />
<glyph unicode="&#xe4;" horiz-adv-x="1175" d="M66 289q0 86 29.5 147.5t85 95t111.5 51t134 27.5q29 4 74 9.5t72.5 9.5t62.5 10t56.5 14.5t41 21.5t28.5 31.5t9 43.5q0 86 -49 114.5t-139 28.5q-179 0 -193 -160h-291q12 188 152.5 271t345.5 83q465 0 465 -301v-550q0 -176 37 -236h-295q-18 57 -21 102 q-125 -131 -356 -131q-160 0 -260 81t-100 237zM240 1223v239h277v-239h-277zM356 301q0 -135 179 -135q235 0 235 244v108q-16 -14 -47 -25.5t-56.5 -15.5t-70.5 -10t-68 -10q-82 -16 -127 -50t-45 -106zM662 1223v239h276v-239h-276z" />
<glyph unicode="&#xe5;" horiz-adv-x="1175" d="M66 289q0 86 29.5 147.5t85 95t111.5 51t134 27.5q29 4 74 9.5t72.5 9.5t62.5 10t56.5 14.5t41 21.5t28.5 31.5t9 43.5q0 86 -49 114.5t-139 28.5q-179 0 -193 -160h-291q12 188 152.5 271t345.5 83q465 0 465 -301v-550q0 -176 37 -236h-295q-18 57 -21 102 q-125 -131 -356 -131q-160 0 -260 81t-100 237zM338 1343.5q0 102.5 74 176t176 73.5q104 0 178 -73.5t74 -176t-73.5 -176t-178.5 -73.5q-102 0 -176 73.5t-74 176zM356 301q0 -135 179 -135q235 0 235 244v108q-16 -14 -47 -25.5t-56.5 -15.5t-70.5 -10t-68 -10 q-82 -16 -127 -50t-45 -106zM459 1343.5q0 -61.5 36 -102.5t93.5 -41t94 41t36.5 102.5t-36.5 102.5t-94 41t-93.5 -41t-36 -102.5z" />
<glyph unicode="&#xe6;" horiz-adv-x="1857" d="M78 287q0 86 28.5 147.5t84 96t110.5 51t131 28.5q240 35 279 49q78 29 77 99q0 135 -188 135q-197 0 -203 -164h-291q4 127 80 210t181.5 115.5t238.5 32.5q254 0 350 -143q123 143 355 143q129 0 225 -51t152.5 -140t83 -198.5t26.5 -238.5h-756q-4 -113 67 -203 t185 -90q182 0 211 166h283q-43 -166 -177 -263.5t-311 -97.5q-270 0 -395 181q-70 -92 -186.5 -136.5t-245.5 -44.5q-168 0 -281.5 76t-113.5 240zM369 303q0 -137 180 -137q92 0 165.5 56.5t73.5 162.5v131q-18 -16 -50.5 -27.5t-58.5 -15.5t-73 -11t-67 -11 q-80 -14 -125 -46t-45 -102zM1042 643h465q2 102 -60.5 176t-166.5 74q-106 0 -171 -74t-67 -176z" />
<glyph unicode="&#xe7;" horiz-adv-x="1175" d="M78 514q0 254 144.5 413.5t395.5 159.5q201 0 343.5 -104t154.5 -297h-285q-29 182 -215 182q-127 0 -187 -103t-60 -241q0 -133 58 -233.5t183 -100.5q98 0 157.5 57.5t74.5 158.5h280q-27 -203 -154.5 -314.5t-330.5 -118.5l-57 -82h4q20 10 69 11q76 0 132.5 -37 t56.5 -107q0 -205 -240 -204q-123 0 -254 45l43 98q86 -37 172 -37q82 0 82 70q0 66 -82 65q-43 0 -82 -14l-43 49l103 147q-209 20 -336 169t-127 368z" />
<glyph unicode="&#xe8;" horiz-adv-x="1175" d="M59 528q0 242 150.5 400.5t390.5 158.5q258 0 394 -184t120 -444h-764q12 -268 260 -269q84 0 149.5 42t80.5 96h256q-117 -356 -496 -357q-248 0 -394.5 155t-146.5 402zM226 1481h321l197 -291h-203zM350 643h473q-20 115 -74.5 170t-156.5 55q-123 0 -180.5 -71.5 t-61.5 -153.5z" />
<glyph unicode="&#xe9;" horiz-adv-x="1175" d="M59 528q0 242 150.5 400.5t390.5 158.5q258 0 394 -184t120 -444h-764q12 -268 260 -269q84 0 149.5 42t80.5 96h256q-117 -356 -496 -357q-248 0 -394.5 155t-146.5 402zM350 643h473q-20 115 -74.5 170t-156.5 55q-123 0 -180.5 -71.5t-61.5 -153.5zM435 1190l196 291 h322l-316 -291h-202z" />
<glyph unicode="&#xea;" horiz-adv-x="1175" d="M59 528q0 242 150.5 400.5t390.5 158.5q258 0 394 -184t120 -444h-764q12 -268 260 -269q84 0 149.5 42t80.5 96h256q-117 -356 -496 -357q-248 0 -394.5 155t-146.5 402zM230 1190l227 291h266l226 -291h-240l-127 166l-131 -166h-221zM350 643h473q-20 115 -74.5 170 t-156.5 55q-123 0 -180.5 -71.5t-61.5 -153.5z" />
<glyph unicode="&#xeb;" horiz-adv-x="1175" d="M59 528q0 242 150.5 400.5t390.5 158.5q258 0 394 -184t120 -444h-764q12 -268 260 -269q84 0 149.5 42t80.5 96h256q-117 -356 -496 -357q-248 0 -394.5 155t-146.5 402zM240 1223v239h277v-239h-277zM350 643h473q-20 115 -74.5 170t-156.5 55q-123 0 -180.5 -71.5 t-61.5 -153.5zM662 1223v239h276v-239h-276z" />
<glyph unicode="&#xec;" horiz-adv-x="528" d="M-98 1481h321l197 -291h-203zM119 0v1059h291v-1059h-291z" />
<glyph unicode="&#xed;" horiz-adv-x="528" d="M111 1190l196 291h322l-316 -291h-202zM119 0v1059h291v-1059h-291z" />
<glyph unicode="&#xee;" horiz-adv-x="528" d="M-94 1190l227 291h266l226 -291h-240l-127 166l-131 -166h-221zM119 0v1059h291v-1059h-291z" />
<glyph unicode="&#xef;" horiz-adv-x="528" d="M-84 1223v239h277v-239h-277zM119 0v1059h291v-1059h-291zM338 1223v239h276v-239h-276z" />
<glyph unicode="&#xf0;" horiz-adv-x="1251" d="M78 506q0 133 47 249.5t157.5 198.5t266.5 82q160 0 276 -82h4q-53 123 -208 260l-230 -114l-119 114l220 111q-90 63 -173 102l189 142q111 -61 203 -135l252 127l106 -121l-233 -117q346 -334 338 -764q0 -256 -151 -422t-398.5 -166t-397 148.5t-149.5 386.5zM369 528 q0 -145 60.5 -241.5t195.5 -96.5q137 0 197.5 96.5t60.5 241.5q0 129 -64.5 221.5t-195.5 92.5t-192.5 -92.5t-61.5 -221.5z" />
<glyph unicode="&#xf1;" horiz-adv-x="1214" d="M111 0v1059h276v-148h6q53 86 140.5 131t183.5 45q219 0 303 -110.5t84 -325.5v-651h-291v598q0 133 -43 196.5t-143 63.5q-119 0 -172.5 -71.5t-53.5 -231.5v-555h-290zM231 1212q25 113 81.5 181.5t176.5 68.5q39 0 132 -35q86 -37 135 -36q43 0 65.5 20t20.5 51h141 q-33 -106 -63 -151q-57 -82 -166 -82q-59 0 -168 35q-96 35 -144 34q-39 0 -57 -21.5t-29 -64.5h-125z" />
<glyph unicode="&#xf2;" horiz-adv-x="1251" d="M78 528q0 254 149.5 406.5t397.5 152.5q250 0 399.5 -152.5t149.5 -406.5q0 -252 -150 -404.5t-399 -152.5q-248 0 -397.5 152.5t-149.5 404.5zM262 1481h321l197 -291h-203zM369 528.5q0 -145.5 60 -242t196 -96.5q137 0 197.5 96.5t60.5 242t-60.5 242.5t-197.5 97 q-135 0 -195.5 -97t-60.5 -242.5z" />
<glyph unicode="&#xf3;" horiz-adv-x="1251" d="M78 528q0 254 149.5 406.5t397.5 152.5q250 0 399.5 -152.5t149.5 -406.5q0 -252 -150 -404.5t-399 -152.5q-248 0 -397.5 152.5t-149.5 404.5zM369 528.5q0 -145.5 60 -242t196 -96.5q137 0 197.5 96.5t60.5 242t-60.5 242.5t-197.5 97q-135 0 -195.5 -97t-60.5 -242.5z M471 1190l196 291h322l-316 -291h-202z" />
<glyph unicode="&#xf4;" horiz-adv-x="1251" d="M78 528q0 254 149.5 406.5t397.5 152.5q250 0 399.5 -152.5t149.5 -406.5q0 -252 -150 -404.5t-399 -152.5q-248 0 -397.5 152.5t-149.5 404.5zM266 1190l227 291h266l226 -291h-240l-127 166l-131 -166h-221zM369 528.5q0 -145.5 60 -242t196 -96.5q137 0 197.5 96.5 t60.5 242t-60.5 242.5t-197.5 97q-135 0 -195.5 -97t-60.5 -242.5z" />
<glyph unicode="&#xf5;" horiz-adv-x="1251" d="M78 528q0 254 149.5 406.5t397.5 152.5q250 0 399.5 -152.5t149.5 -406.5q0 -252 -150 -404.5t-399 -152.5q-248 0 -397.5 152.5t-149.5 404.5zM249 1212q25 113 81.5 181.5t176.5 68.5q39 0 132 -35q86 -37 135 -36q43 0 65.5 20t20.5 51h141q-33 -106 -63 -151 q-57 -82 -166 -82q-59 0 -168 35q-96 35 -144 34q-39 0 -57 -21.5t-29 -64.5h-125zM369 528.5q0 -145.5 60 -242t196 -96.5q137 0 197.5 96.5t60.5 242t-60.5 242.5t-197.5 97q-135 0 -195.5 -97t-60.5 -242.5z" />
<glyph unicode="&#xf6;" horiz-adv-x="1251" d="M78 528q0 254 149.5 406.5t397.5 152.5q250 0 399.5 -152.5t149.5 -406.5q0 -252 -150 -404.5t-399 -152.5q-248 0 -397.5 152.5t-149.5 404.5zM276 1223v239h277v-239h-277zM369 528.5q0 -145.5 60 -242t196 -96.5q137 0 197.5 96.5t60.5 242t-60.5 242.5t-197.5 97 q-135 0 -195.5 -97t-60.5 -242.5zM698 1223v239h276v-239h-276z" />
<glyph unicode="&#xf7;" horiz-adv-x="1228" d="M98 408v219h1035v-219h-1035zM442 92q0 72 51.5 122t122.5 50q70 0 121 -51t51 -121q0 -66 -51 -120t-119 -54q-72 0 -124 51t-52 123zM442 942q0 72 51.5 123t122.5 51q70 0 121 -52t51 -122q0 -66 -51 -119t-119 -53q-72 0 -124 51t-52 121z" />
<glyph unicode="&#xf8;" horiz-adv-x="1251" d="M78 528q0 254 149.5 406.5t397.5 152.5q195 0 333 -98l109 125l76 -65l-111 -125q141 -152 142 -396q0 -252 -150 -404.5t-399 -152.5q-199 0 -338 103l-121 -137l-76 65l123 139q-135 147 -135 387zM369 528q-1 -106 30 -176l396 451q-61 66 -170 65q-135 0 -195.5 -97 t-60.5 -243zM451 260q63 -70 174 -70q137 0 197.5 96.5t60.5 241.5q0 107 -33 187z" />
<glyph unicode="&#xf9;" horiz-adv-x="1214" d="M111 408v651h290v-598q0 -133 43 -196.5t144 -63.5q119 0 172 71.5t53 231.5v555h291v-1059h-277v147h-6q-53 -86 -140 -131t-183 -45q-219 0 -303 111t-84 326zM244 1481h321l197 -291h-203z" />
<glyph unicode="&#xfa;" horiz-adv-x="1214" d="M111 408v651h290v-598q0 -133 43 -196.5t144 -63.5q119 0 172 71.5t53 231.5v555h291v-1059h-277v147h-6q-53 -86 -140 -131t-183 -45q-219 0 -303 111t-84 326zM453 1190l196 291h322l-316 -291h-202z" />
<glyph unicode="&#xfb;" horiz-adv-x="1214" d="M111 408v651h290v-598q0 -133 43 -196.5t144 -63.5q119 0 172 71.5t53 231.5v555h291v-1059h-277v147h-6q-53 -86 -140 -131t-183 -45q-219 0 -303 111t-84 326zM248 1190l227 291h266l226 -291h-240l-127 166l-131 -166h-221z" />
<glyph unicode="&#xfc;" horiz-adv-x="1214" d="M111 408v651h290v-598q0 -133 43 -196.5t144 -63.5q119 0 172 71.5t53 231.5v555h291v-1059h-277v147h-6q-53 -86 -140 -131t-183 -45q-219 0 -303 111t-84 326zM258 1223v239h277v-239h-277zM680 1223v239h276v-239h-276z" />
<glyph unicode="&#xfd;" horiz-adv-x="1062" d="M-12 1059h311l240 -725h4l231 725h301l-442 -1192q-47 -129 -131 -184.5t-234 -55.5q-80 0 -178 11v239q150 -10 170 -10q72 8 99.5 69.5t0.5 129.5zM377 1190l196 291h322l-316 -291h-202z" />
<glyph unicode="&#xfe;" horiz-adv-x="1251" d="M111 -373v1835h290v-538h5q100 164 301 163q236 0 358.5 -162.5t122.5 -406.5q0 -227 -122 -387t-343 -160q-96 0 -181 41t-136 119h-5v-504h-290zM391 526q0 -143 61.5 -239.5t192.5 -96.5q133 0 192.5 95.5t59.5 240.5q0 143 -62.5 242.5t-191.5 99.5 q-133 0 -192.5 -98t-59.5 -244z" />
<glyph unicode="&#xff;" horiz-adv-x="1062" d="M-12 1059h311l240 -725h4l231 725h301l-442 -1192q-47 -129 -131 -184.5t-234 -55.5q-80 0 -178 11v239q150 -10 170 -10q72 8 99.5 69.5t0.5 129.5zM182 1223v239h277v-239h-277zM604 1223v239h276v-239h-276z" />
<glyph unicode="&#x131;" horiz-adv-x="528" d="M119 0v1059h291v-1059h-291z" />
<glyph unicode="&#x141;" horiz-adv-x="1214" d="M-23 324v229l164 115v794h322v-569l432 303v-229l-432 -303v-394h713v-270h-1035v438z" />
<glyph unicode="&#x142;" horiz-adv-x="528" d="M-18 477v209l137 109v667h291v-438l137 109v-209l-137 -109v-815h-291v586z" />
<glyph unicode="&#x152;" horiz-adv-x="2238" d="M78 723q0 319 187.5 546.5t498.5 227.5q238 0 346 -139h4v104h1024v-270h-725v-313h664v-250h-664v-359h739v-270h-1038v111h-4q-63 -70 -158.5 -108t-193.5 -38q-313 0 -496.5 220.5t-183.5 537.5zM399 727q0 -203 95.5 -347t285.5 -144q147 0 234.5 91.5t87.5 241.5 v349q0 137 -89 223t-227 86q-102 0 -180 -43t-121 -116t-64.5 -159t-21.5 -182z" />
<glyph unicode="&#x153;" horiz-adv-x="1896" d="M78 535q0 238 143.5 395t376.5 157q260 0 365 -167q53 78 153.5 122.5t200.5 44.5q264 0 392 -176t128 -452h-756q0 -119 64.5 -194t187.5 -75q154 0 213 146h283q-51 -172 -183.5 -268.5t-312.5 -96.5q-270 0 -383 181q-51 -90 -154.5 -135.5t-220.5 -45.5 q-236 0 -366.5 162t-130.5 402zM369 524q0 -131 53 -232.5t172 -101.5q233 0 233 342q0 336 -227 336q-123 0 -177 -101t-54 -243zM1081 643h465q-4 104 -63.5 164.5t-171.5 60.5q-104 0 -165 -63.5t-65 -161.5z" />
<glyph unicode="&#x160;" horiz-adv-x="1329" d="M49 485h311q0 -137 91.5 -203.5t232.5 -66.5q68 0 126 13.5t108.5 56.5t50.5 112q0 33 -11.5 59.5t-38 48t-52 36t-72.5 29t-79 23.5t-91.5 23.5t-89.5 22.5q-96 25 -162 51.5t-135.5 73.5t-104.5 119.5t-35 171.5q0 141 83 245.5t204 150.5t260 46q162 0 289 -45 t212 -154.5t85 -271.5h-311q-12 221 -289 221q-88 0 -154.5 -41t-66.5 -125q0 -80 69.5 -112.5t366.5 -108.5q195 -49 289 -121q145 -113 145 -305q0 -209 -159.5 -339t-448.5 -130q-264 0 -444.5 133t-178.5 387zM305 1884h229l131 -166l133 166h226l-226 -291h-266z" />
<glyph unicode="&#x161;" horiz-adv-x="1099" d="M59 344h277q2 -90 65.5 -134t157.5 -44q76 0 133.5 32.5t57.5 102.5q0 33 -19.5 56.5t-69 43t-99.5 31.5t-142 33q-74 16 -125 34.5t-103.5 50.5t-80 81t-27.5 117q0 96 39 165.5t107.5 106.5t145.5 52t169 15q195 0 322.5 -78.5t144.5 -258.5h-277q-10 143 -198 143 q-162 0 -162 -98q0 -23 9 -40.5t28.5 -30.5t39 -22.5t54.5 -18.5t60.5 -15t68.5 -15.5t70 -15.5q158 -37 246.5 -100.5t88.5 -196.5q0 -193 -138 -281t-345 -88t-348.5 89t-149.5 284zM191 1481h229l131 -166l133 166h226l-226 -291h-266z" />
<glyph unicode="&#x178;" horiz-adv-x="1366" d="M-18 1462h362l342 -577l340 577h358l-542 -901v-561h-322v569zM334 1626v239h277v-239h-277zM756 1626v239h276v-239h-276z" />
<glyph unicode="&#x17d;" horiz-adv-x="1327" d="M47 0v254l784 938h-722v270h1151v-254l-785 -938h805v-270h-1233zM305 1884h229l131 -166l133 166h226l-226 -291h-266z" />
<glyph unicode="&#x17e;" horiz-adv-x="1062" d="M45 0v219l551 621h-510v219h893v-219l-551 -621h590v-219h-973zM172 1481h229l131 -166l133 166h226l-226 -291h-266z" />
<glyph unicode="&#x192;" d="M-10 -342l39 219q41 -6 82 -6q74 -2 103.5 33t43.5 112l129 674h-188l37 195h186l49 260q37 195 130 273.5t292 78.5q82 0 154 -14l-37 -219q-35 14 -82 14q-78 0 -111 -28.5t-45 -98.5l-51 -266h201l-33 -195h-205l-115 -635q-41 -221 -127 -312t-301 -91q-65 0 -151 6z " />
<glyph unicode="&#x2c6;" horiz-adv-x="530" d="M-94 1190l227 291h266l226 -291h-240l-127 166l-131 -166h-221z" />
<glyph unicode="&#x2c7;" horiz-adv-x="530" d="M-94 1481h229l131 -166l133 166h226l-226 -291h-266z" />
<glyph unicode="&#x2d8;" horiz-adv-x="530" d="M-80 1489h133q10 -76 70.5 -111t132.5 -35q190 0 225 146h129q-39 -299 -364 -299q-301 0 -326 299z" />
<glyph unicode="&#x2d9;" horiz-adv-x="530" d="M127 1223v239h276v-239h-276z" />
<glyph unicode="&#x2da;" horiz-adv-x="530" d="M14 1343.5q0 102.5 74 176t176 73.5q104 0 178 -73.5t74 -176t-73.5 -176t-178.5 -73.5q-102 0 -176 73.5t-74 176zM135 1343.5q0 -61.5 36 -102.5t93.5 -41t94 41t36.5 102.5t-36.5 102.5t-94 41t-93.5 -41t-36 -102.5z" />
<glyph unicode="&#x2db;" horiz-adv-x="530" d="M18 -262q0 129 234 268h133q-170 -154 -170 -260q0 -31 23.5 -50.5t56.5 -19.5q74 1 119 62l98 -45q-109 -139 -274 -139q-29 0 -57.5 5t-69.5 21.5t-67 57t-26 100.5z" />
<glyph unicode="&#x2dc;" horiz-adv-x="530" d="M-111 1212q25 113 81.5 181.5t176.5 68.5q39 0 132 -35q86 -37 135 -36q43 0 65.5 20t20.5 51h141q-33 -106 -63 -151q-57 -82 -166 -82q-59 0 -168 35q-96 35 -144 34q-39 0 -57 -21.5t-29 -64.5h-125z" />
<glyph unicode="&#x2dd;" horiz-adv-x="530" d="M-115 1190l187 291h321l-305 -291h-203zM309 1190l187 291h321l-305 -291h-203z" />
<glyph unicode="&#x3bc;" horiz-adv-x="1214" d="M111 -373v1432h290v-598q0 -133 43 -196.5t144 -63.5q119 0 172 71.5t53 231.5v555h291v-1059h-277v147h-6q-51 -82 -130 -129t-136 -47q-109 0 -154 49v-393h-290z" />
<glyph unicode="&#x2000;" horiz-adv-x="998" />
<glyph unicode="&#x2001;" horiz-adv-x="1996" />
<glyph unicode="&#x2002;" horiz-adv-x="998" />
<glyph unicode="&#x2003;" horiz-adv-x="1996" />
<glyph unicode="&#x2004;" horiz-adv-x="665" />
<glyph unicode="&#x2005;" horiz-adv-x="499" />
<glyph unicode="&#x2006;" horiz-adv-x="332" />
<glyph unicode="&#x2007;" horiz-adv-x="332" />
<glyph unicode="&#x2008;" horiz-adv-x="249" />
<glyph unicode="&#x2009;" horiz-adv-x="399" />
<glyph unicode="&#x200a;" horiz-adv-x="110" />
<glyph unicode="&#x2010;" horiz-adv-x="833" d="M109 434v250h616v-250h-616z" />
<glyph unicode="&#x2011;" horiz-adv-x="833" d="M109 434v250h616v-250h-616z" />
<glyph unicode="&#x2012;" horiz-adv-x="833" d="M109 434v250h616v-250h-616z" />
<glyph unicode="&#x2013;" horiz-adv-x="1024" d="M0 434v250h1024v-250h-1024z" />
<glyph unicode="&#x2014;" horiz-adv-x="2048" d="M266 434v250h1516v-250h-1516z" />
<glyph unicode="&#x2018;" horiz-adv-x="569" d="M139 805v313q-4 135 79 231.5t212 112.5v-135q-135 -45 -135 -207h135v-315h-291z" />
<glyph unicode="&#x2019;" horiz-adv-x="569" d="M139 805v135q135 45 135 207h-135v315h291v-313q4 -135 -79 -231.5t-212 -112.5z" />
<glyph unicode="&#x201a;" horiz-adv-x="569" d="M139 0v315h291v-313q4 -135 -79 -231.5t-212 -112.5v135q135 45 135 207h-135z" />
<glyph unicode="&#x201c;" horiz-adv-x="948" d="M111 805v313q-4 135 78.5 231.5t211.5 112.5v-135q-135 -45 -135 -207h135v-315h-290zM547 805v313q-4 135 79 231.5t212 112.5v-135q-135 -45 -136 -207h136v-315h-291z" />
<glyph unicode="&#x201d;" horiz-adv-x="948" d="M111 805v135q135 45 135 207h-135v315h290v-313q4 -135 -78.5 -231.5t-211.5 -112.5zM547 805v135q135 45 135 207h-135v315h291v-313q4 -135 -79 -231.5t-212 -112.5z" />
<glyph unicode="&#x201e;" horiz-adv-x="948" d="M111 0v315h290v-313q4 -135 -78.5 -231.5t-211.5 -112.5v135q135 45 135 207h-135zM547 0v315h291v-313q4 -135 -79 -231.5t-212 -112.5v135q135 45 135 207h-135z" />
<glyph unicode="&#x2020;" d="M49 819v240h381v403h277v-403h383v-240h-383v-1159h-277v1159h-381z" />
<glyph unicode="&#x2021;" d="M49 55v240h381v524h-381v240h381v403h277v-403h383v-240h-383v-524h383v-240h-383v-395h-277v395h-381z" />
<glyph unicode="&#x2022;" horiz-adv-x="1026" d="M147 731.5q0 151.5 106.5 258t258.5 106.5t259.5 -106.5t107.5 -258t-107.5 -259t-259.5 -107.5t-258.5 107.5t-106.5 259z" />
<glyph unicode="&#x2026;" horiz-adv-x="2048" d="M180 0v315h322v-315h-322zM862 0v315h322v-315h-322zM1544 0v315h322v-315h-322z" />
<glyph unicode="&#x202f;" horiz-adv-x="399" />
<glyph unicode="&#x2030;" horiz-adv-x="2349" d="M141 1104q0 156 75 257t226 101q297 0 297 -356q0 -158 -73.5 -253t-225.5 -95q-141 0 -220 95t-79 251zM307 -45l848 1524h174l-844 -1524h-178zM326 1139q0 -55 3 -90t13 -76t34.5 -61.5t63.5 -20.5q29 0 49.5 8t33 27.5t19.5 36t10 48t3 48v51.5q0 51 -2 81 t-12.5 66.5t-34 54t-62.5 17.5q-41 0 -66.5 -17.5t-35.5 -50t-13 -58t-3 -64.5zM901 317.5q0 155.5 75 257t226 101.5q297 0 297 -357q0 -158 -73.5 -253t-225.5 -95q-141 0 -220 95.5t-79 251zM1085 352q0 -55 3.5 -90t13.5 -76t34.5 -61.5t63.5 -20.5q29 0 49.5 8.5 t32.5 28t19.5 36t10.5 48t3 48v51.5q0 51 -2 80.5t-12.5 66.5t-34 54.5t-62.5 17.5q-41 0 -66.5 -17.5t-35.5 -50.5t-13.5 -58.5t-3.5 -64.5zM1610 317.5q0 155.5 74.5 257t226.5 101.5q297 0 297 -357q0 -158 -74 -253t-225 -95q-141 0 -220 95.5t-79 251zM1794 352 q0 -55 3 -90t13.5 -76t35 -61.5t63.5 -20.5q29 0 49 8.5t32.5 28t19.5 36t10 48t3 48v51.5q0 51 -2 80.5t-12 66.5t-33.5 54.5t-62.5 17.5q-41 0 -66.5 -17.5t-36 -50.5t-13.5 -58.5t-3 -64.5z" />
<glyph unicode="&#x2039;" horiz-adv-x="493" d="M86 420v276l322 252v-246l-185 -145l185 -147v-246z" />
<glyph unicode="&#x203a;" horiz-adv-x="493" d="M86 164v246l184 147l-184 145v246l322 -252v-276z" />
<glyph unicode="&#x2044;" horiz-adv-x="342" d="M-340 -45l848 1524h174l-844 -1524h-178z" />
<glyph unicode="&#x205f;" horiz-adv-x="499" />
<glyph unicode="&#x2122;" horiz-adv-x="2048" d="M127 1298v164h688v-164h-240v-680h-208v680h-240zM924 618v844h278l211 -555l211 555h277v-844h-197v599h-4l-217 -599h-142l-217 599h-4v-599h-196z" />
<glyph unicode="&#x2212;" horiz-adv-x="1228" d="M98 408v219h1035v-219h-1035z" />
<glyph unicode="&#xe000;" horiz-adv-x="1054" d="M0 0v1055h1055v-1055h-1055z" />
<glyph unicode="&#xfb01;" horiz-adv-x="1251" d="M0 864v195h174v82q0 145 91 233t263 88q29 0 84.5 -4t69.5 -4v-217q-53 6 -107 6q-59 0 -84.5 -27.5t-25.5 -93.5v-63h201v-195h-201v-864h-291v864h-174zM842 0v1059h291v-1059h-291zM842 1223v239h291v-239h-291z" />
<glyph unicode="&#xfb02;" horiz-adv-x="1251" d="M0 864v195h174v82q0 145 91 233t263 88q29 0 84.5 -4t69.5 -4v-217q-53 6 -107 6q-59 0 -84.5 -27.5t-25.5 -93.5v-63h201v-195h-201v-864h-291v864h-174zM842 0v1462h291v-1462h-291z" />
</font>
</defs>
</svg>
