<?xml version="1.0" standalone="no"?>
<!DOCTYPE svg PUBLIC "-//W3C//DTD SVG 1.1//EN" "http://www.w3.org/Graphics/SVG/1.1/DTD/svg11.dtd" >
<svg xmlns="http://www.w3.org/2000/svg">
<metadata>
This is a custom SVG webfont generated by Font Squirrel.
Copyright   : Copyright c 2005 by Frantisek Storm wwwstormtypecom All rights reserved
Designer    : Frantisek Storm
Foundry     : Frantisek Storm wwwstormtypecom
Foundry URL : wwwstormtypecom
</metadata>
<defs>
<font id="EtelkaLightProRegular" horiz-adv-x="1273" >
<font-face units-per-em="2048" ascent="1638" descent="-410" />
<missing-glyph horiz-adv-x="585" />
<glyph unicode=" "  horiz-adv-x="585" />
<glyph unicode="&#x09;" horiz-adv-x="585" />
<glyph unicode="&#xa0;" horiz-adv-x="585" />
<glyph unicode="!" horiz-adv-x="677" d="M231 111q0 66 24 83t83 17q61 0 84.5 -17.5t23.5 -82.5q0 -72 -23.5 -91.5t-84.5 -19.5q-59 0 -83 19.5t-24 91.5zM242 1427h192l-45 -1021h-102z" />
<glyph unicode="&#x22;" horiz-adv-x="624" d="M92 1427h158l-39 -471h-96zM381 1427h151l-38 -471h-95z" />
<glyph unicode="#" horiz-adv-x="1349" d="M61 424l9 111h282l25 397h-289l8 112h289l23 383h131l-23 -383h338l23 383h131l-23 -383h303l-8 -112h-303l-25 -397h310l-9 -111h-307l-26 -424h-132l27 424h-338l-26 -424h-132l27 424h-285zM483 535h338l25 397h-338z" />
<glyph unicode="$" horiz-adv-x="1277" d="M166 1012q0 182 109.5 272t304.5 109v297h122v-289q43 0 92.5 -3t99.5 -8.5t97 -13.5t84 -18l-43 -133q-23 12 -61.5 21t-84.5 15.5t-94.5 9.5t-89.5 3v-494q219 -27 318.5 -117t99.5 -264q0 -92 -28.5 -159.5t-83 -113.5t-132 -72.5t-174.5 -37.5v-297h-122v291 q-45 0 -96.5 2t-102.5 7.5t-100.5 13.5t-87.5 20l45 133q31 -12 72.5 -21t88.5 -15.5t94.5 -9.5t86.5 -3v525q-109 10 -187 33.5t-129 65.5t-74.5 103.5t-23.5 147.5zM315 1014q0 -53 12.5 -91t43 -65t82 -42t127.5 -23v475q-123 -16 -194 -73.5t-71 -180.5zM702 145 q123 16 196 71.5t73 180.5q0 53 -12.5 94t-43 72t-83 51.5t-130.5 32.5v-502z" />
<glyph unicode="%" horiz-adv-x="1765" d="M102 1022q0 131 20.5 216t60.5 135t98.5 69.5t136.5 19.5t136 -19.5t98 -69.5t60.5 -135t20.5 -216q0 -133 -20.5 -220t-60.5 -139.5t-98 -74t-136 -21.5t-136.5 21.5t-98.5 74t-60.5 139.5t-20.5 220zM227 1018q0 -98 11.5 -165t34 -106.5t59.5 -56t86 -16.5 q51 0 88 16.5t59.5 56t32.5 106.5t10 165q0 104 -10 169.5t-32.5 102.5t-59.5 50.5t-88 13.5q-49 0 -86 -13.5t-59.5 -50.5t-34 -102.5t-11.5 -169.5zM403 0l807 1427h146l-807 -1427h-146zM1032 426q0 131 20.5 216t60.5 135t98.5 69.5t136 19.5t136 -19.5t98.5 -69.5 t60.5 -135t20.5 -216q0 -133 -20.5 -220t-60.5 -139.5t-98.5 -74t-136 -21.5t-136 21.5t-98.5 74t-60.5 139.5t-20.5 220zM1157 422q0 -98 11.5 -165t34 -106.5t59 -56t86.5 -16.5q51 0 88 16.5t59.5 56t32.5 106.5t10 165q0 104 -10 169.5t-32.5 102.5t-59.5 50.5t-88 13.5 q-49 0 -86 -13.5t-59.5 -50.5t-34 -102.5t-11.5 -169.5z" />
<glyph unicode="&#x26;" horiz-adv-x="1552" d="M129 379q0 74 19.5 140.5t62.5 118.5t113.5 85t173.5 37q-96 8 -150.5 38.5t-80 78t-32 105.5t-6.5 122q0 174 105.5 266t343 92t344 -87t106.5 -261q0 -63 -11 -122.5t-44 -107.5t-92 -80t-156 -40q39 -4 78 -21.5t85 -54.5t100.5 -100.5t121.5 -159.5q57 86 89 185.5 t32 207.5h137q0 -131 -47 -260t-133 -239q49 -70 99 -150l106 -172h-166q-31 57 -64 111l-67 102q-66 -63 -124 -109.5t-120.5 -75t-138.5 -43t-176 -14.5q-125 0 -219 19.5t-158.5 65.5t-97.5 125t-33 198zM287 397q0 -82 16 -139t57 -93t108 -52.5t169 -16.5 q90 0 155.5 11.5t120 37t104.5 68.5t107 106q-61 90 -118.5 162t-113.5 121t-113.5 76t-121.5 27q-188 0 -279 -69t-91 -239zM381 1096q0 -143 63.5 -207t217 -64t235.5 62.5t82 206.5q0 129 -68.5 186t-232.5 57t-230.5 -56t-66.5 -185z" />
<glyph unicode="'" horiz-adv-x="342" d="M92 1427h158l-39 -471h-96z" />
<glyph unicode="(" horiz-adv-x="522" d="M139 510q0 244 33 421t89 300t130 198.5t158 118.5l65 -108q-61 -23 -120.5 -85.5t-105.5 -174t-74.5 -277.5t-28.5 -393t28.5 -392t74.5 -277.5t105.5 -175t120.5 -85.5l-65 -108q-84 43 -158 118.5t-130 198.5t-89 300t-33 421z" />
<glyph unicode=")" horiz-adv-x="522" d="M-92 -420q61 23 120.5 85.5t105.5 174t75 277.5t29 393t-29 392t-75 277.5t-105.5 175t-120.5 85.5l65 108q82 -43 157 -118.5t131 -198.5t89 -300t33 -421t-33 -421t-89 -300t-131 -198.5t-157 -118.5z" />
<glyph unicode="*" horiz-adv-x="860" d="M61 1061v110h273l-135 238l96 53l133 -235l137 235l99 -55l-138 -236h273v-110h-275l138 -238l-97 -53l-135 234l-135 -234l-98 55l135 236h-271z" />
<glyph unicode="+" d="M145 672v123h426v430h127v-430h428v-123h-428v-428h-127v428h-426z" />
<glyph unicode="," horiz-adv-x="524" d="M47 -326l160 527h186l-223 -527h-123z" />
<glyph unicode="-" horiz-adv-x="567" d="M68 502v123h432v-123h-432z" />
<glyph unicode="." horiz-adv-x="524" d="M156 111q0 66 22.5 83t81.5 17q63 0 86 -17.5t23 -82.5q0 -72 -22.5 -91.5t-86.5 -19.5q-59 0 -81.5 19.5t-22.5 91.5z" />
<glyph unicode="/" horiz-adv-x="874" d="M86 0l727 1427h156l-731 -1427h-152z" />
<glyph unicode="0" d="M131 733q0 217 31 357.5t94 223.5t158.5 115.5t222.5 32.5q129 0 223 -32.5t157.5 -115.5t94.5 -223.5t31 -357.5q0 -219 -31 -365.5t-93.5 -234.5t-157.5 -125t-224 -37q-127 0 -222.5 37t-158.5 125t-94 234.5t-31 365.5zM281 733q0 -186 19 -309t62.5 -194.5 t110 -101.5t162.5 -30q98 0 165.5 30t110.5 101.5t62.5 194.5t19.5 309q0 197 -19.5 316.5t-62.5 185t-110.5 87t-165.5 21.5q-96 0 -162.5 -21.5t-110 -87t-62.5 -185t-19 -316.5z" />
<glyph unicode="1" d="M246 1229l516 250v-1479h-148v1272l-319 -154z" />
<glyph unicode="2" d="M127 0v115l332 267q137 114 229 198t144.5 146t80 115.5t34.5 104.5t7 113q0 80 -20.5 132t-64.5 83t-112.5 43t-162.5 12q-43 0 -95.5 -4t-101.5 -11t-92 -17.5t-67 -22.5l-37 133q94 23 196.5 39t198.5 16q260 0 386 -91t126 -308q0 -70 -11.5 -132.5t-41 -125 t-85 -130t-142.5 -148.5t-213 -180l-298 -224h777v-123h-967z" />
<glyph unicode="3" d="M127 31l35 114q86 -27 191.5 -38t209.5 -11q119 0 197 16.5t124 52.5t63.5 93t17.5 139q0 84 -20.5 142.5t-64.5 95.5t-116 53.5t-176 16.5h-164v120h164q188 0 271 63.5t83 207.5q0 63 -16.5 109t-58.5 76t-113.5 43t-180.5 13q-102 0 -209.5 -14t-183.5 -39l-37 123 q86 18 197 36.5t233 18.5q145 0 245 -22.5t161 -65.5t88 -108.5t27 -151.5q0 -63 -11.5 -122.5t-45 -105.5t-93 -78t-153.5 -40q100 -4 164.5 -36t101.5 -83t51 -116.5t14 -139.5q0 -119 -33.5 -199.5t-102 -130t-174 -71t-249.5 -21.5q-111 0 -227.5 18.5t-208.5 41.5z" />
<glyph unicode="4" horiz-adv-x="1259" d="M74 418v31l124 218l157 256l175 263q90 131 177 241h235v-888h203v-121h-203v-418h-145v418h-723zM272 539h525v796q-72 -90 -150 -199.5t-148 -220.5l-130 -209q-60 -99 -97 -167z" />
<glyph unicode="5" d="M160 31l37 114q86 -27 176 -38t194 -11q119 0 197 16.5t122 53.5t61.5 94t17.5 139q0 92 -15.5 155.5t-56.5 102.5t-111.5 56.5t-179.5 17.5q-102 0 -200.5 -10t-174.5 -29v735h807v-122h-663v-461q104 12 231 12q145 0 244.5 -24.5t161 -78t88 -136t26.5 -199.5 q0 -127 -32.5 -213t-100 -138.5t-173 -74t-249.5 -21.5q-109 0 -211 18.5t-196 41.5z" />
<glyph unicode="6" d="M131 723q0 219 40 361.5t120 226.5t198.5 117.5t274.5 33.5q92 0 188.5 -16.5t180.5 -42.5l-48 -131q-66 27 -150.5 42t-168.5 15q-119 0 -206 -17.5t-146.5 -71.5t-91 -154.5t-37.5 -264.5q43 8 92 14.5t98 11.5t96 7t84 2q145 0 244.5 -24.5t161 -78t89.5 -136 t28 -199.5q0 -127 -30 -213t-92.5 -138.5t-159.5 -74t-230 -21.5q-145 0 -248 36t-166.5 122t-92 230.5t-28.5 363.5zM285 694q2 -186 25.5 -303t71.5 -182.5t118.5 -89t165.5 -23.5q109 0 178 16.5t108 53.5t53.5 94t14.5 139q0 92 -16.5 155.5t-57.5 102.5t-111.5 56.5 t-179.5 17.5q-98 0 -196 -10.5t-174 -26.5z" />
<glyph unicode="7" d="M186 1305v122h1010v-53q-86 -137 -176 -311t-174 -358.5t-159 -366.5t-130 -338h-168q63 172 139 355.5t157 355.5t162 325.5t152 268.5h-813z" />
<glyph unicode="8" d="M129 393q0 74 14.5 139.5t51 116.5t101 83t167.5 36q-96 8 -154.5 40t-89.5 78t-41 105.5t-10 122.5q0 172 108.5 260t360.5 88t361.5 -88t109.5 -260q0 -63 -10.5 -122.5t-41 -105.5t-89 -78t-154.5 -40q100 -4 164.5 -36t101.5 -83t51.5 -116.5t14.5 -139.5 q0 -119 -33 -199.5t-96.5 -130t-158.5 -71t-220 -21.5t-219 21.5t-158.5 71t-97.5 130t-33 199.5zM287 397q0 -82 16 -139t57 -93t108 -52.5t169 -16.5q100 0 167.5 16.5t108.5 52.5t58.5 93t17.5 139q0 168 -83 238t-269 70q-94 0 -160.5 -16.5t-108.5 -53.5t-61.5 -95.5 t-19.5 -142.5zM319 1096q0 -143 75 -207t243 -64q170 0 243.5 63.5t73.5 207.5q0 63 -16 109t-53 76t-97.5 43t-150.5 13t-150.5 -13t-97.5 -43t-53.5 -76t-16.5 -109z" />
<glyph unicode="9" d="M121 989q0 127 29.5 217t92 146.5t160 83t230.5 26.5q145 0 244.5 -21.5t161 -76.5t88 -152.5t26.5 -246.5q0 -160 -51 -299.5t-131 -258t-180.5 -220t-198.5 -187.5h-205q166 137 308.5 284.5t224.5 313.5q-74 -10 -149 -15t-128 -5q-145 0 -244.5 20t-161 68.5t-89 127 t-27.5 195.5zM279 1006q0 -92 15 -150.5t56 -92.5t111.5 -46t181.5 -12q84 0 170 6t158 20q31 98 30 209q0 137 -21.5 217t-66.5 120t-114.5 51t-165.5 11q-111 0 -179.5 -21.5t-107.5 -63.5t-53 -104t-14 -144z" />
<glyph unicode=":" horiz-adv-x="524" d="M156 111q0 66 22.5 83t81.5 17q63 0 86 -17.5t23 -82.5q0 -72 -22.5 -91.5t-86.5 -19.5q-59 0 -81.5 19.5t-22.5 91.5zM156 934q0 66 22.5 83t81.5 17q63 0 86 -17.5t23 -82.5q0 -72 -22.5 -91.5t-86.5 -19.5q-59 0 -81.5 19.5t-22.5 91.5z" />
<glyph unicode=";" horiz-adv-x="524" d="M47 -326l160 527h186l-223 -527h-123zM156 934q0 66 22.5 83t81.5 17q63 0 86 -17.5t23 -82.5q0 -72 -22.5 -91.5t-86.5 -19.5q-59 0 -81.5 19.5t-22.5 91.5z" />
<glyph unicode="&#x3c;" d="M227 696v70l750 596l80 -88l-656 -541l656 -545l-76 -90z" />
<glyph unicode="=" d="M145 453v122h981v-122h-981zM145 874v123h981v-123h-981z" />
<glyph unicode="&#x3e;" d="M229 188l656 541l-656 545l76 90l754 -598v-70l-750 -596z" />
<glyph unicode="?" horiz-adv-x="954" d="M94 1411q29 10 71 19.5t87 16.5t88 11t76 4q240 0 347 -98t107 -279q0 -90 -18 -173t-58 -164.5t-106.5 -165.5t-161.5 -176h-166q182 174 268.5 332.5t86.5 334.5q0 59 -12.5 107.5t-46 81t-92 50t-148.5 17.5q-33 0 -71 -3t-76 -9t-72.5 -15.5t-61.5 -21.5zM334 111 q0 66 22.5 83t81.5 17q63 0 86 -17.5t23 -82.5q0 -72 -22.5 -91.5t-86.5 -19.5q-59 0 -81.5 19.5t-22.5 91.5z" />
<glyph unicode="@" horiz-adv-x="1908" d="M129 543q0 219 45 363.5t134 229.5t222.5 118.5t311.5 33.5q131 0 227 -17.5t160.5 -75.5t96.5 -166.5t32 -289.5q0 -172 -23.5 -278.5t-74 -164.5t-129 -78.5t-191.5 -20.5q-111 0 -190.5 15t-131 55t-76 106.5t-24.5 171.5q0 113 24.5 180.5t75 102t124 46t171.5 11.5 q39 0 83 -2t85 -5t78 -7.5t64 -10.5q-2 90 -22.5 149.5t-63.5 93.5t-111 47t-164 13q-164 0 -275.5 -23.5t-179 -91t-97 -190.5t-29.5 -319q0 -186 32.5 -306t110.5 -189t207 -95.5t321.5 -26.5t322.5 31t210 107.5t114.5 205.5t34.5 328q0 88 -3 155.5t-9 120t-15.5 92 t-21.5 72.5h150q12 -35 20 -77t13.5 -94t8.5 -119.5t3 -153.5q0 -231 -49.5 -385t-151.5 -245t-258 -129t-369 -38t-367.5 34t-256 120t-150.5 230.5t-49 365.5zM668 551q0 -70 13 -115t46 -71.5t85 -37t132 -10.5t133 14.5t86 50.5t46.5 98.5t13.5 158.5v109q-27 4 -62 8 t-70.5 6t-71.5 3t-65 1q-84 0 -138 -7t-88 -29.5t-47 -64.5t-13 -114z" />
<glyph unicode="A" horiz-adv-x="1368" d="M27 0q123 360 256 713.5t282 713.5h252l128 -370l136 -376l139 -359q69 -174 134 -322h-166l-85 214l-87 226h-697l-75 -219l-72 -221h-145zM365 563h606l-131 372l-125 378h-60l-150 -378z" />
<glyph unicode="B" horiz-adv-x="1411" d="M207 0v1427h686q106 0 173 -27.5t103.5 -74.5t50 -107.5t13.5 -127.5q0 -63 -8 -119t-38 -98t-86.5 -69.5t-150.5 -35.5q100 -4 164 -35t98.5 -80t47 -112.5t12.5 -137.5q0 -201 -91 -302t-266 -101h-708zM354 123h559q113 0 157 79t44 204q0 129 -49 214t-160 85h-551 v-582zM354 825h539q55 0 91 20.5t57.5 54.5t30.5 79t9 92q0 106 -37.5 170t-150.5 64h-539v-480z" />
<glyph unicode="C" horiz-adv-x="1232" d="M129 727q0 219 40 361.5t121 225.5t203.5 115.5t288.5 32.5q96 0 206 -15t194 -40l-47 -133q-33 12 -76 22.5t-90 17.5t-95.5 11t-89.5 4q-135 0 -229 -20.5t-153.5 -84t-86 -182t-26.5 -315.5t26.5 -317.5t86 -188t153.5 -91.5t229 -24q41 0 89.5 4.5t95.5 10.5t90 16 t76 23l47 -131q-84 -27 -193.5 -42.5t-206.5 -15.5q-166 0 -288.5 36t-203.5 124t-121 232.5t-40 363.5z" />
<glyph unicode="D" horiz-adv-x="1439" d="M207 0v1427h440q166 0 291 -33.5t208 -114.5t124 -218t41 -344t-41 -344t-124 -220t-207 -118t-292 -35h-440zM354 123h293q137 0 233.5 26.5t157 94t88 182.5t27.5 291q0 186 -27.5 302t-88 179.5t-157 85t-233.5 21.5h-293v-1182z" />
<glyph unicode="E" horiz-adv-x="1249" d="M207 0v1427h977v-122h-830v-480h588v-123h-588v-579h830v-123h-977z" />
<glyph unicode="F" horiz-adv-x="1169" d="M207 0v1427h962v-122h-815v-549h588v-123h-588v-633h-147z" />
<glyph unicode="G" horiz-adv-x="1386" d="M129 727q0 219 40 361.5t121 225.5t203.5 115.5t288.5 32.5q96 0 206 -15t194 -40l-47 -129q-33 12 -76 22.5t-90 16.5t-95.5 10t-89.5 4q-135 0 -229 -20.5t-153.5 -85t-86 -183t-26.5 -315.5t26.5 -318.5t86 -189t153.5 -92.5t229 -25q84 0 162 11.5t125 23.5v510h-373 v119h521v-748q-41 -12 -96.5 -21t-116 -15.5t-119 -8.5t-105.5 -2q-166 0 -288.5 36t-203.5 124t-121 232.5t-40 363.5z" />
<glyph unicode="H" horiz-adv-x="1462" d="M207 0v1427h147v-596h758v596h145v-1427h-145v698h-758v-698h-147z" />
<glyph unicode="I" horiz-adv-x="559" d="M207 0v1427h147v-1427h-147z" />
<glyph unicode="J" horiz-adv-x="901" d="M27 33l49 137q45 -23 111.5 -38t117.5 -15q41 0 84 10t77 39t55.5 83t21.5 144v1034h151v-1034q0 -133 -32.5 -215t-87 -128t-125 -62.5t-144.5 -16.5q-68 0 -144.5 18.5t-133.5 43.5z" />
<glyph unicode="K" horiz-adv-x="1263" d="M207 0v1427h147v-1427h-147zM356 754q41 25 110 81t157 142t191.5 198.5t215.5 251.5h195l-223 -249l-188 -194q-85 -83 -146.5 -136t-94.5 -76q31 -18 97.5 -74.5t159 -151.5t206 -231.5t242.5 -314.5h-199q-129 178 -243.5 313.5t-209 228.5t-164 146.5t-106.5 65.5z " />
<glyph unicode="L" horiz-adv-x="1118" d="M207 0v1427h147v-1298h738v-129h-885z" />
<glyph unicode="M" horiz-adv-x="1779" d="M207 0v1427h221l246 -535t221 -536q104 270 223 537l250 534h207v-1427h-148v1264l-251 -561l-236 -547h-109l-235 554l-246 554v-1264h-143z" />
<glyph unicode="N" horiz-adv-x="1495" d="M207 0v1427h201q193 -285 376 -592l355 -616v1208h149v-1427h-176l-360 637l-398 641v-1278h-147z" />
<glyph unicode="O" horiz-adv-x="1554" d="M129 721q0 217 39 360.5t119 228.5t201.5 118.5t287.5 33.5t289 -33.5t203 -118.5t118.5 -228.5t38.5 -360.5q0 -221 -38.5 -365.5t-118.5 -230.5t-202 -120t-290 -34q-166 0 -287.5 34t-201.5 120t-119 230.5t-39 365.5zM289 717q0 -186 25.5 -306t83 -188.5 t150.5 -95.5t228 -27q137 0 231.5 27t153 95.5t84 188t25.5 306.5q0 197 -25.5 318.5t-84 188t-153 90t-231.5 23.5q-135 0 -228 -23.5t-150.5 -90t-83 -188t-25.5 -318.5z" />
<glyph unicode="P" horiz-adv-x="1331" d="M207 1427h637q119 0 197.5 -37.5t124.5 -101t64.5 -147.5t18.5 -176q0 -84 -20.5 -163t-66.5 -140.5t-121.5 -99.5t-186.5 -38h-500v-524h-147v1427zM354 655h488q127 0 185 87t58 225q0 160 -58 249t-175 89h-498v-650z" />
<glyph unicode="Q" horiz-adv-x="1607" d="M156 721q0 217 38.5 360.5t118.5 228.5t202 118.5t288 33.5t288.5 -33.5t202.5 -118.5t119 -228.5t39 -360.5q0 -188 -27.5 -319.5t-85 -218.5t-143.5 -134t-205 -65q74 -12 183.5 -104.5t250.5 -272.5h-188q-129 182 -249 269t-195 95q-164 0 -284 36t-199 121 t-116.5 229.5t-37.5 363.5zM315 717q0 -186 26 -306t83 -188.5t150.5 -95.5t228.5 -27q137 0 231 27t152.5 95.5t84 188t25.5 306.5q0 197 -25.5 318.5t-84 188t-152.5 90t-231 23.5q-135 0 -228.5 -23.5t-150.5 -90t-83 -188t-26 -318.5z" />
<glyph unicode="R" horiz-adv-x="1382" d="M207 0v1427h637q119 0 197.5 -33.5t124.5 -91t64.5 -132t18.5 -156.5q0 -76 -20.5 -143.5t-67.5 -120t-127 -83t-196 -30.5q39 -12 91 -63.5t115.5 -133.5t137.5 -193l155 -247h-184q-172 301 -307 459.5t-215 158.5h-277v-618h-147zM354 1305v-557h480q127 0 189 72.5 t62 195.5q0 141 -62 215t-179 74h-490z" />
<glyph unicode="S" horiz-adv-x="1277" d="M131 1044q0 115 40 195t114.5 129t180 71.5t236.5 22.5q94 0 202 -15t192 -40l-41 -133q-25 12 -66 22.5t-90 17.5t-100 11t-94 4q-96 0 -173 -12t-130.5 -45t-83 -87t-29.5 -136q0 -53 16.5 -96.5t58.5 -74t111.5 -49t175.5 -26.5q258 -20 376 -117.5t118 -296.5 q0 -115 -42 -193.5t-118 -129t-182.5 -73t-237.5 -22.5q-96 0 -208.5 15.5t-196.5 42.5l41 131q33 -12 78 -22.5t94 -16.5t98 -10.5t92 -4.5q94 0 173 12.5t135.5 45.5t87 86t30.5 137q0 53 -16.5 100.5t-57 84t-110.5 60t-176 32.5q-129 8 -222.5 32.5t-155 68.5t-91 112.5 t-29.5 166.5z" />
<glyph unicode="T" horiz-adv-x="1163" d="M12 1305v122h1139v-122h-494v-1305h-149v1305h-496z" />
<glyph unicode="U" horiz-adv-x="1511" d="M180 496v931h150v-933q0 -125 27.5 -202t81 -120t134 -57.5t185.5 -14.5q106 0 186 15.5t133 58.5t80 120t27 200v933h147v-931q0 -164 -38 -265.5t-110.5 -160t-180 -79t-247 -20.5t-246 20.5t-180 79t-111.5 160t-38 265.5z" />
<glyph unicode="V" horiz-adv-x="1308" d="M12 1427h168l122 -303l123 -327l119 -341q58 -173 109 -343q143 334 259 656.5t223 657.5h147q-119 -360 -251 -713.5t-288 -713.5h-194l-123 370l-135 375l-140 361q-71 174 -139 321z" />
<glyph unicode="W" horiz-adv-x="1853" d="M12 1427h166q94 -287 183.5 -599t177.5 -676l88 304l92 336l85 334q40 164 66 301h152l78 -300l85 -331l80 -335q38 -166 62 -309l109 340l93 311q44 152 84 304l81 320h145q-92 -360 -195.5 -713.5t-226.5 -713.5h-190q-31 160 -66 321l-71 316l-74 302l-70 278 q-25 -127 -59.5 -272.5t-76.5 -302.5t-90 -318l-97 -324h-187l-99 370l-107 375l-109 361q-56 174 -109 321z" />
<glyph unicode="X" horiz-adv-x="1327" d="M27 0l283 361l278 362l-271 351l-274 353h178l222 -281l233 -302l218 292l214 291h172l-255 -349l-261 -347l271 -365l265 -366h-178l-222 306l-226 306l-240 -310l-235 -302h-172z" />
<glyph unicode="Y" horiz-adv-x="1243" d="M-10 1427h186q121 -147 236.5 -305.5t220.5 -318.5q119 150 232 308l218 316h170l-272 -376l-285 -365v-686h-149v686q-244 358 -557 741z" />
<glyph unicode="Z" horiz-adv-x="1247" d="M43 0v59l241 305l241 314l236 316l222 311h-885v122h1098v-53q-223 -330 -462.5 -649t-475.5 -602h901v-123h-1116z" />
<glyph unicode="[" horiz-adv-x="544" d="M176 -532v2078h410v-119h-269v-1843h269v-116h-410z" />
<glyph unicode="\" horiz-adv-x="874" d="M-98 1427h155l727 -1427h-151z" />
<glyph unicode="]" horiz-adv-x="544" d="M-41 -416h268v1843h-268v119h410v-2078h-410v116z" />
<glyph unicode="^" horiz-adv-x="964" d="M20 606l390 821h141l393 -821h-141l-326 692l-325 -692h-132z" />
<glyph unicode="_" horiz-adv-x="815" d="M68 -139h680v-123h-680v123z" />
<glyph unicode="`" horiz-adv-x="1011" d="M209 1427h170l244 -264h-142z" />
<glyph unicode="a" horiz-adv-x="1110" d="M117 319q0 111 31.5 178.5t87 103.5t130 48.5t160.5 12.5q82 0 148.5 -8.5t146.5 -24.5q0 94 -14 154.5t-49 94t-93.5 46t-148.5 12.5q-74 0 -154.5 -11.5t-142.5 -37.5l-39 125q59 16 149.5 33.5t194.5 17.5q113 0 195 -18.5t134 -64.5t76.5 -124t24.5 -194v-609 q-43 -18 -95 -33.5t-107.5 -26.5t-110.5 -16.5t-104 -5.5q-111 0 -191 16.5t-131 56.5t-74.5 107.5t-23.5 167.5zM266 330q0 -78 12.5 -125t44 -71.5t85 -33t135.5 -8.5q76 0 147.5 12.5t130.5 34.5v377q-57 14 -128.5 20.5t-149.5 6.5t-131.5 -6.5t-85 -29t-46 -64 t-14.5 -113.5z" />
<glyph unicode="b" horiz-adv-x="1171" d="M156 53v1426h133v-500q39 31 106.5 57.5t177.5 26.5q121 0 209 -26.5t146.5 -90t86 -169t27.5 -263.5q0 -160 -28.5 -264.5t-86 -165.5t-146.5 -87t-208 -26q-47 0 -102 5.5t-111.5 16.5t-108.5 26.5t-95 33.5zM289 141q59 -23 134 -33t150 -10q90 0 151.5 16.5 t99.5 61.5t54.5 127t16.5 213q0 125 -16.5 207t-54.5 129t-99 65.5t-152 18.5q-57 0 -109 -9t-91 -27.5t-61.5 -46.5t-22.5 -62v-650z" />
<glyph unicode="c" horiz-adv-x="954" d="M129 522q0 158 33 262.5t97.5 166t156.5 87t213 25.5q33 0 72.5 -4t79.5 -11.5t77 -16.5t66 -19l-43 -125q-55 27 -121 38t-131 11q-90 0 -156.5 -15.5t-110 -61.5t-65 -128t-21.5 -213q0 -127 21.5 -208t65 -128t110 -65.5t156.5 -18.5q66 0 131 14.5t121 39.5l43 -123 q-29 -12 -67 -23.5t-78 -18.5t-78.5 -11.5t-71.5 -4.5q-121 0 -214 27t-156.5 90.5t-96.5 168.5t-33 265z" />
<glyph unicode="d" horiz-adv-x="1171" d="M129 514q0 158 27.5 263.5t86 169t146.5 90t209 26.5q111 0 178.5 -26.5t106.5 -57.5v500h133v-1426q-43 -18 -95.5 -33.5t-108.5 -26.5t-111.5 -16.5t-102.5 -5.5q-121 0 -209 26t-145.5 87t-86 165.5t-28.5 264.5zM276 516q0 -131 16.5 -213t54.5 -127t99.5 -61.5 t151.5 -16.5q76 0 150.5 10.5t134.5 32.5v650q0 35 -22.5 62.5t-61.5 46t-91.5 27.5t-109.5 9q-90 0 -151.5 -18.5t-99.5 -65.5t-54.5 -129t-16.5 -207z" />
<glyph unicode="e" horiz-adv-x="1118" d="M129 522q0 152 29.5 255.5t88 167t145.5 91t202 27.5q111 0 189.5 -25.5t131 -89t77 -171t24.5 -273.5h-740q0 -127 21.5 -206t63.5 -124t108 -61.5t156 -16.5q27 0 64.5 4t78.5 11.5t81 17.5t73 23l30 -123q-41 -12 -86 -22.5t-91 -18.5t-88 -12.5t-75 -4.5 q-117 0 -207 27t-151 90.5t-93 168.5t-32 265zM279 625h585q-4 96 -20.5 157.5t-48 96t-80.5 47t-121 12.5q-82 0 -139.5 -14.5t-94 -50t-56 -96t-25.5 -152.5z" />
<glyph unicode="f" horiz-adv-x="727" d="M27 911v123h182v96q0 113 28.5 180.5t75.5 103.5t107.5 47.5t124.5 11.5q59 0 120.5 -8.5t112.5 -24.5l-35 -117q-39 12 -96 19.5t-102 7.5q-37 0 -73 -6.5t-64.5 -28t-47 -65.5t-18.5 -120v-96h369v-123h-369v-911h-133v911h-182z" />
<glyph unicode="g" horiz-adv-x="1171" d="M129 522q0 158 28.5 262.5t86 166t145.5 87t209 25.5q47 0 102.5 -5t111.5 -16.5t108.5 -27t95.5 -33.5v-905q0 -143 -35 -238.5t-100.5 -152t-160.5 -79t-216 -22.5q-33 0 -78 5t-92 12.5t-91 18.5t-73 24l39 127q27 -12 65.5 -23.5t79.5 -20t81 -12.5t69 -4 q90 0 160.5 15.5t118.5 54.5t74 105.5t26 170.5q-39 -31 -106.5 -58.5t-178.5 -27.5q-121 0 -209 27t-146.5 90.5t-86 168.5t-27.5 265zM276 518q0 -127 16.5 -208t54.5 -128t99.5 -65.5t151.5 -18.5q57 0 109.5 9.5t91.5 28t61.5 46t22.5 64.5v647q-59 23 -134 33t-151 10 q-90 0 -151.5 -15.5t-99.5 -61.5t-54.5 -128t-16.5 -213z" />
<glyph unicode="h" horiz-adv-x="1134" d="M156 0v1479h133v-500q39 31 121 57.5t180 26.5q104 0 179 -21.5t122 -77t68.5 -147.5t21.5 -233v-584h-133v557q0 119 -13.5 192.5t-45 114.5t-84 56.5t-130.5 15.5q-55 0 -107 -9t-92 -27.5t-63.5 -46.5t-23.5 -62v-791h-133z" />
<glyph unicode="i" horiz-adv-x="444" d="M139 1348q0 53 18.5 66t67.5 13q47 0 65.5 -13t18.5 -66q0 -57 -18.5 -72.5t-65.5 -15.5q-49 0 -67.5 15.5t-18.5 72.5zM156 0h133v1034h-133v-1034z" />
<glyph unicode="j" horiz-adv-x="444" d="M-49 -293q51 0 89 8.5t63.5 33t39 70.5t13.5 124v1091h133v-1091q0 -115 -25.5 -184.5t-71 -108.5t-107.5 -52.5t-134 -13.5v123zM139 1348q0 53 18.5 66t67.5 13q47 0 65.5 -13t18.5 -66q0 -57 -18.5 -72.5t-65.5 -15.5q-49 0 -67.5 15.5t-18.5 72.5z" />
<glyph unicode="k" horiz-adv-x="978" d="M156 0v1479h133v-1479h-133zM289 547q53 -18 185 -156.5t337 -390.5h172q-410 514 -510 565q49 33 170 149.5t303 319.5h-172q-182 -203 -307 -327.5t-178 -159.5z" />
<glyph unicode="l" horiz-adv-x="454" d="M156 258v1221h133v-1213q0 -37 5 -66.5t16.5 -54t29.5 -49t47 -53.5l-102 -86q-33 31 -56.5 60.5t-40 64.5t-24.5 77t-8 99z" />
<glyph unicode="m" horiz-adv-x="1761" d="M156 0v981q43 18 93 33.5t103.5 27t105.5 16.5t99 5q98 0 164.5 -16.5t114.5 -55.5q86 33 189 52.5t192 19.5q113 0 187.5 -21.5t119.5 -77t64.5 -147.5t19.5 -233v-584h-133v557q0 119 -13.5 192.5t-46.5 114.5t-87 56.5t-136 15.5q-53 0 -132 -9t-155 -36 q20 -55 31.5 -131t11.5 -176v-584h-133v557q0 119 -13.5 192.5t-46 114.5t-86 56.5t-134.5 15.5q-59 0 -126 -9t-120 -26v-901h-133z" />
<glyph unicode="n" horiz-adv-x="1134" d="M156 0v981q43 18 95 33.5t108.5 27t111.5 16.5t102 5q113 0 191 -21.5t126 -77t69.5 -147.5t21.5 -233v-584h-133v557q0 119 -14.5 192.5t-48 114.5t-91 56.5t-145.5 15.5q-76 0 -138.5 -8t-121.5 -27v-901h-133z" />
<glyph unicode="o" horiz-adv-x="1198" d="M129 522q0 158 28.5 262.5t86 166t145.5 87t209 25.5t209 -25.5t146.5 -87t87 -166t28.5 -262.5q0 -160 -27.5 -265t-86 -168.5t-147.5 -90.5t-210 -27t-209 27t-146.5 90.5t-86 168.5t-27.5 265zM276 518q0 -127 16.5 -209t54.5 -129t99.5 -66.5t151.5 -19.5 q92 0 153.5 19.5t99.5 66.5t54.5 129t16.5 209q0 131 -16.5 214t-54.5 129t-99.5 62.5t-153.5 16.5q-90 0 -151.5 -16.5t-99.5 -62.5t-54.5 -129t-16.5 -214z" />
<glyph unicode="p" horiz-adv-x="1171" d="M156 -393v1374q43 18 95 33.5t108.5 27t111.5 16.5t102 5q119 0 208 -25.5t146.5 -87t86 -166t28.5 -262.5q0 -160 -27.5 -265t-86 -168.5t-146.5 -90.5t-209 -27q-111 0 -178 28t-106 58v-450h-133zM289 246q0 -37 22.5 -64.5t61.5 -46t91 -28t109 -9.5q90 0 151.5 18.5 t99.5 65.5t54.5 128t16.5 208q0 131 -16.5 213t-54.5 128t-99 61.5t-152 15.5q-76 0 -150.5 -10.5t-133.5 -32.5v-647z" />
<glyph unicode="q" horiz-adv-x="1171" d="M129 522q0 158 28.5 262.5t86 166t145.5 87t209 25.5q47 0 102.5 -5t111.5 -16.5t108.5 -27t95.5 -33.5v-1374h-133v450q-39 -31 -106.5 -58.5t-178.5 -27.5q-121 0 -209 27t-146.5 90.5t-86 168.5t-27.5 265zM276 518q0 -127 16.5 -208t54.5 -128t99.5 -65.5 t151.5 -18.5q57 0 109.5 9.5t91.5 28t61.5 46t22.5 64.5v647q-59 23 -134 33t-151 10q-90 0 -151.5 -15.5t-99.5 -61.5t-54.5 -128t-16.5 -213z" />
<glyph unicode="r" horiz-adv-x="702" d="M156 0v1034h133v-73q29 37 104.5 69.5t186.5 32.5q57 0 106 -6v-137q-23 4 -50.5 6t-55.5 2q-57 0 -110.5 -8.5t-93.5 -25.5t-63.5 -43t-23.5 -60v-791h-133z" />
<glyph unicode="s" horiz-adv-x="1032" d="M123 741q0 92 26.5 153.5t78 98.5t128 53.5t176.5 16.5q76 0 164 -14.5t176 -38.5l-45 -127q-64 25 -141.5 41t-153.5 16q-66 0 -115.5 -6t-82.5 -26.5t-49.5 -56.5t-16.5 -97q0 -78 58.5 -114t199.5 -46q203 -14 293 -83t90 -214q0 -184 -97 -255t-302 -71 q-39 0 -87 4.5t-99.5 11.5t-99.5 17t-87 23l41 125q27 -12 67 -23.5t86 -19t92 -12.5t87 -5q63 0 110.5 7t79 27.5t48 58.5t16.5 100q0 41 -11.5 72.5t-41 53t-78.5 35t-123 19.5q-94 6 -166 23.5t-121 49t-74.5 80.5t-25.5 123z" />
<glyph unicode="t" horiz-adv-x="804" d="M27 911v123h182v217l133 56v-273h383v-123h-383v-563q0 -133 41 -191.5t152 -58.5q113 0 196 31l31 -119q-45 -16 -108.5 -27.5t-118.5 -11.5q-88 0 -150.5 15.5t-101.5 57.5t-56.5 114.5t-17.5 187.5v565h-182z" />
<glyph unicode="u" horiz-adv-x="1134" d="M156 451v583h133v-557q0 -119 14 -192.5t48 -115.5t91.5 -56.5t143.5 -14.5q76 0 139 8.5t123 28.5v899h133v-981q-43 -18 -96.5 -33.5t-109.5 -26.5t-111.5 -16.5t-100.5 -5.5q-113 0 -190.5 22.5t-125.5 77t-69.5 147t-21.5 233.5z" />
<glyph unicode="v" horiz-adv-x="1042" d="M51 1034h150l84 -207q43 -111 84 -228l78 -238l71 -234q94 227 179 453.5t149 453.5h145q-78 -262 -176 -517l-209 -517h-188l-82 268l-89 272q-46 134 -95.5 259.5t-100.5 234.5z" />
<glyph unicode="w" horiz-adv-x="1665" d="M51 1034h158q37 -94 73.5 -203.5l72.5 -228.5l70 -240q34 -121 62 -235l74 219l79 252q38 127 68.5 243.5t47.5 192.5h170q31 -90 64 -205l67 -236l62 -243q30 -121 52 -223q86 227 162 453.5t129 453.5h150q-70 -262 -159 -524t-193 -510h-189l-52 230l-61 245 q-31 121 -61.5 227.5t-54.5 178.5l-59 -222l-66 -229l-71 -224q-36 -110 -71 -206h-188q-35 131 -75 266l-83 269l-88 260q-45 126 -90 239z" />
<glyph unicode="x" horiz-adv-x="1069" d="M63 0l215 258l201 260l-206 266l-210 250h185l153 -193q80 -101 158 -212l150 211l129 194h161q-172 -256 -362 -510l185 -259l179 -265h-165l-133 204l-148 212l-162 -209l-166 -207h-164z" />
<glyph unicode="y" horiz-adv-x="1042" d="M51 1034h150q41 -94 84 -205.5t84 -230.5l80 -242q39 -123 71 -237q94 227 179 459.5t147 455.5h145q-78 -262 -176 -518t-209 -516l-44 -101l-48 -104l-49 -100l-45 -88h-156q41 74 85 166l83 178l-84 285q-45 147 -94 289.5t-100.5 272.5t-102.5 236z" />
<glyph unicode="z" horiz-adv-x="1013" d="M74 0v55l185 230l179 232l159 215q73 101 122 179h-613v123h822v-51l-155 -228l-175 -244l-168 -222q-80 -102 -135 -166h635v-123h-856z" />
<glyph unicode="{" horiz-adv-x="530" d="M31 455v108q45 0 85 18.5t70.5 64.5t48 126t17.5 203q0 131 23.5 228t65.5 167t97.5 113t118.5 65l66 -108q-51 -14 -94.5 -42t-74 -81t-47 -136t-16.5 -206q0 -129 -18.5 -215t-46 -139.5t-59 -78t-56.5 -32.5q25 -8 56.5 -32.5t59 -78t46 -139.5t18.5 -215 q0 -123 16.5 -206t47 -136t73.5 -81t95 -42l-66 -108q-63 20 -118.5 64t-97.5 113.5t-65.5 167t-23.5 228.5q0 123 -17.5 203t-48 126t-70.5 64.5t-85 18.5v-2z" />
<glyph unicode="|" horiz-adv-x="636" d="M246 -524v2070h145v-2070h-145z" />
<glyph unicode="}" horiz-adv-x="530" d="M-92 -420q51 14 94 42t73.5 81t47 136t16.5 206q0 129 18.5 215t46 139.5t59.5 78t56 32.5q-25 8 -56.5 32.5t-59 78t-46 139.5t-18.5 215q0 123 -16.5 206t-47 136t-73.5 80.5t-94 42.5l65 108q63 -23 118.5 -65.5t97.5 -112.5t66 -167t24 -228q0 -123 17 -203t48 -126 t71 -64.5t85 -18.5v-108v2q-45 0 -85 -18.5t-71 -64.5t-48 -126t-17 -203q0 -131 -24 -228.5t-66 -167t-97 -113.5t-119 -64z" />
<glyph unicode="~" d="M141 717q53 90 107.5 135t136.5 45q51 0 119.5 -27.5t139.5 -60.5l135 -60q65 -28 106 -28q47 0 85 31.5t68 117.5l97 -71q-37 -98 -105.5 -152.5t-161.5 -54.5q-47 0 -115.5 28.5t-140.5 62.5l-137 62q-66 29 -108 29q-37 0 -73 -29.5t-67 -103.5z" />
<glyph unicode="&#xa1;" horiz-adv-x="677" d="M233 952q0 72 24 91.5t85 19.5q59 0 83 -19.5t24 -91.5q0 -66 -24 -83t-83 -17q-61 0 -85 17t-24 83zM246 -365l45 1022h102l45 -1022h-192z" />
<glyph unicode="&#xa2;" horiz-adv-x="954" d="M129 803q0 141 26.5 238.5t78 161t126 94t170.5 40.5v213h125v-207q63 -4 140 -18t129 -33l-43 -125q-51 23 -108.5 34t-117.5 16v-838q59 4 116.5 17.5t109.5 35.5l43 -123q-53 -25 -128 -39t-141 -18v-252h-125v256q-98 10 -172.5 43t-125 97.5t-77 165t-26.5 241.5z M276 799q0 -109 15.5 -182.5t46.5 -123t79 -75t113 -33.5v825q-66 -8 -113.5 -30.5t-78.5 -69.5t-46.5 -122.5t-15.5 -188.5z" />
<glyph unicode="&#xa3;" horiz-adv-x="1226" d="M96 655v123h140v228q0 455 520 454q94 0 201.5 -15t191.5 -40l-41 -133q-25 12 -66 22.5t-90 17.5t-100 11t-94 4q-193 0 -284 -78t-91 -243v-228h393v-123h-393v-532h737v-123h-884v655h-140z" />
<glyph unicode="&#xa4;" horiz-adv-x="1327" d="M102 96l189 232q-84 125 -84 395q0 133 19.5 226t60.5 157l-181 240l115 81l168 -223q55 33 126 46.5t161 13.5q86 0 155.5 -12.5t122.5 -41.5l154 217l113 -79l-162 -232q88 -125 88 -393q0 -141 -21.5 -237.5t-66.5 -161.5l172 -228l-109 -96l-170 225 q-104 -53 -276 -53q-92 0 -163 13.5t-126 47.5l-188 -233zM354 719q0 -127 16.5 -208t54.5 -128t99.5 -65.5t151.5 -18.5q92 0 153.5 18.5t99.5 65.5t54 128t16 208q0 131 -16 213t-54 128t-99.5 61.5t-153.5 15.5q-90 0 -151.5 -15.5t-99.5 -61.5t-54.5 -128t-16.5 -213z " />
<glyph unicode="&#xa5;" horiz-adv-x="1243" d="M-10 1427h186q121 -147 236.5 -305.5t220.5 -318.5q119 150 232 308l218 316h170l-242 -337l-251 -326h352v-123h-416v-197h416v-122h-416v-322h-149v322h-416v122h416v197h-416v123h363l-238 325z" />
<glyph unicode="&#xa6;" horiz-adv-x="636" d="M246 227h145v-751h-145v751zM246 795v751h145v-751h-145z" />
<glyph unicode="&#xa7;" horiz-adv-x="1277" d="M131 1053q0 104 40 181t114.5 128t180 75.5t236.5 24.5q94 0 202 -15t192 -40l-41 -133q-25 12 -66 22.5t-90 17.5t-100 11t-94 4q-96 0 -173 -14.5t-130.5 -46t-83 -83.5t-29.5 -128q0 -49 16.5 -88t58.5 -67t111.5 -45t175.5 -23q258 -18 386 -102.5t128 -266.5 q0 -61 -21.5 -126t-60.5 -118q84 -78 84 -227q0 -104 -40 -181t-114.5 -128.5t-180 -76t-236.5 -24.5q-94 0 -201.5 15.5t-191.5 40.5l41 133q25 -12 65.5 -22.5t90 -17.5t100.5 -11.5t94 -4.5q94 0 172 14.5t131 46.5t83 84t30 128q0 49 -17.5 88t-58.5 66.5t-110.5 45 t-176.5 23.5q-258 18 -386 102t-128 267q0 59 21.5 123.5t58.5 117.5q-82 83 -82 230zM289 584q0 -53 19.5 -94t64.5 -70t117.5 -46.5t179.5 -23.5q193 -12 309 -61q12 33 21.5 76t9.5 98q0 53 -19.5 94t-64.5 69.5t-118 46t-179 23.5q-98 6 -174 20.5t-136 39.5 q-14 -33 -22 -75t-8 -97z" />
<glyph unicode="&#xa8;" horiz-adv-x="835" d="M139 1266q0 53 18.5 66.5t67.5 13.5q47 0 65.5 -13.5t18.5 -66.5q0 -57 -18.5 -72.5t-65.5 -15.5q-49 0 -67.5 15.5t-18.5 72.5zM526 1266q0 53 18.5 66.5t67.5 13.5q47 0 65.5 -13.5t18.5 -66.5q0 -57 -18.5 -72.5t-65.5 -15.5q-49 0 -67.5 15.5t-18.5 72.5z" />
<glyph unicode="&#xa9;" horiz-adv-x="1787" d="M156 721q0 217 44 360.5t135 228.5t229 118.5t328.5 33.5t330 -33.5t230.5 -118.5t135 -228.5t44 -360.5q0 -221 -44 -365.5t-134 -230.5t-230.5 -120t-331 -34t-329.5 34t-229 120t-134 230.5t-44 365.5zM303 717q0 -186 32 -307t102.5 -190.5t182 -97.5t271.5 -28 q162 0 274.5 28t184 97.5t104.5 190t33 307.5q0 197 -33 319.5t-104.5 191t-184 93.5t-274.5 25q-160 0 -271.5 -25t-182 -93.5t-102.5 -191t-32 -319.5zM471 725q0 139 27.5 230.5t83 145.5t138.5 76.5t193 22.5q31 0 69 -3t77 -9t74.5 -14.5t60.5 -16.5l-37 -129 q-47 23 -115.5 32t-128.5 9q-80 0 -133 -12.5t-87 -50t-48 -105t-14 -178.5q0 -106 14 -174t48 -107t87.5 -54t132.5 -15q61 0 129 13t115 34l37 -125q-27 -10 -62.5 -19.5t-73.5 -15.5t-76 -10t-69 -4q-111 0 -193.5 22.5t-138 77.5t-83 147.5t-27.5 231.5z" />
<glyph unicode="&#xaa;" horiz-adv-x="833" d="M123 942q0 78 22.5 125t61.5 72.5t91 34t111.5 8.5t105.5 -5.5t101 -17.5q0 68 -11 110t-35.5 65.5t-65.5 31.5t-101 8q-53 0 -109 -8t-99 -27l-27 88q41 10 104.5 22.5t137.5 12.5q80 0 136 -12t93 -44t54.5 -86t17.5 -138v-426q-59 -27 -141.5 -42.5t-151.5 -15.5 q-78 0 -134.5 11.5t-92 39t-52 74.5t-16.5 119zM229 950q0 -92 40 -130t153 -38q53 0 103 9.5t91 23.5v264q-41 10 -91 14.5t-103 4.5q-43 0 -79 -4t-61.5 -19.5t-39 -45.5t-13.5 -79z" />
<glyph unicode="&#xab;" horiz-adv-x="1218" d="M70 612l548 549l80 -88l-444 -455l444 -466l-75 -91zM520 612l549 549l80 -88l-444 -455l444 -466l-76 -91z" />
<glyph unicode="&#xac;" horiz-adv-x="1013" d="M68 705v120h864v-825h-150v705h-714z" />
<glyph unicode="&#xad;" horiz-adv-x="567" d="M68 502v123h432v-123h-432z" />
<glyph unicode="&#xae;" horiz-adv-x="1159" d="M129 985q0 139 27.5 231.5t83 146.5t139.5 75.5t198.5 21.5t199.5 -21.5t141.5 -75.5t84 -146.5t27.5 -231.5t-27.5 -231t-83 -147.5t-140.5 -78t-201 -22.5q-115 0 -200 22.5t-140.5 78t-82 147.5t-26.5 231zM250 985q0 -113 18.5 -184.5t57.5 -113.5t101 -58.5 t151 -16.5q92 0 155.5 16.5t103.5 58.5t57 113.5t17 184.5q0 119 -17 191.5t-57 112.5t-103.5 54.5t-155.5 14.5q-88 0 -150.5 -14.5t-101.5 -54.5t-57.5 -112.5t-18.5 -191.5zM369 721v530h305q74 0 106.5 -52t32.5 -124q0 -92 -35 -131t-98 -39q35 -16 69.5 -64t71.5 -120 h-141q-10 23 -27.5 54.5t-36 59t-37 47t-32.5 19.5h-62v-180h-116zM485 989h150q35 0 47 23.5t12 60.5q0 35 -12 56.5t-47 21.5h-150v-162z" />
<glyph unicode="&#xaf;" horiz-adv-x="1091" d="M279 1200v119h514v-119h-514z" />
<glyph unicode="&#x2c9;" horiz-adv-x="1091" d="M279 1200v119h514v-119h-514z" />
<glyph unicode="&#xb0;" horiz-adv-x="835" d="M102 1022q0 131 20.5 216t60.5 135t98.5 69.5t136.5 19.5t136 -19.5t98 -69.5t60.5 -135t20.5 -216q0 -133 -20.5 -220t-60.5 -139.5t-98 -74t-136 -21.5t-136.5 21.5t-98.5 74t-60.5 139.5t-20.5 220zM227 1018q0 -98 11.5 -165t34 -106.5t59.5 -56t86 -16.5 q51 0 88 16.5t59.5 56t32.5 106.5t10 165q0 104 -10 169.5t-32.5 102.5t-59.5 50.5t-88 13.5q-49 0 -86 -13.5t-59.5 -50.5t-34 -102.5t-11.5 -169.5z" />
<glyph unicode="&#xb1;" d="M145 82v123h981v-123h-981zM145 815v123h426v430h127v-430h428v-123h-428v-428h-127v428h-426z" />
<glyph unicode="&#xb2;" horiz-adv-x="778" d="M72 586q10 111 36.5 183.5t67.5 120.5t97.5 78.5t127.5 55.5q96 33 127 82t31 111q0 70 -50 97t-165 27q-27 0 -57.5 -2t-60 -6t-55.5 -10t-40 -14l-22 121q55 14 116.5 23t120.5 9q188 0 268 -57t80 -188q0 -102 -52 -174t-179 -119q-53 -20 -95 -40t-73 -44.5 t-49.5 -58t-24.5 -83.5h475v-112h-624z" />
<glyph unicode="&#xb3;" horiz-adv-x="768" d="M78 608l20 105q53 -16 112.5 -26.5t131.5 -10.5q113 0 158 31.5t45 128.5q0 45 -11.5 73.5t-38 44t-70.5 21.5t-112 6h-57v111h57q61 0 101.5 6t65 21.5t34.5 43t10 68.5q0 76 -40 100.5t-146 24.5q-90 0 -137 -10.5t-92 -24.5l-23 104q53 16 116.5 26.5t137.5 10.5 q174 0 244.5 -52t70.5 -157q0 -43 -6 -79.5t-25.5 -64.5t-54 -44t-92.5 -23q61 -4 100 -20t62 -45t32 -69t9 -87q0 -143 -83 -197.5t-257 -54.5q-66 0 -136.5 11.5t-125.5 27.5z" />
<glyph unicode="&#xb4;" horiz-adv-x="1011" d="M209 1163l244 264h170l-273 -264h-141z" />
<glyph unicode="&#xb5;" horiz-adv-x="1134" d="M156 -393v1427h133v-557q0 -119 14 -192.5t48 -115.5t91.5 -56.5t143.5 -14.5q76 0 138 8.5t122 28.5v899h135v-981q-43 -18 -96.5 -33.5t-109.5 -26.5t-111.5 -16.5t-100.5 -5.5q-90 0 -156.5 13.5t-113.5 46.5v-424h-137z" />
<glyph unicode="&#x3bc;" horiz-adv-x="1134" d="M156 -393v1427h133v-557q0 -119 14 -192.5t48 -115.5t91.5 -56.5t143.5 -14.5q76 0 138 8.5t122 28.5v899h135v-981q-43 -18 -96.5 -33.5t-109.5 -26.5t-111.5 -16.5t-100.5 -5.5q-90 0 -156.5 13.5t-113.5 46.5v-424h-137z" />
<glyph unicode="&#xb6;" horiz-adv-x="1331" d="M82 965q0 92 18.5 176t64.5 147.5t125 101t197 37.5h637v-1427h-147v524h-199v-524h-147v524h-154q-111 0 -186.5 38t-121.5 99.5t-66.5 140.5t-20.5 163z" />
<glyph unicode="&#xb7;" horiz-adv-x="540" d="M156 616q0 70 24.5 89.5t87.5 19.5q68 0 92.5 -19.5t24.5 -89.5q0 -76 -24.5 -97t-92.5 -21q-63 0 -87.5 21t-24.5 97z" />
<glyph unicode="&#x2219;" horiz-adv-x="540" d="M156 616q0 70 24.5 89.5t87.5 19.5q68 0 92.5 -19.5t24.5 -89.5q0 -76 -24.5 -97t-92.5 -21q-63 0 -87.5 21t-24.5 97z" />
<glyph unicode="&#xb8;" horiz-adv-x="1339" d="M512 -373l37 86q70 -35 180 -35q66 0 91.5 12.5t25.5 57.5t-51 58q-32 8 -100 9q-42 0 -97 -3l74 188h69v-96q70 0 117 -7.5t76 -23.5t40 -47t11 -76q0 -96 -58.5 -131t-197.5 -35q-78 0 -127 10t-90 33z" />
<glyph unicode="&#xb9;" horiz-adv-x="688" d="M98 1339l353 152v-889h-132v715l-190 -92z" />
<glyph unicode="&#xba;" horiz-adv-x="903" d="M123 1083.5q0 110.5 19.5 184t60.5 116.5t102.5 60.5t145.5 17.5t146 -17.5t103 -60.5t60.5 -116.5t19.5 -184t-19.5 -185.5t-60.5 -119t-102 -62.5t-147 -18.5q-84 0 -146.5 18.5t-102.5 62.5t-59.5 119t-19.5 185.5zM246 1081q0 -82 9 -135t32.5 -84t62.5 -43 t100.5 -12t101.5 12t63.5 43t32.5 84t9 135q0 86 -9 140.5t-32.5 83t-63.5 39t-101.5 10.5t-100.5 -10.5t-62.5 -39t-32.5 -83t-9 -140.5z" />
<glyph unicode="&#xbb;" horiz-adv-x="1218" d="M72 152l444 454l-444 467l75 90l553 -551l-548 -549zM522 152l445 454l-445 467l76 90l553 -551l-549 -549z" />
<glyph unicode="&#xbc;" horiz-adv-x="1595" d="M98 1339l353 152v-889h-132v715l-190 -92zM242 0l807 1427h145l-807 -1427h-145zM772 229v39q94 158 199.5 307.5t210.5 280.5h182v-514h123v-113h-123v-229h-127v229h-465zM942 342h295v418q-88 -109 -162 -211.5t-133 -206.5z" />
<glyph unicode="&#xbd;" horiz-adv-x="1595" d="M82 1339l352 152v-889h-131v715l-190 -92zM225 0l807 1427h146l-807 -1427h-146zM889 0h624v113h-475q6 49 24.5 82.5t49.5 58.5t73 44t95 40q127 47 179 118.5t52 174.5q0 131 -79.5 188.5t-268.5 57.5q-59 0 -120.5 -9.5t-116.5 -23.5l22 -121q14 8 40 14t55.5 10.5 t60.5 6.5t57 2q115 0 165 -28t50 -97q0 -61 -30.5 -110.5t-126.5 -82.5q-72 -25 -128.5 -55.5t-97.5 -78.5t-67.5 -120.5t-36.5 -183.5z" />
<glyph unicode="&#xbe;" horiz-adv-x="1595" d="M84 608l20 105q53 -16 112.5 -26.5t131.5 -10.5q113 0 158 31.5t45 128.5q0 45 -11.5 73.5t-38 44t-70.5 21.5t-112 6h-57v111h57q61 0 101.5 6t65 21.5t34.5 43t10 68.5q0 76 -39.5 100.5t-146.5 24.5q-90 0 -137 -10.5t-92 -24.5l-23 104q53 16 116.5 26.5t137.5 10.5 q174 0 245 -52t71 -157q0 -43 -6.5 -79.5t-26 -64.5t-54 -44t-92.5 -23q61 -4 100.5 -20t62 -45t31.5 -69t9 -87q0 -143 -83 -197.5t-257 -54.5q-66 0 -136.5 11.5t-125.5 27.5zM360 0l807 1427h146l-807 -1427h-146zM772 229v39q94 158 199.5 307.5t210.5 280.5h182v-514 h123v-113h-123v-229h-127v229h-465zM942 342h295v418q-88 -109 -162 -211.5t-133 -206.5z" />
<glyph unicode="&#xbf;" horiz-adv-x="954" d="M96 -23q0 90 18.5 173t58.5 165t105.5 166t161.5 176h166q-182 -174 -268 -332.5t-86 -334.5q0 -59 12 -107.5t46 -81t92.5 -50t148.5 -17.5q33 0 70.5 3t75.5 9t73 15.5t61 21.5l41 -131q-29 -10 -70.5 -19.5t-86.5 -16.5t-88 -11t-76 -4q-240 0 -347.5 97t-107.5 279z M420 952q0 72 22.5 91.5t85.5 19.5q59 0 82 -19.5t23 -91.5q0 -66 -22.5 -83t-82.5 -17q-63 0 -85.5 17t-22.5 83z" />
<glyph unicode="&#xc0;" horiz-adv-x="1368" d="M27 0h145l72 221l75 219h697l87 -226l85 -214h166q-66 147 -134 322l-139 359l-136 376l-128 370h-252q-150 -360 -282.5 -713.5zM348 1794h191l299 -264h-162zM365 563l140 372l150 378h60l125 -378l131 -372h-606z" />
<glyph unicode="&#xc1;" horiz-adv-x="1368" d="M27 0h145l72 221l75 219h697l87 -226l85 -214h166q-66 147 -134 322l-139 359l-136 376l-128 370h-252q-150 -360 -282.5 -713.5zM365 563l140 372l150 378h60l125 -378l131 -372h-606zM557 1530l274 264h189l-326 -264h-137z" />
<glyph unicode="&#xc2;" horiz-adv-x="1368" d="M27 0h145l72 221l75 219h697l87 -226l85 -214h166q-66 147 -134 322l-139 359l-136 376l-128 370h-252q-150 -360 -282.5 -713.5zM358 1530l250 264h148l258 -264h-162l-172 184l-166 -184h-156zM365 563l140 372l150 378h60l125 -378l131 -372h-606z" />
<glyph unicode="&#xc3;" horiz-adv-x="1368" d="M27 0h145l72 221l75 219h697l87 -226l85 -214h166q-66 147 -134 322l-139 359l-136 376l-128 370h-252q-150 -360 -282.5 -713.5zM332 1610q45 80 91 121t114 41q43 0 80.5 -20.5t73.5 -45.5t71 -45.5t72 -20.5q39 0 69.5 29t57.5 107l81 -66q-31 -88 -89 -137t-136 -49 q-39 0 -77 21.5t-74.5 47t-72.5 47t-71 21.5q-33 0 -62.5 -27.5t-56.5 -93.5zM365 563l140 372l150 378h60l125 -378l131 -372h-606z" />
<glyph unicode="&#xc4;" horiz-adv-x="1368" d="M27 0h145l72 221l75 219h697l87 -226l85 -214h166q-66 147 -134 322l-139 359l-136 376l-128 370h-252q-150 -360 -282.5 -713.5zM365 563l140 372l150 378h60l125 -378l131 -372h-606zM399 1655q0 53 18.5 66.5t67.5 13.5q47 0 65.5 -13.5t18.5 -66.5q0 -57 -18.5 -72.5 t-65.5 -15.5q-49 0 -67.5 15.5t-18.5 72.5zM786 1655q0 53 18.5 66.5t67.5 13.5q47 0 65.5 -13.5t18.5 -66.5q0 -57 -18 -72.5t-66 -15.5q-49 0 -67.5 15.5t-18.5 72.5z" />
<glyph unicode="&#xc5;" horiz-adv-x="1368" d="M27 0q123 360 256 713.5t282 713.5h252l128 -370l136 -376l139 -359q69 -174 134 -322h-166l-85 214l-87 226h-697l-75 -219l-72 -221h-145zM365 563h606l-131 372l-125 378h-60l-150 -378zM465 1595.5q0 98.5 50 145.5t173 47q111 0 168 -47t57 -145.5t-57 -145.5 t-168 -47q-109 0 -166 47t-57 145.5zM571 1591q0 -47 25 -76.5t92 -29.5q72 0 96.5 29.5t24.5 76.5q0 51 -24.5 78t-96.5 27q-68 0 -92.5 -27t-24.5 -78z" />
<glyph unicode="&#xc6;" horiz-adv-x="1970" d="M-242 0l496 714l524 713h1127v-122h-830v-480h506v-120h-506v-582h830v-123h-977v440h-703l-148 -219l-145 -221h-174zM313 563h615v750h-70l-277 -378z" />
<glyph unicode="&#xc7;" horiz-adv-x="1232" d="M129 727q0 219 40 361.5t121 225.5t203.5 115.5t288.5 32.5q96 0 206 -15t194 -40l-47 -133q-33 12 -76 22.5t-90 17.5t-95.5 11t-89.5 4q-135 0 -229 -20.5t-153.5 -84t-86 -182t-26.5 -315.5t26.5 -317.5t86 -188t153.5 -91.5t229 -24q41 0 89.5 4.5t95.5 10.5t90 16 t76 23l47 -131q-84 -27 -193.5 -42.5t-206.5 -15.5q-166 0 -288.5 36t-203.5 124t-121 232.5t-40 363.5zM541 -373l37 86q70 -35 180 -35q66 0 91 12.5t25 57.5t-51 58q-32 8 -99 9q-42 0 -97 -3l73 188h70v-96q70 0 117 -7.5t75.5 -23.5t40 -47t11.5 -76q0 -96 -58.5 -131 t-197.5 -35q-78 0 -127 10t-90 33z" />
<glyph unicode="&#xc8;" horiz-adv-x="1249" d="M207 0h977v123h-830v579h588v123h-588v480h830v122h-977v-1427zM442 1794h191l299 -264h-162z" />
<glyph unicode="&#xc9;" horiz-adv-x="1249" d="M207 0h977v123h-830v579h588v123h-588v480h830v122h-977v-1427zM541 1530l274 264h189l-326 -264h-137z" />
<glyph unicode="&#xca;" horiz-adv-x="1249" d="M207 0h977v123h-830v579h588v123h-588v480h830v122h-977v-1427zM387 1530l250 264h147l258 -264h-161l-172 184l-166 -184h-156z" />
<glyph unicode="&#xcb;" horiz-adv-x="1249" d="M207 0h977v123h-830v579h588v123h-588v480h830v122h-977v-1427zM438 1655q0 53 18.5 66.5t67.5 13.5q47 0 65.5 -13.5t18.5 -66.5q0 -57 -18.5 -72.5t-65.5 -15.5q-49 0 -67.5 15.5t-18.5 72.5zM825 1655q0 53 18.5 66.5t67.5 13.5q47 0 65.5 -13.5t18.5 -66.5 q0 -57 -18.5 -72.5t-65.5 -15.5q-49 0 -67.5 15.5t-18.5 72.5z" />
<glyph unicode="&#xcc;" horiz-adv-x="559" d="M-70 1794h191l299 -264h-162zM207 0h147v1427h-147v-1427z" />
<glyph unicode="&#xcd;" horiz-adv-x="559" d="M147 1530l275 264h188l-325 -264h-138zM207 0h147v1427h-147v-1427z" />
<glyph unicode="&#xce;" horiz-adv-x="559" d="M-45 1530l250 264h147l258 -264h-161l-173 184l-165 -184h-156zM207 0h147v1427h-147v-1427z" />
<glyph unicode="&#xcf;" horiz-adv-x="559" d="M6 1655q0 53 18.5 66.5t67.5 13.5q47 0 65.5 -13.5t18.5 -66.5q0 -57 -18.5 -72.5t-65.5 -15.5q-49 0 -67.5 15.5t-18.5 72.5zM207 0h147v1427h-147v-1427zM393 1655q0 53 18.5 66.5t67.5 13.5q47 0 65.5 -13.5t18.5 -66.5q0 -57 -18.5 -72.5t-65.5 -15.5 q-49 0 -67.5 15.5t-18.5 72.5z" />
<glyph unicode="&#xd0;" horiz-adv-x="1439" d="M96 684v113h111v630h440q166 0 291 -33.5t208 -114.5t124 -218t41 -344t-41 -344t-124 -220t-207 -118t-292 -35h-440v684h-111zM354 123h293q137 0 233.5 26.5t157 94t88 182.5t27.5 291q0 186 -27.5 301t-88 177t-157 83.5t-233.5 21.5h-293v-503h332v-113h-332v-561z " />
<glyph unicode="&#xd1;" horiz-adv-x="1495" d="M207 0v1427h201q193 -285 376 -592l355 -616v1208h149v-1427h-176l-360 637l-398 641v-1278h-147zM418 1610q45 80 91 121t114 41q43 0 80.5 -20.5t73.5 -45.5t71 -45.5t72 -20.5q39 0 69.5 29t57.5 107l81 -66q-31 -88 -89 -137t-136 -49q-39 0 -77 21.5t-74.5 47 t-72.5 47t-71 21.5q-33 0 -62.5 -27.5t-56.5 -93.5z" />
<glyph unicode="&#xd2;" horiz-adv-x="1554" d="M129 721q0 -221 39 -365.5t119 -230.5t201.5 -120t287.5 -34q168 0 290 34t202 120t118.5 230.5t38.5 365.5q0 217 -38.5 360.5t-118.5 228.5t-203 118.5t-289 33.5t-287.5 -33.5t-201.5 -118.5t-119 -228.5t-39 -360.5zM289 717q0 197 25.5 318.5t83 188t150.5 90 t228 23.5q137 0 231.5 -23.5t153 -90t84 -188.5t25.5 -318q0 -186 -25.5 -306t-84 -188.5t-153 -95.5t-231.5 -27q-135 0 -228 27t-150.5 95.5t-83 188.5t-25.5 306zM461 1794h190l299 -264h-162z" />
<glyph unicode="&#xd3;" horiz-adv-x="1554" d="M129 721q0 -221 39 -365.5t119 -230.5t201.5 -120t287.5 -34q168 0 290 34t202 120t118.5 230.5t38.5 365.5q0 217 -38.5 360.5t-118.5 228.5t-203 118.5t-289 33.5t-287.5 -33.5t-201.5 -118.5t-119 -228.5t-39 -360.5zM289 717q0 197 25.5 318.5t83 188t150.5 90 t228 23.5q137 0 231.5 -23.5t153 -90t84 -188.5t25.5 -318q0 -186 -25.5 -306t-84 -188.5t-153 -95.5t-231.5 -27q-135 0 -228 27t-150.5 95.5t-83 188.5t-25.5 306zM541 1530l274 264h189l-326 -264h-137z" />
<glyph unicode="&#xd4;" horiz-adv-x="1554" d="M129 721q0 -221 39 -365.5t119 -230.5t201.5 -120t287.5 -34q168 0 290 34t202 120t118.5 230.5t38.5 365.5q0 217 -38.5 360.5t-118.5 228.5t-203 118.5t-289 33.5t-287.5 -33.5t-201.5 -118.5t-119 -228.5t-39 -360.5zM289 717q0 197 25.5 318.5t83 188t150.5 90 t228 23.5q137 0 231.5 -23.5t153 -90t84 -188.5t25.5 -318q0 -186 -25.5 -306t-84 -188.5t-153 -95.5t-231.5 -27q-135 0 -228 27t-150.5 95.5t-83 188.5t-25.5 306zM446 1530l250 264h148l258 -264h-162l-172 184l-166 -184h-156z" />
<glyph unicode="&#xd5;" horiz-adv-x="1554" d="M129 721q0 -221 39 -365.5t119 -230.5t201.5 -120t287.5 -34q168 0 290 34t202 120t118.5 230.5t38.5 365.5q0 217 -38.5 360.5t-118.5 228.5t-203 118.5t-289 33.5t-287.5 -33.5t-201.5 -118.5t-119 -228.5t-39 -360.5zM289 717q0 197 25.5 318.5t83 188t150.5 90 t228 23.5q137 0 231.5 -23.5t153 -90t84 -188.5t25.5 -318q0 -186 -25.5 -306t-84 -188.5t-153 -95.5t-231.5 -27q-135 0 -228 27t-150.5 95.5t-83 188.5t-25.5 306zM414 1610q45 80 91 121t113 41q43 0 81 -20.5t74 -45.5t71 -45.5t71 -20.5q39 0 70 29t57 107l82 -66 q-31 -88 -89 -137t-136 -49q-39 0 -77 21.5t-74.5 47t-72.5 47t-71 21.5q-33 0 -62.5 -27.5t-56.5 -93.5z" />
<glyph unicode="&#xd6;" horiz-adv-x="1554" d="M129 721q0 -221 39 -365.5t119 -230.5t201.5 -120t287.5 -34q168 0 290 34t202 120t118.5 230.5t38.5 365.5q0 217 -38.5 360.5t-118.5 228.5t-203 118.5t-289 33.5t-287.5 -33.5t-201.5 -118.5t-119 -228.5t-39 -360.5zM289 717q0 197 25.5 318.5t83 188t150.5 90 t228 23.5q137 0 231.5 -23.5t153 -90t84 -188.5t25.5 -318q0 -186 -25.5 -306t-84 -188.5t-153 -95.5t-231.5 -27q-135 0 -228 27t-150.5 95.5t-83 188.5t-25.5 306zM500 1655q0 53 18.5 66.5t67.5 13.5q47 0 65.5 -13.5t18.5 -66.5q0 -57 -18.5 -72.5t-65.5 -15.5 q-49 0 -67.5 15.5t-18.5 72.5zM887 1655q0 53 18.5 66.5t67.5 13.5q47 0 65.5 -13.5t18.5 -66.5q0 -57 -18.5 -72.5t-65.5 -15.5q-49 0 -67.5 15.5t-18.5 72.5z" />
<glyph unicode="&#xd7;" d="M244 434l301 303l-301 301l88 86l301 -301l303 305l90 -90l-303 -305l303 -301l-88 -88l-303 303l-301 -303z" />
<glyph unicode="&#xd8;" horiz-adv-x="1554" d="M94 0l150 176q-59 88 -87 220t-28 325q0 217 39 360.5t119 228.5t201.5 118.5t287.5 33.5q150 0 263.5 -27.5t193.5 -93.5l72 86h155l-147 -174q57 -86 84.5 -216t27.5 -316q0 -221 -38.5 -365.5t-118.5 -230.5t-202 -120t-290 -34q-150 0 -262.5 27t-191.5 92l-76 -90 h-152zM289 717q0 -281 59 -418l797 940q-59 59 -149.5 78.5t-219.5 19.5q-135 0 -228 -23.5t-150.5 -90t-83 -188t-25.5 -318.5zM416 201q59 -57 147 -79t213 -22q137 0 231.5 27t153 95.5t84 188t25.5 306.5q0 143 -13.5 245.5t-44.5 174.5z" />
<glyph unicode="&#xd9;" horiz-adv-x="1511" d="M180 496q0 -164 38 -265.5t111.5 -160t180 -79t246 -20.5t247 20.5t180 79t110.5 160t38 265.5v931h-147v-933q0 -123 -27 -200t-80 -120t-133 -58.5t-186 -15.5q-104 0 -185 14.5t-134.5 57.5t-81 120t-27.5 202v933h-150v-931zM483 1794h191l299 -264h-162z" />
<glyph unicode="&#xda;" horiz-adv-x="1511" d="M180 496q0 -164 38 -265.5t111.5 -160t180 -79t246 -20.5t247 20.5t180 79t110.5 160t38 265.5v931h-147v-933q0 -123 -27 -200t-80 -120t-133 -58.5t-186 -15.5q-104 0 -185 14.5t-134.5 57.5t-81 120t-27.5 202v933h-150v-931zM575 1530l275 264h188l-325 -264h-138z " />
<glyph unicode="&#xdb;" horiz-adv-x="1511" d="M180 496q0 -164 38 -265.5t111.5 -160t180 -79t246 -20.5t247 20.5t180 79t110.5 160t38 265.5v931h-147v-933q0 -123 -27 -200t-80 -120t-133 -58.5t-186 -15.5q-104 0 -185 14.5t-134.5 57.5t-81 120t-27.5 202v933h-150v-931zM428 1530l250 264h147l258 -264h-161 l-172 184l-166 -184h-156z" />
<glyph unicode="&#xdc;" horiz-adv-x="1511" d="M180 496q0 -164 38 -265.5t111.5 -160t180 -79t246 -20.5t247 20.5t180 79t110.5 160t38 265.5v931h-147v-933q0 -123 -27 -200t-80 -120t-133 -58.5t-186 -15.5q-104 0 -185 14.5t-134.5 57.5t-81 120t-27.5 202v933h-150v-931zM473 1655q0 53 18.5 66.5t67.5 13.5 q47 0 65.5 -13.5t18.5 -66.5q0 -57 -18.5 -72.5t-65.5 -15.5q-49 0 -67.5 15.5t-18.5 72.5zM860 1655q0 53 18.5 66.5t67.5 13.5q47 0 65.5 -13.5t18.5 -66.5q0 -57 -18.5 -72.5t-65.5 -15.5q-49 0 -67.5 15.5t-18.5 72.5z" />
<glyph unicode="&#xdd;" horiz-adv-x="1243" d="M-10 1427h186q121 -147 236.5 -305.5t220.5 -318.5q119 150 232 308l218 316h170l-272 -376l-285 -365v-686h-149v686q-244 358 -557 741zM494 1530l274 264h188l-325 -264h-137z" />
<glyph unicode="&#xde;" horiz-adv-x="1331" d="M207 0v1427h147v-239h490q119 0 197.5 -38t124.5 -101.5t64.5 -147.5t18.5 -176q0 -84 -20.5 -163t-66.5 -140.5t-121.5 -99t-186.5 -37.5h-500v-285h-147zM354 416h488q127 0 185 87t58 224q0 160 -58 247t-175 87h-498v-645z" />
<glyph unicode="&#xdf;" horiz-adv-x="1261" d="M156 0v1100q0 92 36.5 159.5t100 112.5t149.5 67.5t187 22.5q223 0 347 -87t124 -261q0 -63 -10.5 -122.5t-41 -105.5t-89 -78t-152.5 -40q100 -4 164.5 -36t101.5 -83t51.5 -116.5t14.5 -139.5q0 -119 -34 -199.5t-102.5 -130t-174 -71t-248.5 -21.5q-20 0 -52 1t-53 5 l12 123q16 -2 46 -4t47 -2q119 0 196.5 16.5t123.5 53.5t63.5 94t17.5 139q0 84 -18.5 142.5t-61.5 95.5t-112.5 53.5t-174.5 16.5h-45v120h45q94 0 158 15.5t102.5 48.5t56 84t17.5 123q0 129 -73.5 185t-245.5 56q-164 0 -251 -60t-87 -177v-1100h-135z" />
<glyph unicode="&#xe0;" horiz-adv-x="1110" d="M117 319q0 111 31.5 178.5t87 103.5t130 48.5t160.5 12.5q82 0 148.5 -8.5t146.5 -24.5q0 94 -14 154.5t-49 94t-93.5 46t-148.5 12.5q-74 0 -154.5 -11.5t-142.5 -37.5l-39 125q59 16 149.5 33.5t194.5 17.5q113 0 195 -18.5t134 -64.5t76.5 -124t24.5 -194v-609 q-43 -18 -95 -33.5t-107.5 -26.5t-110.5 -16.5t-104 -5.5q-111 0 -191 16.5t-131 56.5t-74.5 107.5t-23.5 167.5zM266 330q0 -78 12.5 -125t44 -71.5t85 -33t135.5 -8.5q76 0 147.5 12.5t130.5 34.5v377q-57 14 -128.5 20.5t-149.5 6.5t-131.5 -6.5t-85 -29t-46 -64 t-14.5 -113.5zM299 1427h170l244 -264h-142z" />
<glyph unicode="&#xe1;" horiz-adv-x="1110" d="M117 319q0 -100 23.5 -167.5t74.5 -107.5t131 -56.5t191 -16.5q49 0 104 5.5t110.5 16.5t107.5 26.5t95 33.5v609q0 117 -24.5 194.5t-76.5 123.5t-134 64.5t-195 18.5q-104 0 -194 -17.5t-150 -33.5l39 -125q61 27 142 38t155 11q90 0 148.5 -12.5t93.5 -46t49 -94 t14 -154.5q-80 16 -146.5 24.5t-148.5 8.5q-86 0 -160.5 -12.5t-130 -48.5t-87 -103.5t-31.5 -178.5zM266 330q0 72 14.5 113.5t46 64t85 29t131.5 6.5t149.5 -6.5t128.5 -20.5v-377q-59 -23 -130.5 -35t-147.5 -12q-82 0 -135.5 8.5t-85 33t-44 71.5t-12.5 125zM408 1163 l243 264h170l-272 -264h-141z" />
<glyph unicode="&#xe2;" horiz-adv-x="1110" d="M117 319q0 -100 23.5 -167.5t74.5 -107.5t131 -56.5t191 -16.5q49 0 104 5.5t110.5 16.5t107.5 26.5t95 33.5v609q0 117 -24.5 194.5t-76.5 123.5t-134 64.5t-195 18.5q-104 0 -194 -17.5t-150 -33.5l39 -125q61 27 142 38t155 11q90 0 148.5 -12.5t93.5 -46t49 -94 t14 -154.5q-80 16 -146.5 24.5t-148.5 8.5q-86 0 -160.5 -12.5t-130 -48.5t-87 -103.5t-31.5 -178.5zM238 1163l249 264h148l258 -264h-168l-166 176l-162 -176h-159zM266 330q0 72 14.5 113.5t46 64t85 29t131.5 6.5t149.5 -6.5t128.5 -20.5v-377q-59 -23 -130.5 -35 t-147.5 -12q-82 0 -135.5 8.5t-85 33t-44 71.5t-12.5 125z" />
<glyph unicode="&#xe3;" horiz-adv-x="1110" d="M117 319q0 -100 23.5 -167.5t74.5 -107.5t131 -56.5t191 -16.5q49 0 104 5.5t110.5 16.5t107.5 26.5t95 33.5v609q0 117 -24.5 194.5t-76.5 123.5t-134 64.5t-195 18.5q-104 0 -194 -17.5t-150 -33.5l39 -125q61 27 142 38t155 11q90 0 148.5 -12.5t93.5 -46t49 -94 t14 -154.5q-80 16 -146.5 24.5t-148.5 8.5q-86 0 -160.5 -12.5t-130 -48.5t-87 -103.5t-31.5 -178.5zM205 1239q47 84 94 126t117 42q45 0 79.5 -21.5t65.5 -46t61.5 -46t67.5 -21.5q41 0 68.5 30.5t56.5 108.5l84 -68q-33 -92 -83 -139t-132 -47q-41 0 -76 21.5t-68.5 46 t-67.5 46t-71 21.5q-35 0 -64.5 -27.5t-57.5 -97.5zM266 330q0 72 14.5 113.5t46 64t85 29t131.5 6.5t149.5 -6.5t128.5 -20.5v-377q-59 -23 -130.5 -35t-147.5 -12q-82 0 -135.5 8.5t-85 33t-44 71.5t-12.5 125z" />
<glyph unicode="&#xe4;" horiz-adv-x="1110" d="M117 319q0 -100 23.5 -167.5t74.5 -107.5t131 -56.5t191 -16.5q49 0 104 5.5t110.5 16.5t107.5 26.5t95 33.5v609q0 117 -24.5 194.5t-76.5 123.5t-134 64.5t-195 18.5q-104 0 -194 -17.5t-150 -33.5l39 -125q61 27 142 38t155 11q90 0 148.5 -12.5t93.5 -46t49 -94 t14 -154.5q-80 16 -146.5 24.5t-148.5 8.5q-86 0 -160.5 -12.5t-130 -48.5t-87 -103.5t-31.5 -178.5zM266 1266q0 53 18.5 66.5t67.5 13.5q47 0 65.5 -13.5t18.5 -66.5q0 -57 -18.5 -72.5t-65.5 -15.5q-49 0 -67.5 15.5t-18.5 72.5zM266 330q0 72 14.5 113.5t46 64t85 29 t131.5 6.5t149.5 -6.5t128.5 -20.5v-377q-59 -23 -130.5 -35t-147.5 -12q-82 0 -135.5 8.5t-85 33t-44 71.5t-12.5 125zM653 1266q0 53 18.5 66.5t67.5 13.5q47 0 65.5 -13.5t18.5 -66.5q0 -57 -18.5 -72.5t-65.5 -15.5q-49 0 -67.5 15.5t-18.5 72.5z" />
<glyph unicode="&#xe5;" horiz-adv-x="1110" d="M117 319q0 111 31.5 178.5t87 103.5t130 48.5t160.5 12.5q82 0 148.5 -8.5t146.5 -24.5q0 94 -14 154.5t-49 94t-93.5 46t-148.5 12.5q-74 0 -154.5 -11.5t-142.5 -37.5l-39 125q59 16 149.5 33.5t194.5 17.5q113 0 195 -18.5t134 -64.5t76.5 -124t24.5 -194v-609 q-43 -18 -95 -33.5t-107.5 -26.5t-110.5 -16.5t-104 -5.5q-111 0 -191 16.5t-131 56.5t-74.5 107.5t-23.5 167.5zM266 330q0 -78 12.5 -125t44 -71.5t85 -33t135.5 -8.5q76 0 147.5 12.5t130.5 34.5v377q-57 14 -128.5 20.5t-149.5 6.5t-131.5 -6.5t-85 -29t-46 -64 t-14.5 -113.5zM346 1319q0 98 50 145t173 47q111 0 168.5 -47t57.5 -145t-57.5 -145.5t-168.5 -47.5q-109 0 -166 47.5t-57 145.5zM453 1315q0 -47 24.5 -77t91.5 -30q72 0 96.5 30t24.5 77q0 51 -24.5 77.5t-96.5 26.5q-68 0 -92 -26.5t-24 -77.5z" />
<glyph unicode="&#xe6;" horiz-adv-x="1800" d="M117 319q0 111 31.5 178.5t87 103.5t130 48.5t160.5 12.5q82 0 148.5 -8.5t146.5 -24.5q0 94 -12 154.5t-46 94t-93.5 46t-153.5 12.5q-74 0 -154.5 -11.5t-142.5 -37.5l-39 125q59 16 149.5 33.5t194.5 17.5q162 0 252 -38t127 -142q45 100 134 140t239 40 q111 0 189.5 -25.5t131 -89t77 -171t24.5 -273.5h-740q0 -127 21.5 -206t63.5 -124t108 -61.5t156 -16.5q27 0 64.5 4t78.5 11.5t81 17.5t73 23l30 -123q-41 -12 -86 -22.5t-91 -18.5t-88 -12.5t-75 -4.5q-119 0 -201.5 22.5t-140.5 74.5q-29 -25 -79 -43.5t-108 -30.5 t-118.5 -17.5t-109.5 -5.5q-111 0 -191 16.5t-131 56.5t-74.5 107.5t-23.5 167.5zM266 330q0 -70 9.5 -116t39 -72.5t84 -38t144.5 -11.5q37 0 82 4t91 13.5t88 21.5t73 31q-41 96 -49.5 178t-8.5 176q-57 14 -127.5 20.5t-148.5 6.5t-131.5 -6.5t-85 -28t-46 -64 t-14.5 -114.5zM961 625h585q-4 96 -20.5 157.5t-48 96t-80.5 47t-121 12.5q-78 0 -134.5 -12.5t-95 -47t-59 -96t-26.5 -157.5z" />
<glyph unicode="&#xe7;" horiz-adv-x="954" d="M129 522q0 158 33 262.5t97.5 166t156.5 87t213 25.5q33 0 72.5 -4t79.5 -11.5t77 -16.5t66 -19l-43 -125q-55 27 -121 38t-131 11q-90 0 -156.5 -15.5t-110 -61.5t-65 -128t-21.5 -213q0 -127 21.5 -208t65 -128t110 -65.5t156.5 -18.5q66 0 131 14.5t121 39.5l43 -123 q-29 -12 -67 -23.5t-78 -18.5t-78.5 -11.5t-71.5 -4.5q-121 0 -214 27t-156.5 90.5t-96.5 168.5t-33 265zM365 -373l36 86q70 -35 181 -35q66 0 91 12.5t25 57.5t-51 58q-32 8 -99 9q-42 0 -97 -3l73 188h70v-96q70 0 117 -7.5t75.5 -23.5t40 -47t11.5 -76q0 -96 -58.5 -131 t-197.5 -35q-78 0 -127 10t-90 33z" />
<glyph unicode="&#xe8;" horiz-adv-x="1118" d="M129 522q0 152 29.5 255.5t88 167t145.5 91t202 27.5q111 0 189.5 -25.5t131 -89t77 -171t24.5 -273.5h-740q0 -127 21.5 -206t63.5 -124t108 -61.5t156 -16.5q27 0 64.5 4t78.5 11.5t81 17.5t73 23l30 -123q-41 -12 -86 -22.5t-91 -18.5t-88 -12.5t-75 -4.5 q-117 0 -207 27t-151 90.5t-93 168.5t-32 265zM279 625h585q-4 96 -20.5 157.5t-48 96t-80.5 47t-121 12.5q-82 0 -139.5 -14.5t-94 -50t-56 -96t-25.5 -152.5zM358 1427h170l244 -264h-141z" />
<glyph unicode="&#xe9;" horiz-adv-x="1118" d="M129 522q0 152 29.5 255.5t88 167t145.5 91t202 27.5q111 0 189.5 -25.5t131 -89t77 -171t24.5 -273.5h-740q0 -127 21.5 -206t63.5 -124t108 -61.5t156 -16.5q27 0 64.5 4t78.5 11.5t81 17.5t73 23l30 -123q-41 -12 -86 -22.5t-91 -18.5t-88 -12.5t-75 -4.5 q-117 0 -207 27t-151 90.5t-93 168.5t-32 265zM279 625h585q-4 96 -20.5 157.5t-48 96t-80.5 47t-121 12.5q-82 0 -139.5 -14.5t-94 -50t-56 -96t-25.5 -152.5zM430 1163l244 264h170l-273 -264h-141z" />
<glyph unicode="&#xea;" horiz-adv-x="1118" d="M129 522q0 152 29.5 255.5t88 167t145.5 91t202 27.5q111 0 189.5 -25.5t131 -89t77 -171t24.5 -273.5h-740q0 -127 21.5 -206t63.5 -124t108 -61.5t156 -16.5q27 0 64.5 4t78.5 11.5t81 17.5t73 23l30 -123q-41 -12 -86 -22.5t-91 -18.5t-88 -12.5t-75 -4.5 q-117 0 -207 27t-151 90.5t-93 168.5t-32 265zM272 1163l250 264h148l258 -264h-168l-166 176l-162 -176h-160zM279 625h585q-4 96 -20.5 157.5t-48 96t-80.5 47t-121 12.5q-82 0 -139.5 -14.5t-94 -50t-56 -96t-25.5 -152.5z" />
<glyph unicode="&#xeb;" horiz-adv-x="1118" d="M129 522q0 152 29.5 255.5t88 167t145.5 91t202 27.5q111 0 189.5 -25.5t131 -89t77 -171t24.5 -273.5h-740q0 -127 21.5 -206t63.5 -124t108 -61.5t156 -16.5q27 0 64.5 4t78.5 11.5t81 17.5t73 23l30 -123q-41 -12 -86 -22.5t-91 -18.5t-88 -12.5t-75 -4.5 q-117 0 -207 27t-151 90.5t-93 168.5t-32 265zM279 625h585q-4 96 -20.5 157.5t-48 96t-80.5 47t-121 12.5q-82 0 -139.5 -14.5t-94 -50t-56 -96t-25.5 -152.5zM313 1266q0 53 18.5 66.5t67.5 13.5q47 0 65.5 -13.5t18.5 -66.5q0 -57 -18.5 -72.5t-65.5 -15.5 q-49 0 -67.5 15.5t-18.5 72.5zM700 1266q0 53 18.5 66.5t67.5 13.5q47 0 65.5 -13.5t18.5 -66.5q0 -57 -18 -72.5t-66 -15.5q-49 0 -67.5 15.5t-18.5 72.5z" />
<glyph unicode="&#xec;" horiz-adv-x="444" d="M-84 1427h170l244 -264h-142zM156 0v1034h133v-1034h-133z" />
<glyph unicode="&#xed;" horiz-adv-x="444" d="M104 1163l244 264h170l-272 -264h-142zM156 0v1034h133v-1034h-133z" />
<glyph unicode="&#xee;" horiz-adv-x="444" d="M-104 1163l249 264h148l258 -264h-168l-166 176l-162 -176h-159zM156 0v1034h133v-1034h-133z" />
<glyph unicode="&#xef;" horiz-adv-x="444" d="M-59 1266q0 53 18 66.5t68 13.5q47 0 65.5 -13.5t18.5 -66.5q0 -57 -18.5 -72.5t-65.5 -15.5q-49 0 -67.5 15.5t-18.5 72.5zM156 0v1034h133v-1034h-133zM328 1266q0 53 18.5 66.5t67.5 13.5q47 0 65.5 -13.5t18.5 -66.5q0 -57 -18.5 -72.5t-65.5 -15.5q-49 0 -67.5 15.5 t-18.5 72.5z" />
<glyph unicode="&#xf0;" d="M121 438q0 117 27.5 196t89 127t161 68.5t244.5 20.5q53 0 128 -5t149 -16q-37 76 -88.5 147t-112.5 140l-168 -112l-68 100l152 100q-59 59 -120.5 114.5t-127.5 108.5h205l78 -70l80 -77l153 102l66 -100l-135 -90q66 -74 124 -155t101 -172t68.5 -191.5t25.5 -210.5 q0 -152 -26.5 -248t-88 -151.5t-161 -77t-244.5 -21.5q-133 0 -230.5 25.5t-160 83t-92 147.5t-29.5 217zM279 422q0 -82 14 -144.5t53 -104.5t107.5 -63.5t179.5 -21.5q96 0 165.5 11.5t114.5 51t66.5 119.5t21.5 217q0 111 -30 209q-72 14 -158 20.5t-170 6.5 q-111 0 -181.5 -12.5t-111.5 -46t-56 -92t-15 -150.5z" />
<glyph unicode="&#xf1;" horiz-adv-x="1134" d="M156 0v981q43 18 95 33.5t108.5 27t111.5 16.5t102 5q113 0 191 -21.5t126 -77t69.5 -147.5t21.5 -233v-584h-133v557q0 119 -14.5 192.5t-48 114.5t-91 56.5t-145.5 15.5q-76 0 -138.5 -8t-121.5 -27v-901h-133zM213 1239q47 84 94 126t117 42q45 0 80 -21.5t65.5 -46 t61.5 -46t67 -21.5q41 0 69 30.5t56 108.5l84 -68q-33 -92 -83 -139t-132 -47q-41 0 -75.5 21.5t-68.5 46t-68 46t-70 21.5q-35 0 -65 -27.5t-58 -97.5z" />
<glyph unicode="&#xf2;" horiz-adv-x="1198" d="M129 522q0 158 28.5 262.5t86 166t145.5 87t209 25.5t209 -25.5t146.5 -87t87 -166t28.5 -262.5q0 -160 -27.5 -265t-86 -168.5t-147.5 -90.5t-210 -27t-209 27t-146.5 90.5t-86 168.5t-27.5 265zM276 518q0 -127 16.5 -209t54.5 -129t99.5 -66.5t151.5 -19.5 q92 0 153.5 19.5t99.5 66.5t54.5 129t16.5 209q0 131 -16.5 214t-54.5 129t-99.5 62.5t-153.5 16.5q-90 0 -151.5 -16.5t-99.5 -62.5t-54.5 -129t-16.5 -214zM375 1427h170l243 -264h-141z" />
<glyph unicode="&#xf3;" horiz-adv-x="1198" d="M129 522q0 158 28.5 262.5t86 166t145.5 87t209 25.5t209 -25.5t146.5 -87t87 -166t28.5 -262.5q0 -160 -27.5 -265t-86 -168.5t-147.5 -90.5t-210 -27t-209 27t-146.5 90.5t-86 168.5t-27.5 265zM276 518q0 -127 16.5 -209t54.5 -129t99.5 -66.5t151.5 -19.5 q92 0 153.5 19.5t99.5 66.5t54.5 129t16.5 209q0 131 -16.5 214t-54.5 129t-99.5 62.5t-153.5 16.5q-90 0 -151.5 -16.5t-99.5 -62.5t-54.5 -129t-16.5 -214zM446 1163l244 264h170l-272 -264h-142z" />
<glyph unicode="&#xf4;" horiz-adv-x="1198" d="M129 522q0 158 28.5 262.5t86 166t145.5 87t209 25.5t209 -25.5t146.5 -87t87 -166t28.5 -262.5q0 -160 -27.5 -265t-86 -168.5t-147.5 -90.5t-210 -27t-209 27t-146.5 90.5t-86 168.5t-27.5 265zM268 1163l250 264h148l258 -264h-168l-166 176l-162 -176h-160zM276 518 q0 -127 16.5 -209t54.5 -129t99.5 -66.5t151.5 -19.5q92 0 153.5 19.5t99.5 66.5t54.5 129t16.5 209q0 131 -16.5 214t-54.5 129t-99.5 62.5t-153.5 16.5q-90 0 -151.5 -16.5t-99.5 -62.5t-54.5 -129t-16.5 -214z" />
<glyph unicode="&#xf5;" horiz-adv-x="1198" d="M129 522q0 158 28.5 262.5t86 166t145.5 87t209 25.5t209 -25.5t146.5 -87t87 -166t28.5 -262.5q0 -160 -27.5 -265t-86 -168.5t-147.5 -90.5t-210 -27t-209 27t-146.5 90.5t-86 168.5t-27.5 265zM248 1239q47 84 94 126t117 42q45 0 79.5 -21.5t65.5 -46t61.5 -46 t67.5 -21.5q41 0 68.5 30.5t56.5 108.5l84 -68q-33 -92 -83 -139t-132 -47q-41 0 -76 21.5t-68.5 46t-67.5 46t-71 21.5q-35 0 -64.5 -27.5t-57.5 -97.5zM276 518q0 -127 16.5 -209t54.5 -129t99.5 -66.5t151.5 -19.5q92 0 153.5 19.5t99.5 66.5t54.5 129t16.5 209 q0 131 -16.5 214t-54.5 129t-99.5 62.5t-153.5 16.5q-90 0 -151.5 -16.5t-99.5 -62.5t-54.5 -129t-16.5 -214z" />
<glyph unicode="&#xf6;" horiz-adv-x="1198" d="M129 522q0 158 28.5 262.5t86 166t145.5 87t209 25.5t209 -25.5t146.5 -87t87 -166t28.5 -262.5q0 -160 -27.5 -265t-86 -168.5t-147.5 -90.5t-210 -27t-209 27t-146.5 90.5t-86 168.5t-27.5 265zM276 518q0 -127 16.5 -209t54.5 -129t99.5 -66.5t151.5 -19.5 q92 0 153.5 19.5t99.5 66.5t54.5 129t16.5 209q0 131 -16.5 214t-54.5 129t-99.5 62.5t-153.5 16.5q-90 0 -151.5 -16.5t-99.5 -62.5t-54.5 -129t-16.5 -214zM317 1266q0 53 18.5 66.5t67.5 13.5q47 0 65.5 -13.5t18.5 -66.5q0 -57 -18 -72.5t-66 -15.5q-49 0 -67.5 15.5 t-18.5 72.5zM705 1266q0 53 18 66.5t68 13.5q47 0 65 -13.5t18 -66.5q0 -57 -18 -72.5t-65 -15.5q-49 0 -67.5 15.5t-18.5 72.5z" />
<glyph unicode="&#xf7;" d="M145 672v123h981v-123h-981zM537 324q0 66 22.5 83t81.5 17q63 0 86 -17.5t23 -82.5q0 -72 -22.5 -91.5t-86.5 -19.5q-59 0 -81.5 19.5t-22.5 91.5zM537 1147q0 66 22.5 83t81.5 17q63 0 86 -17.5t23 -82.5q0 -72 -22.5 -91.5t-86.5 -19.5q-59 0 -81.5 19.5t-22.5 91.5z " />
<glyph unicode="&#xf8;" horiz-adv-x="1198" d="M90 0l115 137q-76 127 -76 385q0 158 28.5 262.5t86 166t145.5 87t209 25.5q100 0 178 -17.5t135 -58.5l41 47h156l-115 -137q76 -125 76 -375q0 -160 -27.5 -265t-86 -168.5t-147.5 -90.5t-210 -27q-102 0 -180 18.5t-135 59.5l-41 -49h-152zM276 518q0 -86 6.5 -149.5 t22.5 -110.5l520 625q-39 31 -94 42t-133 11q-90 0 -151.5 -15.5t-99.5 -61.5t-54.5 -128t-16.5 -213zM373 156q37 -33 92 -45.5t133 -12.5q92 0 153.5 18.5t99.5 65.5t54.5 128t16.5 208q0 86 -6.5 149.5t-22.5 110.5z" />
<glyph unicode="&#xf9;" horiz-adv-x="1134" d="M156 451v583h133v-557q0 -119 14 -192.5t48 -115.5t91.5 -56.5t143.5 -14.5q76 0 139 8.5t123 28.5v899h133v-981q-43 -18 -96.5 -33.5t-109.5 -26.5t-111.5 -16.5t-100.5 -5.5q-113 0 -190.5 22.5t-125.5 77t-69.5 147t-21.5 233.5zM338 1427h170l244 -264h-142z" />
<glyph unicode="&#xfa;" horiz-adv-x="1134" d="M156 451q0 -141 21.5 -233.5t69.5 -147t126 -77t190 -22.5q45 0 100.5 5.5t111.5 16.5t109.5 26.5t96.5 33.5v981h-133v-899q-59 -20 -122.5 -28.5t-139.5 -8.5q-86 0 -143.5 14.5t-91.5 56.5t-48 115.5t-14 192.5v557h-133v-583zM426 1163l244 264h170l-273 -264h-141z " />
<glyph unicode="&#xfb;" horiz-adv-x="1134" d="M156 451q0 -141 21.5 -233.5t69.5 -147t126 -77t190 -22.5q45 0 100.5 5.5t111.5 16.5t109.5 26.5t96.5 33.5v981h-133v-899q-59 -20 -122.5 -28.5t-139.5 -8.5q-86 0 -143.5 14.5t-91.5 56.5t-48 115.5t-14 192.5v557h-133v-583zM264 1163l250 264h148l258 -264h-168 l-166 176l-162 -176h-160z" />
<glyph unicode="&#xfc;" horiz-adv-x="1134" d="M156 451q0 -141 21.5 -233.5t69.5 -147t126 -77t190 -22.5q45 0 100.5 5.5t111.5 16.5t109.5 26.5t96.5 33.5v981h-133v-899q-59 -20 -122.5 -28.5t-139.5 -8.5q-86 0 -143.5 14.5t-91.5 56.5t-48 115.5t-14 192.5v557h-133v-583zM311 1266q0 53 18.5 66.5t67.5 13.5 q47 0 65.5 -13.5t18.5 -66.5q0 -57 -18.5 -72.5t-65.5 -15.5q-49 0 -67.5 15.5t-18.5 72.5zM698 1266q0 53 18.5 66.5t67.5 13.5q47 0 65.5 -13.5t18.5 -66.5q0 -57 -18.5 -72.5t-65.5 -15.5q-49 0 -67.5 15.5t-18.5 72.5z" />
<glyph unicode="&#xfd;" horiz-adv-x="1042" d="M51 1034q51 -106 102.5 -236t100.5 -272.5t94 -289.5l84 -285l-83 -178q-44 -92 -85 -166h156l45 88l49 100l48 104l44 101q111 260 209 516t176 518h-145q-61 -223 -146.5 -455.5t-179.5 -459.5l-71 237l-80 242q-41 119 -84 230.5t-84 205.5h-150zM403 1163l244 264 h170l-272 -264h-142z" />
<glyph unicode="&#xfe;" horiz-adv-x="1171" d="M156 -393v1872h133v-453q72 16 146.5 26.5t137.5 10.5q119 0 208 -25.5t146.5 -87t86 -166t28.5 -262.5q0 -160 -27.5 -265t-86 -168.5t-146.5 -90.5t-209 -27q-111 0 -178 28t-106 58v-450h-133zM289 246q0 -37 22.5 -64.5t61.5 -46t91 -28t109 -9.5q90 0 151.5 18.5 t99.5 65.5t54.5 128t16.5 208q0 131 -16.5 213t-54.5 128t-99 61.5t-152 15.5q-76 0 -150.5 -10.5t-133.5 -32.5v-647z" />
<glyph unicode="&#xff;" horiz-adv-x="1042" d="M51 1034q51 -106 102.5 -236t100.5 -272.5t94 -289.5l84 -285l-83 -178q-44 -92 -85 -166h156l45 88l49 100l48 104l44 101q111 260 209 516t176 518h-145q-61 -223 -146.5 -455.5t-179.5 -459.5l-71 237l-80 242q-41 119 -84 230.5t-84 205.5h-150zM244 1266 q0 53 18.5 66.5t67.5 13.5q47 0 65.5 -13.5t18.5 -66.5q0 -57 -18.5 -72.5t-65.5 -15.5q-49 0 -67.5 15.5t-18.5 72.5zM631 1266q0 53 18.5 66.5t67.5 13.5q47 0 65.5 -13.5t18.5 -66.5q0 -57 -18.5 -72.5t-65.5 -15.5q-49 0 -67.5 15.5t-18.5 72.5z" />
<glyph unicode="&#x152;" horiz-adv-x="2273" d="M129 721q0 217 39 360.5t119 228.5t201.5 118.5t287.5 33.5q86 0 158 -8t133 -27h1141v-122h-932q129 -143 147 -480h461v-120h-459q-2 -217 -40.5 -357.5t-118.5 -224.5h942v-123h-1164q-57 -16 -123.5 -22.5t-144.5 -6.5q-166 0 -287.5 34t-201.5 120t-119 230.5 t-39 365.5zM289 717q0 -186 25.5 -306t83 -188.5t150.5 -95.5t228 -27q137 0 231.5 27t153 95.5t84 188t25.5 306.5q0 197 -25.5 318.5t-84 188t-153 90t-231.5 23.5q-135 0 -228 -23.5t-150.5 -90t-83 -188t-25.5 -318.5z" />
<glyph unicode="&#x153;" horiz-adv-x="1906" d="M129 522q0 158 28.5 262.5t86 166t145.5 87t209 25.5q150 0 246 -40t147 -142q53 92 147.5 137t243.5 45q111 0 190 -25.5t131 -89t76.5 -171t24.5 -273.5h-739q0 -127 21.5 -206t63.5 -124t107.5 -61.5t155.5 -16.5q27 0 65 4t78.5 11.5t80.5 17.5t73 23l31 -123 q-41 -12 -86 -22.5t-91 -18.5t-88 -12.5t-75 -4.5q-154 0 -254 41t-154 150q-49 -106 -145 -148.5t-250 -42.5q-121 0 -209 27t-146.5 90.5t-86 168.5t-27.5 265zM276 518q0 -127 16.5 -209t54.5 -129t99.5 -66.5t151.5 -19.5q92 0 153.5 19.5t99.5 66.5t54.5 129t16.5 209 q0 131 -16.5 214t-54.5 129t-99.5 62.5t-153.5 16.5q-90 0 -151.5 -16.5t-99.5 -62.5t-54.5 -129t-16.5 -214zM1067 625h586q-4 96 -20.5 157.5t-48.5 96t-81 47t-121 12.5q-76 0 -132 -12.5t-95 -47t-60.5 -96t-27.5 -157.5z" />
<glyph unicode="&#x178;" horiz-adv-x="1243" d="M-10 1427h186q121 -147 236.5 -305.5t220.5 -318.5q119 150 232 308l218 316h170l-272 -376l-285 -365v-686h-149v686q-244 358 -557 741zM354 1655q0 53 18.5 66.5t67.5 13.5q47 0 65.5 -13.5t18.5 -66.5q0 -57 -18.5 -72.5t-65.5 -15.5q-49 0 -67.5 15.5t-18.5 72.5z M741 1655q0 53 18.5 66.5t67.5 13.5q47 0 65.5 -13.5t18.5 -66.5q0 -57 -18.5 -72.5t-65.5 -15.5q-49 0 -67.5 15.5t-18.5 72.5z" />
<glyph unicode="&#x2c6;" horiz-adv-x="1392" d="M387 1163l250 264h147l258 -264h-168l-165 176l-162 -176h-160z" />
<glyph unicode="&#x2dc;" horiz-adv-x="1490" d="M295 1239q47 84 94 126t117 42q45 0 80 -21.5t65.5 -46t61 -46t67.5 -21.5q41 0 69 30.5t56 108.5l84 -68q-33 -92 -83 -139t-132 -47q-41 0 -75.5 21.5t-68.5 46t-68 46t-70 21.5q-35 0 -65 -27.5t-58 -97.5z" />
<glyph unicode="&#x2013;" horiz-adv-x="1114" d="M109 502v123h897v-123h-897z" />
<glyph unicode="&#x2014;" horiz-adv-x="1714" d="M109 502v123h1497v-123h-1497z" />
<glyph unicode="&#x2018;" horiz-adv-x="442" d="M49 1034l223 527h123l-159 -527h-187z" />
<glyph unicode="&#x2019;" horiz-adv-x="440" d="M47 1034l160 527h186l-223 -527h-123z" />
<glyph unicode="&#x201a;" horiz-adv-x="440" d="M47 -326l160 527h186l-223 -527h-123z" />
<glyph unicode="&#x201c;" horiz-adv-x="772" d="M49 1034l223 527h123l-159 -527h-187zM381 1034l223 527h123l-160 -527h-186z" />
<glyph unicode="&#x201d;" horiz-adv-x="772" d="M47 1034l160 527h186l-223 -527h-123zM379 1034l160 527h186l-223 -527h-123z" />
<glyph unicode="&#x201e;" horiz-adv-x="772" d="M47 -326l160 527h186l-223 -527h-123zM379 -326l160 527h186l-223 -527h-123z" />
<glyph unicode="&#x2022;" horiz-adv-x="1198" d="M129 666q0 158 28.5 262t86 165.5t145.5 87t209 25.5t209 -25.5t146.5 -87t87 -166t28.5 -261.5q0 -160 -27.5 -265.5t-86 -169t-147.5 -90t-210 -26.5t-209 26.5t-146.5 90t-86 169t-27.5 265.5z" />
<glyph unicode="&#x2026;" horiz-adv-x="2480" d="M414 111q0 66 22.5 83t81.5 17q63 0 86 -17.5t23 -82.5q0 -72 -22.5 -91.5t-86.5 -19.5q-59 0 -81.5 19.5t-22.5 91.5zM1133 111q0 66 23.5 83t82.5 17q61 0 85 -17.5t24 -82.5q0 -72 -24 -91.5t-85 -19.5q-59 0 -82.5 19.5t-23.5 91.5zM1853 111q0 66 24 83t81 17 q63 0 85.5 -17.5t22.5 -82.5q0 -72 -22.5 -91.5t-85.5 -19.5q-57 0 -81 19.5t-24 91.5z" />
<glyph unicode="&#x2039;" horiz-adv-x="765" d="M70 612l548 549l80 -88l-444 -455l444 -466l-75 -91z" />
<glyph unicode="&#x203a;" horiz-adv-x="765" d="M72 152l444 454l-444 467l75 90l553 -551l-548 -549z" />
<glyph unicode="&#x20ac;" horiz-adv-x="1232" d="M129 727q0 219 40 361.5t121 225.5t203.5 115.5t288.5 32.5q96 0 206 -15t194 -40l-47 -133q-33 12 -76 22.5t-90 17.5t-95.5 11t-89.5 4q-109 0 -191.5 -12t-141 -50t-94 -105.5t-52.5 -178.5h598v-123h-612q-2 -33 -2 -65v-68v-70q0 -33 2 -61h612v-121h-598 q16 -115 51 -186.5t93.5 -112.5t141.5 -55.5t193 -14.5q41 0 89.5 4.5t95.5 10.5t90 16t76 23l47 -131q-84 -27 -193.5 -42.5t-206.5 -15.5q-166 0 -288.5 36t-203.5 124t-121 232.5t-40 363.5z" />
<glyph unicode="&#x2122;" horiz-adv-x="1490" d="M31 1333v94h549v-94h-215v-618h-117v618h-217zM659 715v712h172l189 -600l184 600h164v-712h-104v622l-189 -622h-125l-188 622v-622h-103z" />
<glyph unicode="&#xe000;" horiz-adv-x="1035" d="M0 1035h1035v-1035h-1035v1035z" />
<glyph unicode="&#xfb01;" horiz-adv-x="1134" d="M27 911v123h182v80q0 113 35 183.5t92 109.5t133 52.5t156 13.5q92 0 180 -17.5t170 -52.5l-41 -115q-72 29 -147.5 45.5t-161.5 16.5q-61 0 -113.5 -8.5t-90.5 -33t-58.5 -71.5t-20.5 -123v-80h639v-1034h-133v911h-506v-911h-133v911h-182z" />
<glyph unicode="&#xfb02;" horiz-adv-x="1144" d="M27 911v123h182v80q0 113 35 183.5t92 109.5t133 52.5t156 13.5q186 0 356 -70v-1137q0 -37 5 -66.5t16.5 -54t30 -49t46.5 -53.5l-104 -86q-31 31 -55.5 60.5t-40 64.5t-23.5 77t-8 99v1061q-104 31 -223 31q-61 0 -113.5 -8.5t-90.5 -33t-58.5 -71.5t-20.5 -123v-80 h369v-123h-369v-911h-133v911h-182z" />
<glyph unicode="&#xfb03;" horiz-adv-x="1773" d="M27 911v123h182v80q0 113 35 183.5t92 109.5t133 52.5t156 13.5q84 0 177 -16.5t171 -51.5q59 41 134 54.5t157 13.5q92 0 180 -17.5t170 -52.5l-41 -115q-72 29 -147.5 45.5t-161.5 16.5q-61 0 -113.5 -8.5t-90.5 -33t-58.5 -71.5t-20.5 -123v-80h639v-1034h-133v911 h-506v-911h-133v911h-506v-911h-133v911h-182zM342 1034h506v80q0 59 10 105.5t27 83.5q-61 25 -129 36t-131 11q-61 0 -113.5 -8.5t-90.5 -33t-58.5 -71.5t-20.5 -123v-80z" />
<glyph unicode="&#xfb04;" horiz-adv-x="1785" d="M27 911v123h182v80q0 113 35 183.5t92 109.5t133 52.5t156 13.5q186 0 346 -68q59 41 135 54.5t158 13.5q186 0 356 -70v-1137q0 -37 5 -66.5t16.5 -54t30 -49t46.5 -53.5l-104 -86q-31 31 -55.5 60.5t-40 64.5t-23.5 77t-8 99v1061q-104 31 -223 31q-61 0 -113.5 -8.5 t-90.5 -33t-58.5 -71.5t-20.5 -123v-80h369v-123h-369v-911h-133v911h-506v-911h-133v911h-182zM342 1034h506v80q0 59 10 106.5t29 84.5q-61 23 -126 34t-136 11q-61 0 -113.5 -8.5t-90.5 -33t-58.5 -71.5t-20.5 -123v-80z" />
</font>
</defs>
</svg>
