<?xml version="1.0" standalone="no"?>
<!DOCTYPE svg PUBLIC "-//W3C//DTD SVG 1.1//EN" "http://www.w3.org/Graphics/SVG/1.1/DTD/svg11.dtd" >
<svg xmlns="http://www.w3.org/2000/svg">
<metadata>
This is a custom SVG webfont generated by Font Squirrel.
Copyright   : Copyright c 2005 by Frantisek Storm wwwstormtypecom All rights reserved
Designer    : Frantisek Storm
Foundry     : Frantisek Storm wwwstormtypecom
Foundry URL : wwwstormtypecom
</metadata>
<defs>
<font id="EtelkaLightProBold" horiz-adv-x="1204" >
<font-face units-per-em="2048" ascent="1638" descent="-410" />
<missing-glyph horiz-adv-x="544" />
<glyph unicode=" "  horiz-adv-x="544" />
<glyph unicode="&#x09;" horiz-adv-x="544" />
<glyph unicode="&#xa0;" horiz-adv-x="544" />
<glyph unicode="!" horiz-adv-x="679" d="M180 150q0 47 8.5 74.5t26.5 43t49 20.5t76 5t77 -5t51 -20.5t27.5 -43t8.5 -74.5q0 -51 -8.5 -82t-27.5 -48.5t-51 -23.5t-77 -6t-76 6t-49 23.5t-26.5 48.5t-8.5 82zM182 1427h314l-64 -970h-186z" />
<glyph unicode="&#x22;" horiz-adv-x="757" d="M92 1427h230l-39 -491h-168zM442 1427h224l-39 -491h-166z" />
<glyph unicode="#" horiz-adv-x="1458" d="M51 362l15 203h260l20 326h-264l14 205h264l21 331h237l-22 -331h283l22 331h236l-21 -331h281l-15 -205h-280l-21 -326h285l-14 -203h-283l-25 -362h-235l22 362h-282l-23 -362h-237l24 362h-262zM561 565h283l22 326h-282z" />
<glyph unicode="$" horiz-adv-x="1273" d="M127 971q0 201 105.5 301t312.5 125v293h180v-283q102 -2 206.5 -16.5t180.5 -38.5l-59 -226q-25 10 -62 18.5t-81 14.5t-92 10.5t-93 4.5v-351q211 -29 314.5 -122t103.5 -271q0 -201 -104.5 -297t-313.5 -117v-297h-180v291q-106 2 -214 15.5t-186 37.5l60 228 q57 -20 153.5 -32.5t186.5 -16.5v368q-203 23 -310.5 105t-107.5 256zM379 999q0 -70 33.5 -102.5t132.5 -48.5v317q-84 -14 -125 -53t-41 -113zM725 250q80 14 123 51t43 115q0 70 -33 109.5t-133 58.5v-334z" />
<glyph unicode="%" horiz-adv-x="1964" d="M72 1006q0 135 21.5 224t66.5 140t115.5 71.5t169 20.5t169 -20.5t115.5 -71.5t66.5 -140t21.5 -224q0 -137 -21.5 -228.5t-66.5 -145.5t-115.5 -77t-169 -23t-169 23t-115.5 77t-66.5 145.5t-21.5 228.5zM295 1003.5q0 -90.5 7 -145.5t24.5 -88t46 -44t71.5 -11t72 11 t45.5 44t23.5 88t7 145.5t-7 144.5t-23.5 84t-45.5 40t-72 10t-71.5 -10t-46 -40t-24.5 -84t-7 -144.5zM420 0l876 1427h240l-879 -1427h-237zM1147 444q0 135 21.5 223.5t66.5 139.5t115.5 71.5t169 20.5t169 -20.5t115.5 -71.5t66.5 -139t21.5 -224q0 -137 -21.5 -228 t-66.5 -145.5t-115.5 -77t-169 -22.5t-169 22.5t-115.5 77t-66.5 145.5t-21.5 228zM1370 442q0 -90 7 -146t24.5 -89t46.5 -44t72 -11t71.5 11t45 44t23.5 89t7 146t-7 144.5t-23.5 84t-45 39t-71.5 9.5t-72 -9.5t-46.5 -39t-24.5 -84t-7 -144.5z" />
<glyph unicode="&#x26;" horiz-adv-x="1630" d="M102 373q0 162 89.5 260t293.5 108q-96 8 -153.5 36t-87 72t-38.5 102.5t-9 129.5q0 92 23.5 164t79.5 120t151.5 72.5t240.5 24.5q139 0 234.5 -20.5t154 -64.5t83 -111.5t24.5 -161.5q0 -72 -15.5 -130.5t-52.5 -102.5t-100.5 -71.5t-159.5 -35.5q68 -6 150 -63.5 t192 -194.5q41 66 62.5 142.5t21.5 162.5h273q0 -135 -51.5 -261t-143.5 -235q53 -68 106 -145l115 -170h-307q-49 82 -100 154q-61 -47 -122 -81t-124.5 -56.5t-134 -34t-156.5 -11.5q-145 0 -247.5 19.5t-167 66.5t-94.5 124t-30 192zM389 412q0 -61 11.5 -103.5t41 -68 t77.5 -36.5t122 -11q63 0 116.5 7t99.5 24.5t90 44t91 67.5q-111 147 -202 227t-183 80q-137 0 -200.5 -53t-63.5 -178zM469 1055q0 -111 47 -156t164 -45q115 0 175 44t60 155q0 106 -51 145t-172 39t-172 -38t-51 -144z" />
<glyph unicode="'" horiz-adv-x="413" d="M92 1427h230l-39 -491h-168z" />
<glyph unicode="(" horiz-adv-x="620" d="M139 510q0 244 35 424t96.5 307t143.5 206t176 122l117 -191q-61 -31 -116.5 -88t-95.5 -158.5t-63.5 -253t-23.5 -368.5q0 -215 23.5 -366.5t63.5 -253t95 -160t117 -88.5l-117 -191q-94 43 -176 122t-143.5 206t-96.5 307t-35 424z" />
<glyph unicode=")" horiz-adv-x="620" d="M-88 -358q61 31 116.5 88t95.5 158.5t63.5 253t23.5 368.5q0 215 -23.5 366.5t-63.5 253t-95.5 160t-116.5 88.5l119 191q94 -43 176 -122t143.5 -206t96 -307t34.5 -424t-34.5 -424t-96 -307t-143.5 -206t-176 -122z" />
<glyph unicode="*" horiz-adv-x="1011" d="M61 981v205h265l-133 231l182 103l131 -230l131 230l182 -103l-135 -231h266v-205h-266l133 -231l-180 -101l-131 225l-131 -225l-182 103l133 229h-265z" />
<glyph unicode="+" horiz-adv-x="1191" d="M98 621v241h375v377h244v-377h377v-241h-377v-377h-244v377h-375z" />
<glyph unicode="," horiz-adv-x="583" d="M20 -326l160 537h303l-235 -537h-228z" />
<glyph unicode="-" horiz-adv-x="622" d="M59 455v241h504v-241h-504z" />
<glyph unicode="." horiz-adv-x="583" d="M131 150q0 47 8 74.5t26.5 43t48.5 20.5t75 5q47 0 78.5 -5t50 -20.5t27 -43t8.5 -74.5q0 -51 -8.5 -82t-27 -48.5t-50 -23.5t-78.5 -6q-45 0 -75 6t-48.5 23.5t-26.5 48.5t-8 82z" />
<glyph unicode="/" horiz-adv-x="956" d="M31 0l729 1427h274l-729 -1427h-274z" />
<glyph unicode="0" horiz-adv-x="1282" d="M104 733q0 217 34 357.5t101.5 223.5t168 115.5t233.5 32.5t233.5 -32.5t168 -115.5t101.5 -223.5t34 -357.5q0 -219 -34 -365.5t-101.5 -234.5t-168 -125t-233.5 -37t-233.5 37t-168 125t-101.5 234.5t-34 365.5zM375 733q0 -162 12 -263t43 -157.5t82 -77t129 -20.5 q80 0 131 20.5t82 77t43 157.5t12 263t-12 259.5t-43 148.5t-82 66.5t-131 15.5q-78 0 -129 -15.5t-82 -66.5t-43 -148.5t-12 -259.5z" />
<glyph unicode="1" horiz-adv-x="1282" d="M180 1223l660 264v-1487h-265v1139l-319 -138z" />
<glyph unicode="2" horiz-adv-x="1282" d="M96 0v217l301 233q125 97 209 168.5t132 124t73 96.5t31 86t6 95q0 117 -60.5 158t-203.5 41q-47 0 -100.5 -4.5t-103.5 -12.5t-95 -17t-76 -22l-57 234q90 29 210.5 47t243.5 18q133 0 232.5 -19.5t165 -66.5t98.5 -129t33 -205q0 -74 -9.5 -133t-36 -116.5 t-73.5 -113.5t-122 -121.5t-180 -144.5l-251 -180h670v-233h-1037z" />
<glyph unicode="3" horiz-adv-x="1282" d="M102 23l52 233q35 -10 81 -17.5t95 -12.5t98 -8t90 -3q102 0 168 10.5t102.5 35t50 64.5t13.5 97q0 121 -58.5 167t-195.5 46h-203v229h197q131 0 185 39t54 144q0 49 -12 81.5t-46 53t-94.5 30t-154.5 9.5q-41 0 -90 -3.5t-98 -9.5t-93 -14t-77 -18l-53 233 q92 20 216 36.5t246 16.5q154 0 257.5 -20.5t167 -64.5t90 -113.5t26.5 -165.5q0 -72 -12 -130.5t-45 -103.5t-93.5 -72.5t-154.5 -35.5q100 -4 165.5 -33t102.5 -77t51.5 -114.5t14.5 -146.5q0 -117 -33 -195.5t-102.5 -127t-178 -70t-260.5 -21.5q-55 0 -117.5 4.5 t-124 11.5t-120 16.5t-107.5 19.5z" />
<glyph unicode="4" horiz-adv-x="1273" d="M35 367v84l130 228l157 260l165 260q84 128 158 228h361v-837h190v-223h-190v-367h-258v367h-713zM362 590h386v604q-51 -68 -107 -151l-107 -165l-98 -159z" />
<glyph unicode="5" horiz-adv-x="1282" d="M131 23l53 233q33 -10 76 -17.5t90 -12.5t95.5 -8t89.5 -3q98 0 160.5 9t98 34t48 66t12.5 102q0 68 -11.5 112t-44 69.5t-93 36.5t-158.5 11q-84 0 -181.5 -7t-168.5 -21v800h884v-233h-628v-317q41 4 84 6t86 2q150 0 251 -24.5t161.5 -78t86 -138.5t25.5 -204 q0 -135 -31 -226t-97.5 -144.5t-173 -76t-259.5 -22.5q-51 0 -111.5 4.5t-122 11.5t-119 16.5t-102.5 19.5z" />
<glyph unicode="6" horiz-adv-x="1282" d="M111 725q0 219 35.5 361.5t113.5 226.5t200 116.5t296 32.5q96 0 203.5 -15t191.5 -40l-59 -238q-57 23 -147.5 35.5t-188.5 12.5q-82 0 -146.5 -13.5t-110.5 -51.5t-72 -107.5t-28 -182.5q61 10 136 16.5t135 6.5q150 0 251 -24.5t162.5 -78t88 -138.5t26.5 -204 q0 -135 -28.5 -226t-93 -144.5t-166 -76t-249.5 -22.5q-152 0 -257 36t-170.5 122t-94 231.5t-28.5 364.5zM395 635q2 -133 19.5 -216t49.5 -128t81 -60.5t117 -15.5q78 0 128 11.5t77.5 36t37.5 64.5t10 99q0 61 -10 104t-37.5 71t-78 41t-130.5 13q-78 0 -145.5 -6 t-118.5 -14z" />
<glyph unicode="7" horiz-adv-x="1282" d="M137 1194v233h1096v-81q-47 -76 -103 -178l-112 -217l-115 -241l-110 -250l-99.5 -242t-79.5 -218h-305q55 154 126 325t146.5 332.5t151.5 302t141 234.5h-737z" />
<glyph unicode="8" horiz-adv-x="1282" d="M104 385q0 80 14.5 146.5t51.5 114.5t101.5 77t166.5 33q-96 8 -155.5 35.5t-92 72.5t-44 103.5t-11.5 130.5q0 94 23.5 162.5t81 113.5t155 66.5t247 21.5t246.5 -21.5t154.5 -66.5t81 -113.5t23.5 -162.5q0 -72 -11.5 -130.5t-44 -103.5t-92 -72.5t-155.5 -35.5 q102 -4 166.5 -33t101.5 -77t51.5 -114.5t14.5 -146.5q0 -115 -29 -193.5t-93.5 -128t-166 -71t-248.5 -21.5q-145 0 -247.5 21.5t-167 71t-93.5 128t-29 193.5zM387 412q0 -61 12.5 -103.5t41 -68t77.5 -36.5t123 -11t123 11t78.5 36.5t42 67.5t12.5 104q0 125 -56.5 178 t-199.5 53t-198.5 -53t-55.5 -178zM408 1055q0 -111 55 -156t178 -45t177 45t54 156q0 106 -52 144t-179 38q-129 0 -181 -38t-52 -144z" />
<glyph unicode="9" horiz-adv-x="1282" d="M104 979q0 135 29 228t92.5 149.5t166 81t249.5 24.5q162 0 267.5 -22.5t167 -79.5t86 -152.5t24.5 -238.5q0 -154 -40 -287t-108.5 -253t-160 -225.5t-191.5 -203.5h-336q143 135 266 276.5t195 282.5q-18 -2 -43 -4t-50.5 -3t-48 -2t-36.5 -1q-152 0 -253 22.5 t-162.5 72.5t-87.5 132t-26 203zM387 991q0 -66 10.5 -107.5t41 -65t83.5 -32t140 -8.5q55 0 112 3t109 12q18 70 18 147q0 92 -13.5 148.5t-43 85t-79.5 38t-124 9.5q-80 0 -129 -13.5t-76.5 -41t-38 -72t-10.5 -103.5z" />
<glyph unicode=":" horiz-adv-x="583" d="M131 150q0 47 8 74.5t26.5 43t48.5 20.5t75 5q47 0 78.5 -5t50 -20.5t27 -43t8.5 -74.5q0 -51 -8.5 -82t-27 -48.5t-50 -23.5t-78.5 -6q-45 0 -75 6t-48.5 23.5t-26.5 48.5t-8 82zM131 909q0 47 8 76t26.5 44t48.5 20.5t75 5.5q47 0 78.5 -5.5t50 -20.5t27 -44t8.5 -76 q0 -51 -8.5 -81.5t-27 -48t-50 -22.5t-78.5 -5q-45 0 -75 5t-48.5 22.5t-26.5 48t-8 81.5z" />
<glyph unicode=";" horiz-adv-x="583" d="M20 -326l160 537h303l-235 -537h-228zM131 909q0 47 8 76t26.5 44t48.5 20.5t75 5.5q47 0 78.5 -5.5t50 -20.5t27 -44t8.5 -76q0 -51 -8.5 -81.5t-27 -48t-50 -22.5t-78.5 -5q-45 0 -75 5t-48.5 22.5t-26.5 48t-8 81.5z" />
<glyph unicode="&#x3c;" horiz-adv-x="1191" d="M172 676v125l746 581l137 -180l-549 -461l549 -465l-133 -184z" />
<glyph unicode="=" horiz-adv-x="1191" d="M98 344v242h996v-242h-996zM98 891v242h996v-242h-996z" />
<glyph unicode="&#x3e;" horiz-adv-x="1191" d="M174 274l549 461l-549 467l133 182l748 -583v-125l-746 -582z" />
<glyph unicode="?" horiz-adv-x="1009" d="M55 1411q35 10 81 19.5t97.5 16.5t101.5 11t91 4q143 0 244.5 -25.5t165 -77.5t92 -130t28.5 -180q0 -86 -23.5 -165t-68.5 -153t-107.5 -145.5t-142.5 -145.5h-266q76 82 133.5 155t95 143.5t56 143t18.5 156.5q0 43 -11 76t-40 55.5t-77 35t-120 12.5 q-90 0 -165.5 -11.5t-126.5 -31.5zM324 150q0 47 8 74.5t26.5 43t48 20.5t74.5 5q47 0 79 -5t50.5 -20.5t26.5 -43t8 -74.5q0 -51 -8 -82t-26.5 -48.5t-50.5 -22.5t-79 -5q-45 0 -74.5 5t-48 22.5t-26.5 48.5t-8 82z" />
<glyph unicode="@" horiz-adv-x="1923" d="M111 545q0 223 51 368.5t148.5 229.5t238.5 116.5t321 32.5q141 0 239.5 -20.5t162 -82t92.5 -173t29 -293.5q0 -172 -21.5 -275.5t-74 -160t-140.5 -74.5t-219 -18q-119 0 -199 15t-129 54t-69.5 106.5t-20.5 170.5q0 109 21.5 175t67.5 103t118 49.5t174 12.5 q68 0 140.5 -5.5t115.5 -15.5q0 63 -13 106.5t-46 69t-86.5 35.5t-132.5 10q-154 0 -255.5 -19.5t-163 -75.5t-87 -160.5t-25.5 -276.5t27.5 -279.5t96.5 -169t187.5 -84t301 -22.5t302 27.5t191.5 98t100.5 190.5t28.5 306q0 264 -45 383h231q20 -68 30.5 -164t10.5 -227 q0 -240 -49 -398.5t-152.5 -253.5t-264 -135t-381.5 -40q-225 0 -386 34.5t-264.5 122t-152.5 235t-49 372.5zM768 549q0 -49 9 -80t31.5 -48.5t60.5 -24.5t98 -7q53 0 89 8.5t58.5 31t32.5 61t10 100.5v96q-41 8 -96 11t-96 3q-55 0 -93 -5t-62 -20.5t-33 -46t-9 -79.5z " />
<glyph unicode="A" horiz-adv-x="1396" d="M-18 0q49 160 111 343l131 371l138 370l136 343h424l119 -363l133 -380l135 -365l127 -319h-299l-67 168q-36 90 -71 188h-624l-59 -185l-52 -171h-282zM446 588h476l-107 315q-51 156 -92 295h-55l-110 -294z" />
<glyph unicode="B" horiz-adv-x="1458" d="M180 0v1427h768q106 0 175 -24.5t108 -68.5t53 -107.5t14 -141.5q0 -72 -10 -128t-42 -98t-90 -68.5t-155 -34.5q102 -4 166 -32t100 -75t49 -112.5t13 -145.5q0 -211 -98 -301t-270 -90h-781zM451 858h438q68 0 95.5 46t27.5 126q0 86 -27 127t-96 41h-438v-340z M451 227h450q74 0 105.5 51.5t31.5 149.5q0 102 -35.5 156.5t-109.5 54.5h-442v-412z" />
<glyph unicode="C" horiz-adv-x="1212" d="M109 727q0 219 40.5 361.5t123.5 225.5t209 115.5t296 32.5q49 0 103.5 -4t108.5 -11t105.5 -16.5t92.5 -21.5l-60 -238q-29 10 -65.5 18.5t-77.5 14.5t-82 9.5t-78 3.5q-117 0 -198.5 -15.5t-132 -67t-74 -148.5t-23.5 -261t23.5 -264.5t74 -153.5t132.5 -70.5 t198 -17.5q37 0 78 3t82 9.5t78 14.5t65 18l60 -241q-41 -12 -92.5 -21.5t-105.5 -15.5t-108.5 -10.5t-103.5 -4.5q-170 0 -296 36t-209 124t-123.5 232.5t-40.5 363.5z" />
<glyph unicode="D" horiz-adv-x="1507" d="M180 0v1427h545q170 0 296 -32.5t210 -113.5t126 -217t42 -345q0 -207 -42 -345t-126 -221t-210 -118t-296 -35h-545zM451 233h247q119 0 198 18.5t126 72t67.5 147.5t20.5 246q0 158 -20.5 252t-67.5 144t-126 65.5t-198 15.5h-247v-961z" />
<glyph unicode="E" horiz-adv-x="1269" d="M180 0v1427h1037v-233h-766v-330h546v-231h-546v-400h766v-233h-1037z" />
<glyph unicode="F" horiz-adv-x="1196" d="M180 0v1427h1016v-233h-745v-403h546v-232h-546v-559h-271z" />
<glyph unicode="G" horiz-adv-x="1433" d="M109 727q0 219 45 361.5t134 225.5t222 115.5t307 32.5q49 0 106.5 -4t116 -11t112.5 -16.5t95 -21.5l-55 -235q-29 10 -74 18t-95 13t-99.5 8.5t-85.5 3.5q-121 0 -205 -15.5t-136.5 -67t-76 -148.5t-23.5 -261t23.5 -264.5t74 -154.5t132.5 -71.5t198 -17.5 q51 0 101.5 6t83.5 15v368h-312v228h588v-801q-43 -14 -104.5 -25.5t-131 -19.5t-140 -12.5t-132.5 -4.5q-170 0 -296 36t-209 124t-123.5 232.5t-40.5 363.5z" />
<glyph unicode="H" horiz-adv-x="1507" d="M180 0v1427h271v-544h610v544h266v-1427h-266v633h-610v-633h-271z" />
<glyph unicode="I" horiz-adv-x="630" d="M180 0v1427h271v-1427h-271z" />
<glyph unicode="J" horiz-adv-x="944" d="M12 27l54 241q51 -20 114.5 -31.5t128.5 -11.5q39 0 73 9.5t59.5 32t40 61.5t14.5 100v999h272l2 -1034q0 -127 -37 -209t-98.5 -129t-139 -65.5t-159.5 -18.5q-88 0 -172 15.5t-152 40.5z" />
<glyph unicode="K" horiz-adv-x="1355" d="M180 0v1427h271v-1427h-271zM453 754q33 25 89 81t128.5 142t158.5 198.5t181 251.5h327q-197 -276 -341 -443t-197 -212q27 -18 81 -74.5t129.5 -151.5t171 -231.5t201.5 -314.5h-331q-215 354 -376 541.5t-222 212.5z" />
<glyph unicode="L" horiz-adv-x="1128" d="M180 0v1427h271v-1191h673v-236h-944z" />
<glyph unicode="M" horiz-adv-x="1875" d="M180 0v1427h369l103 -218l104 -231l100 -236l94 -228l91 230l100 236l103 231l102 216h350v-1427h-264v1063l-101 -226l-103 -242l-102 -241l-92 -223h-211l-89 225l-97 244l-99 242l-98 221v-1063h-260z" />
<glyph unicode="N" horiz-adv-x="1585" d="M180 0v1427h355l307 -506l293 -524v1030h268v-1427h-330l-303 538l-326 537v-1075h-264z" />
<glyph unicode="O" horiz-adv-x="1576" d="M109 727q0 217 43 359.5t128 225.5t211.5 116.5t296.5 33.5t297 -33.5t212 -116.5t127 -225.5t42 -359.5q0 -221 -42 -366.5t-127 -232.5t-212 -122t-296.5 -35t-297.5 35t-213 122t-127 232.5t-42 366.5zM397 723q0 -162 17.5 -261.5t61.5 -154.5t120 -73.5t192.5 -18.5 t192.5 18.5t120 73.5t61.5 154.5t17.5 261.5t-17.5 260t-61.5 150.5t-120 69t-192.5 16.5t-192.5 -16.5t-120 -69t-61.5 -150.5t-17.5 -260z" />
<glyph unicode="P" horiz-adv-x="1378" d="M180 0v1427h744q113 0 189.5 -36.5t122.5 -103t65.5 -156t19.5 -193.5q0 -92 -22.5 -177t-70.5 -149.5t-122 -102.5t-176 -38h-479v-471h-271zM451 696h397q86 0 131 60.5t45 183.5q0 258 -170 258h-403v-502z" />
<glyph unicode="Q" horiz-adv-x="1603" d="M123 727q0 217 42 359.5t127 225.5t212 116.5t297 33.5t297 -33.5t212 -116.5t128 -225.5t43 -359.5q0 -170 -25.5 -293t-76 -206t-125 -131t-173.5 -66q68 -18 172.5 -119.5t251.5 -304.5h-315q-119 182 -221.5 269t-171.5 95q-170 0 -296 36t-210 123t-126 232.5 t-42 364.5zM412 723q0 -162 16 -261.5t60 -154.5t120 -73.5t193 -18.5q119 0 194.5 18.5t119.5 73.5t61.5 154.5t17.5 261.5t-17.5 260t-61.5 150.5t-119.5 69t-194.5 16.5q-117 0 -193 -16.5t-120 -69t-60 -150.5t-16 -260z" />
<glyph unicode="R" horiz-adv-x="1445" d="M180 0v1427h744q113 0 189.5 -32.5t122.5 -89t65.5 -132t19.5 -161.5q0 -78 -18.5 -146.5t-62.5 -122t-115.5 -86t-178.5 -36.5q37 -12 81 -52.5t100.5 -114t128.5 -186.5l167 -268h-333q-84 147 -152 250.5t-122 169t-97 95.5t-78 30h-190v-545h-271zM451 768h403 q78 0 122 52t44 157q0 113 -42 167t-118 54h-409v-430z" />
<glyph unicode="S" horiz-adv-x="1273" d="M100 997q0 252 155 358.5t454 106.5q117 0 233.5 -17.5t202.5 -45.5l-60 -234q-31 10 -72.5 19.5t-92 16.5t-104.5 11.5t-107 4.5q-172 0 -247 -41t-75 -146q0 -41 12.5 -70.5t47 -51t95 -37t158.5 -23.5q248 -27 364 -126t116 -302q0 -127 -39 -212t-116 -138.5 t-192.5 -76t-269.5 -22.5q-119 0 -238.5 17.5t-205.5 46.5l59 233q68 -23 172.5 -37t208.5 -14q172 0 251 39t79 150q0 39 -12.5 71.5t-48 58t-99 42t-166.5 26.5q-119 12 -206 38t-144 72t-85 115.5t-28 167.5z" />
<glyph unicode="T" horiz-adv-x="1247" d="M6 1194v233h1235v-233h-481v-1194h-273v1194h-481z" />
<glyph unicode="U" horiz-adv-x="1519" d="M160 432v995h272v-954q0 -72 17.5 -120t55.5 -77.5t100.5 -43t154.5 -13.5q86 0 148.5 11.5t102.5 40t59.5 77.5t19.5 125v954h268l2 -995q0 -141 -41 -230t-119 -140.5t-189.5 -71t-250.5 -19.5t-251 19.5t-189.5 71t-118.5 140.5t-41 230z" />
<glyph unicode="V" horiz-adv-x="1327" d="M-39 1427h299l104 -261l109 -298l105.5 -307t89.5 -287q53 131 106 279l105 298l97 298l85 278h285q-49 -160 -112 -343l-131 -370l-140 -371l-140 -343h-346l-117 360l-131 380l-136 367q-69 177 -132 320z" />
<glyph unicode="W" horiz-adv-x="1996" d="M-4 1427h295l80 -249q41 -133 80 -274l76 -284q38 -144 71 -284l73 246l80 287l75 294q36 145 59 264h250l71 -258l78 -291l74 -290q35 -141 57 -252q88 274 163 549.5t134 541.5h279q-39 -160 -88 -343l-104 -370l-111 -371l-111 -343h-344q-23 123 -50 251l-58 254 l-59 247l-56 227q-23 -113 -54 -236l-64 -248l-71 -252l-73 -243h-342l-94 360l-103 380l-108 367q-54 177 -105 320z" />
<glyph unicode="X" horiz-adv-x="1380" d="M-8 0l117 148l134 177l145 193l149 203l-287 383l-250 323h346l169 -219l190 -252l173 245l154 226h332l-236 -337l-258 -363l143 -198l137 -192l127 -178l109 -159h-335l-165 236l-184 258l-194 -257l-184 -237h-332z" />
<glyph unicode="Y" horiz-adv-x="1306" d="M-78 1427h352l194 -255l204 -289l206 285q97 140 171 259h327l-272 -396l-303 -415v-616h-271v614l-157 221l-159 217l-154 201z" />
<glyph unicode="Z" horiz-adv-x="1271" d="M35 0v66l197 274l210 301l202 295l173 258h-737v233h1157v-61l-178 -277l-208 -311l-211 -299q-103 -143 -185 -246h768v-233h-1188z" />
<glyph unicode="[" horiz-adv-x="698" d="M184 -532v2078h553v-221h-288v-1638h288v-219h-553z" />
<glyph unicode="\" horiz-adv-x="956" d="M-59 1427h274l729 -1427h-274z" />
<glyph unicode="]" horiz-adv-x="698" d="M-39 -313h289v1638h-289v221h553v-2078h-553v219z" />
<glyph unicode="^" horiz-adv-x="1087" d="M27 606l393 821h244l397 -821h-275l-247 545l-244 -545h-268z" />
<glyph unicode="_" horiz-adv-x="962" d="M59 -98h844v-242h-844v242z" />
<glyph unicode="`" horiz-adv-x="985" d="M190 1427h271l250 -264h-226z" />
<glyph unicode="a" horiz-adv-x="1146" d="M100 319q0 111 30 178.5t84 103.5t129 48.5t167 12.5q66 0 129 -7.5t129 -21.5q0 68 -10 111.5t-39 69.5t-79 36t-132 10q-86 0 -168 -14.5t-147 -36.5l-48 209q82 23 193 39t223 16q117 0 202 -19.5t140 -66.5t82 -125t27 -194v-615q-49 -18 -108.5 -33.5t-122 -26.5 t-124 -16.5t-116.5 -5.5q-123 0 -208 16.5t-136.5 56.5t-74 106.5t-22.5 168.5zM367 330q0 -53 8 -85t29.5 -49.5t59.5 -23.5t95 -6q55 0 109.5 9t99.5 26v260q-43 10 -96.5 14t-110.5 4q-53 0 -91 -5t-60.5 -20.5t-32.5 -45t-10 -78.5z" />
<glyph unicode="b" d="M141 47v1432h254v-475q43 27 113 48t158 21q109 0 189.5 -25.5t134.5 -88t81 -168t27 -263.5q0 -160 -30 -267t-91.5 -171.5t-155.5 -91.5t-223 -27q-57 0 -119.5 5.5t-123 15.5t-116 24.5t-98.5 30.5zM395 213q45 -16 99.5 -24.5t103.5 -8.5q68 0 114 12.5t73.5 49.5 t40 104.5t12.5 177.5q0 96 -11.5 160t-39 100.5t-72.5 51t-113 14.5q-86 0 -146.5 -25.5t-60.5 -72.5v-539z" />
<glyph unicode="c" horiz-adv-x="962" d="M104 526.5q0 159.5 36 265t103.5 168t163 88t214.5 25.5q37 0 80.5 -4t86.5 -10t82 -15.5t68 -19.5l-57 -217q-49 18 -114 31.5t-128 13.5q-70 0 -121 -11.5t-85 -46t-50 -99t-16 -173.5q0 -104 16 -168.5t50 -100.5t85 -48t121 -12q66 0 129 14t113 35l57 -217 q-31 -12 -71 -22.5t-82 -16.5t-85 -10.5t-79 -4.5q-119 0 -214.5 27t-163 90.5t-103.5 171t-36 267z" />
<glyph unicode="d" d="M104 522q0 158 32 264.5t90.5 170t142.5 90t188 26.5q90 0 149.5 -18.5t100.5 -40.5v465h254v-1432q-43 -16 -98.5 -30.5t-116 -24.5t-122.5 -15.5t-118 -5.5q-129 0 -223 26t-156.5 89t-92.5 169.5t-30 266.5zM367 526q0 -106 12 -172.5t39.5 -103.5t74 -49.5 t113.5 -12.5q53 0 106.5 8.5t94.5 22.5v539q0 47 -59.5 73.5t-145.5 26.5q-68 0 -113 -15.5t-72.5 -53t-38.5 -101.5t-11 -162z" />
<glyph unicode="e" horiz-adv-x="1130" d="M104 526q0 156 33 261.5t96.5 169t152.5 90t204 26.5q123 0 212 -25.5t145.5 -94t79.5 -188.5q19 -95 19 -235q0 -36 -2 -75h-673q0 -84 17.5 -136.5t50 -82t83.5 -40t119 -10.5q27 0 64.5 3.5t78.5 9.5t80 13t70 17l41 -200q-39 -12 -86 -23.5t-95.5 -18.5t-96.5 -11.5 t-87 -4.5q-113 0 -206 27t-159.5 90.5t-103.5 170.5t-37 267zM373 649h438q-4 70 -15.5 113t-36 67.5t-62.5 33.5t-93 9q-59 0 -101 -10t-68.5 -36.5t-41 -70t-20.5 -106.5z" />
<glyph unicode="f" horiz-adv-x="770" d="M10 821v221h174v70q0 113 31 185.5t82 113.5t119.5 56.5t146.5 15.5q72 0 150 -12.5t137 -32.5l-57 -201q-37 12 -89.5 20.5t-99.5 8.5q-76 0 -121 -34t-45 -134v-56h338v-221h-338v-821h-254v821h-174z" />
<glyph unicode="g" d="M104 518q0 160 30 266.5t92.5 171t156.5 91t223 26.5q55 0 117.5 -5t123 -15.5t116 -24.5t98.5 -33v-915q0 -154 -41 -250t-115 -151.5t-176 -76t-225 -20.5q-45 0 -95.5 5t-99.5 13.5t-94 19.5t-78 24l51 204q72 -23 156 -37t158 -14q72 0 129 11.5t96 39t59.5 75.5 t20.5 120q-43 -27 -108.5 -47.5t-155.5 -20.5q-109 0 -191 26t-137 87.5t-83 165.5t-28 264zM367 520q0 -98 11 -160.5t38.5 -99.5t71.5 -51t112 -14q86 0 146.5 25.5t60.5 72.5v536q-45 16 -99.5 25.5t-101.5 9.5q-68 0 -114 -12t-73.5 -49t-39.5 -104.5t-12 -178.5z" />
<glyph unicode="h" horiz-adv-x="1193" d="M141 0v1479h254v-478q51 27 129 49.5t158 22.5q92 0 161.5 -19.5t118 -71.5t73 -144.5t24.5 -237.5v-600h-254v580q0 129 -43 196.5t-166 67.5q-39 0 -76 -6.5t-64.5 -17.5t-44 -28.5t-16.5 -39.5v-752h-254z" />
<glyph unicode="i" horiz-adv-x="536" d="M123 1352q0 41 7 65.5t24.5 37.5t45 17.5t70.5 4.5q41 0 69 -4.5t45 -17.5t24.5 -37.5t7.5 -65.5q0 -90 -32 -116t-114 -26q-84 0 -115.5 26t-31.5 116zM141 0v1042h254v-1042h-254z" />
<glyph unicode="j" horiz-adv-x="536" d="M-33 -205q86 0 130 36t44 140v1071h254v-1065q0 -117 -26.5 -192.5t-81 -119.5t-134 -62.5t-186.5 -18.5v211zM123 1352q0 41 7 65.5t24.5 37.5t45 17.5t70.5 4.5q41 0 69 -4.5t45 -17.5t24.5 -37.5t7.5 -65.5q0 -90 -32 -116t-114 -26q-84 0 -115.5 26t-31.5 116z" />
<glyph unicode="k" horiz-adv-x="1128" d="M141 0v1479h254v-1479h-254zM395 551q43 35 146.5 159t257.5 332h301q-152 -205 -255.5 -322.5t-144.5 -150.5q41 -25 153 -166t277 -403h-299q-178 258 -285.5 395.5t-150.5 155.5z" />
<glyph unicode="l" horiz-adv-x="548" d="M141 283v1196h254v-1186q0 -76 18.5 -132.5t61.5 -113.5l-223 -96q-53 61 -82 139t-29 193z" />
<glyph unicode="m" horiz-adv-x="1804" d="M141 0v983q96 37 226.5 63.5t255.5 26.5q176 0 266 -69q86 31 183 50t188 19q111 0 188.5 -24.5t126.5 -81t71.5 -150.5t22.5 -235v-582h-254v555q0 86 -9 142.5t-32.5 89t-63.5 45t-104 12.5q-39 0 -95 -6.5t-107 -22.5q29 -96 28 -233v-582h-254v555q0 86 -9 142.5 t-32.5 89t-63.5 45t-104 12.5q-41 0 -88 -7.5t-86 -17.5v-819h-254z" />
<glyph unicode="n" horiz-adv-x="1193" d="M141 0v983q47 18 107.5 34.5t125 29t132 19.5t129.5 7q111 0 190.5 -24.5t132 -81t77 -150.5t24.5 -235v-582h-254v555q0 86 -9.5 142.5t-35 89t-68.5 45t-110 12.5q-94 0 -187 -25v-819h-254z" />
<glyph unicode="o" d="M104 526.5q0 159.5 31 265t93.5 168t155.5 88t216 25.5q125 0 219 -25.5t156.5 -88t93.5 -168t31 -265t-31 -267t-93.5 -171t-156.5 -90.5t-219 -27t-218 27t-154.5 90.5t-92.5 171t-31 267zM367 522q0 -109 11 -176t38.5 -105t71.5 -51.5t112 -13.5t114 13.5t73.5 51.5 t39 105.5t11.5 175.5q0 113 -11.5 180.5t-39 104.5t-73.5 49t-114 12t-112 -12t-71.5 -49t-38.5 -104.5t-11 -180.5z" />
<glyph unicode="p" d="M141 -393v1388q43 18 98.5 32.5t116 25t123 15.5t119.5 5q129 0 223 -26.5t155.5 -89t91.5 -169t30 -266.5t-32 -265t-90 -168.5t-142 -90.5t-189 -27q-90 0 -148.5 18.5t-101.5 41.5v-424h-254zM395 287q0 -47 59.5 -74t145.5 -27q68 0 113 15.5t72.5 53.5t40 101.5 t12.5 159.5q0 106 -12.5 173t-40 103.5t-73.5 49t-114 12.5q-53 0 -107.5 -7t-95.5 -24v-536z" />
<glyph unicode="q" d="M104 518q0 160 30 266.5t92.5 171t156.5 91t223 26.5q55 0 117.5 -5t123 -15.5t116 -24.5t98.5 -33v-1388h-254v434q-43 -27 -111.5 -48.5t-158.5 -21.5q-109 0 -190 26t-135 89.5t-81 167.5t-27 264zM367 520q0 -98 11 -160.5t38.5 -99.5t71.5 -51t112 -14 q86 0 146.5 25.5t60.5 72.5v536q-45 16 -99.5 25.5t-101.5 9.5q-68 0 -114 -12t-73.5 -49t-39.5 -104.5t-12 -178.5z" />
<glyph unicode="r" horiz-adv-x="776" d="M141 0v1042h254v-77q29 43 91.5 75.5t174.5 32.5q51 0 107 -6v-242q-29 6 -63.5 10.5t-69.5 4.5q-47 0 -91 -7.5t-77 -22.5t-52.5 -36.5t-19.5 -50.5v-723h-254z" />
<glyph unicode="s" horiz-adv-x="1005" d="M92 727q0 100 33 168t91 106.5t141 55t182 16.5q82 0 177 -15.5t173 -41.5l-55 -199q-61 20 -143.5 34.5t-160.5 14.5q-47 0 -81.5 -4t-58 -16t-36 -36t-12.5 -65q0 -53 44 -76.5t171 -35.5q94 -10 162.5 -30.5t113 -57.5t66 -92.5t21.5 -133.5q0 -102 -33 -168.5 t-91.5 -106.5t-140.5 -56.5t-182 -16.5q-41 0 -91 4.5t-100.5 11.5t-97.5 17t-84 23l54 200q29 -10 65.5 -19t77.5 -15.5t84 -10.5t82 -4q104 0 154.5 22.5t50.5 104.5q0 27 -9.5 48.5t-34 35.5t-68.5 24.5t-112 16.5q-86 6 -151.5 23.5t-110.5 51.5t-67.5 88t-22.5 134z " />
<glyph unicode="t" horiz-adv-x="849" d="M20 821v221h175v177l254 104v-281h346v-221h-346v-448q0 -98 32.5 -140.5t124.5 -42.5q51 0 95 8.5t83 20.5l45 -201q-55 -20 -133 -33.5t-153 -13.5q-88 0 -153.5 15.5t-108.5 57.5t-64.5 115.5t-21.5 190.5v471h-175z" />
<glyph unicode="u" horiz-adv-x="1193" d="M135 461v581h254v-555q0 -86 9.5 -142t34 -89t67.5 -45t110 -12q100 0 189 26v817h254v-983q-49 -18 -108.5 -34.5t-124 -28.5t-132 -19.5t-129.5 -7.5q-111 0 -190.5 24.5t-132 81t-77 151t-24.5 235.5z" />
<glyph unicode="v" horiz-adv-x="1046" d="M0 1042h264q70 -176 136.5 -379.5t121.5 -406.5q74 197 140.5 393.5t117.5 392.5h258q-76 -256 -173 -521t-201 -521h-314q-78 274 -165 540t-185 502z" />
<glyph unicode="w" horiz-adv-x="1699" d="M0 1042h268q66 -174 127.5 -376.5t110.5 -405.5q27 78 59 184l65 216q32 110 58.5 211.5t42.5 170.5h248l54 -176l59 -207l54 -210q26 -104 44 -189q72 197 133 391.5t109 390.5h258q-72 -256 -163 -525t-194 -517h-315l-37 175q-20 95 -44 192l-46 183q-23 87 -41 148 q-18 -82 -43 -174l-51 -185l-55 -181l-52 -158h-313q-76 274 -160 537t-176 505z" />
<glyph unicode="x" horiz-adv-x="1067" d="M12 0q84 98 191 236l215 284l-212 286q-105 138 -192 236h303l115 -147l125 -172l120 173l95 146h283l-165 -240l-194 -274l193 -276l168 -252h-287q-43 72 -99 156l-120 174l-134 -177l-122 -153h-283z" />
<glyph unicode="y" horiz-adv-x="1046" d="M0 1042h264q70 -174 137.5 -380.5t120.5 -409.5q74 197 141.5 396.5t116.5 393.5h258q-78 -268 -179 -542.5t-216 -542.5l-79 -180q-42 -92 -83 -170h-282q41 74 86 165l84 177l-83 283l-91 286q-47 141 -96.5 274t-98.5 250z" />
<glyph unicode="z" horiz-adv-x="1017" d="M37 0v51l154 203l155 214l135 198l101 155h-510v221h899v-51q-55 -90 -127 -196l-146 -212l-143 -201l-121 -161h522v-221h-919z" />
<glyph unicode="{" horiz-adv-x="692" d="M63 403v211q45 0 86 18.5t72 64.5t49.5 126t18.5 203q0 131 28.5 224t75.5 158t107.5 102.5t124.5 60.5l120 -191q-49 -18 -89 -44.5t-66.5 -76t-40.5 -125t-14 -190.5q0 -121 -18.5 -201.5t-46.5 -130t-59.5 -72t-56.5 -30.5q25 -8 56.5 -31.5t59.5 -74t46.5 -131 t18.5 -201.5q0 -115 13 -191t39.5 -124t66.5 -75.5t91 -46.5l-120 -188q-63 20 -124 60t-108 104.5t-75.5 158t-28.5 224.5q0 123 -18.5 202.5t-49.5 126t-71.5 65t-86.5 18.5v-3z" />
<glyph unicode="|" horiz-adv-x="759" d="M246 -524v2070h268v-2070h-268z" />
<glyph unicode="}" horiz-adv-x="692" d="M-53 -360q49 18 89 44.5t66.5 76t41 125t14.5 190.5q0 121 18.5 200.5t46 129t59 73t56.5 31.5q-25 8 -56.5 31.5t-59 74t-46 131t-18.5 201.5q0 115 -13.5 190.5t-40 124t-66.5 75t-91 44.5l60 95l61 94q63 -23 123.5 -60.5t107.5 -102.5t75.5 -158t28.5 -224 q0 -123 18.5 -203t49.5 -126t72 -64.5t86 -18.5v-53v-155q-45 0 -86 -18.5t-72 -65t-49.5 -126t-18.5 -202.5q0 -131 -28.5 -224.5t-75.5 -158t-107.5 -103t-123.5 -59.5l-61 95z" />
<glyph unicode="~" horiz-adv-x="1191" d="M78 741q53 90 117.5 144.5t162.5 54.5q66 0 129.5 -26.5t120.5 -58.5l110 -58q52 -27 97 -27q47 0 79 29.5t60 111.5l164 -129q-37 -98 -116.5 -166.5t-196.5 -68.5q-59 0 -118.5 27.5t-117 60.5t-112 60.5t-101.5 27.5q-37 0 -68.5 -25.5t-62.5 -97.5z" />
<glyph unicode="&#xa1;" horiz-adv-x="679" d="M178 913q0 51 8.5 82t26.5 48.5t49 23.5t78 6q45 0 75.5 -6t49 -23.5t27 -48t8.5 -82.5q0 -47 -8.5 -74.5t-27 -43t-49 -20.5t-75.5 -5q-47 0 -78 5t-49 20.5t-26.5 43t-8.5 74.5zM184 -365l66 971h184l66 -971h-316z" />
<glyph unicode="&#xa2;" horiz-adv-x="937" d="M104 784q0 139 28 236.5t79 160t125 96.5t164 44v217h200v-213q53 -4 115 -15.5t105 -27.5l-58 -201q-35 16 -78 23.5t-84 9.5v-672q41 4 84 12.5t78 24.5l58 -196q-45 -20 -105.5 -32.5t-114.5 -17.5v-247h-200v247q-92 12 -165 47t-124 100.5t-79 164t-28 239.5z M348 778q0 -147 37 -215.5t115 -91.5v616q-39 -10 -68 -30.5t-47 -56t-27.5 -90t-9.5 -132.5z" />
<glyph unicode="&#xa3;" horiz-adv-x="1249" d="M74 600v215h121v162q0 242 135 362.5t436 120.5q117 0 233.5 -17.5t202.5 -45.5l-59 -232q-31 10 -73 19.5t-92 15.5t-104.5 10t-107.5 4q-170 0 -235.5 -53t-65.5 -168v-178h403v-215h-403v-367h694v-233h-964v600h-121z" />
<glyph unicode="&#xa4;" horiz-adv-x="1380" d="M111 154l163 211q-70 125 -69 362q0 115 16.5 200t46.5 144l-157 209l233 147l143 -190q82 35 213 35q61 0 113.5 -7.5t95.5 -23.5l125 186l234 -145l-140 -199q72 -125 72 -356q0 -123 -18.5 -211t-53.5 -151l152 -211l-229 -154l-144 201q-86 -31 -207 -31 q-131 0 -213 35l-163 -205zM457 721q0 -109 13 -174.5t42 -100t75 -47t113.5 -12.5t115.5 12.5t77 47t42 100t13 174.5q0 113 -13 179.5t-42 100t-77 44t-115.5 10.5t-113.5 -10.5t-75 -44t-42 -100t-13 -179.5z" />
<glyph unicode="&#xa5;" horiz-adv-x="1306" d="M-78 1427h352l194 -255l204 -289l206 285q97 140 171 259h327l-223 -325l-248 -344h246v-189h-350v-159h350v-189h-350v-221h-271v221h-364v189h364v159h-364v189h262l-264 360z" />
<glyph unicode="&#xa6;" horiz-adv-x="759" d="M246 227h268v-751h-268v751zM246 795v751h268v-751h-268z" />
<glyph unicode="&#xa7;" horiz-adv-x="1273" d="M92 553q0 72 23.5 134.5t64.5 115.5q-68 80 -67 215q0 233 157.5 338.5t444.5 105.5q111 0 222.5 -16t190.5 -45l-55 -221q-57 20 -156.5 34.5t-203.5 14.5q-164 0 -238 -41t-74 -139q0 -37 12.5 -65t46.5 -47t92 -32.5t153 -21.5q238 -25 363.5 -115t125.5 -276 q0 -68 -26.5 -130.5t-67.5 -113.5q74 -80 74 -221q0 -233 -159 -338t-444 -105q-111 0 -223 16.5t-192 45.5l55 221q57 -23 156.5 -36t203.5 -13q166 0 239 41t73 137q0 37 -12.5 64.5t-45 48t-91 34t-152.5 21.5q-240 23 -365 113t-125 276zM362 567q0 -39 14.5 -67.5 t52.5 -49t104.5 -35t173.5 -22.5q53 -4 98 -12t80 -21q16 23 26.5 50.5t10.5 66.5t-14.5 68.5t-52.5 50t-104.5 34t-172.5 21.5q-53 4 -98.5 11.5t-80.5 21.5q-16 -23 -26.5 -50.5t-10.5 -66.5z" />
<glyph unicode="&#xa8;" horiz-adv-x="946" d="M123 1282q0 74 25.5 93.5t95 19.5t96.5 -19.5t27 -93.5q0 -82 -27 -104.5t-96.5 -22.5t-95 22.5t-25.5 104.5zM559 1282q0 37 6 59.5t20.5 33.5t38 15.5t58.5 4.5q68 0 94.5 -19.5t26.5 -93.5q0 -82 -26.5 -104.5t-94.5 -22.5q-72 0 -97.5 22.5t-25.5 104.5z" />
<glyph unicode="&#xa9;" horiz-adv-x="1714" d="M123 727q0 217 46 359.5t138 225.5t229.5 116.5t319.5 33.5t319.5 -33.5t229.5 -116.5t139 -225.5t47 -359.5q0 -221 -47 -366.5t-139 -232.5t-229.5 -122t-319.5 -35t-319.5 35t-229.5 122t-138 232.5t-46 366.5zM348 725q0 -178 26.5 -288.5t86 -172t157 -83 t238.5 -21.5t239.5 21.5t158 83t86 172t26.5 288.5t-26.5 285.5t-86 166t-158 78t-239.5 19.5t-238.5 -19.5t-157 -78t-86 -166t-26.5 -285.5zM475 723q0 135 25.5 220t79 134t134.5 67.5t189 18.5q70 0 142.5 -11t123.5 -28l-47 -184q-41 16 -98 24.5t-109 8.5 q-57 0 -97 -8.5t-64.5 -35t-35.5 -76.5t-11 -132q0 -78 11 -128t35.5 -78t64.5 -38t97 -10q53 0 109.5 10t97.5 27l47 -182q-53 -20 -125.5 -33t-140.5 -13q-109 0 -189.5 19.5t-134 70t-79 136.5t-25.5 221z" />
<glyph unicode="&#xaa;" horiz-adv-x="890" d="M123 930q0 78 20.5 126t58.5 73.5t91 33.5t117 8q92 0 180 -20q0 49 -8.5 80t-27.5 48t-55 23.5t-91 6.5q-59 0 -117 -8.5t-105 -24.5l-30 147q55 14 133 26.5t157.5 12.5t140 -13t100.5 -46t60.5 -86t20.5 -135v-441q-35 -12 -77 -23t-87 -18.5t-90 -11.5t-84 -4 q-86 0 -145.5 11.5t-95 39t-51 74.5t-15.5 121zM311 938q0 -66 27 -91.5t106 -25.5q39 0 77 7.5t69 17.5v182q-29 8 -66 11t-78 3q-66 0 -100.5 -17t-34.5 -87z" />
<glyph unicode="&#xab;" horiz-adv-x="1368" d="M55 639l553 571l146 -149l-361 -418l361 -426l-144 -154zM614 639l553 571l146 -149l-361 -418l361 -426l-144 -154z" />
<glyph unicode="&#xac;" horiz-adv-x="1062" d="M59 637v240h936v-877h-268v637h-668z" />
<glyph unicode="&#xad;" horiz-adv-x="622" d="M59 455v241h504v-241h-504z" />
<glyph unicode="&#xae;" horiz-adv-x="1169" d="M96 954q0 150 30 247t90 154.5t152.5 81t215.5 23.5q125 0 217 -23.5t152.5 -81t90 -154.5t29.5 -247q0 -147 -29.5 -244.5t-90 -156.5t-152.5 -84t-217 -25t-217.5 25t-151.5 84t-89 156.5t-30 244.5zM266 954q0 -109 16.5 -177t54.5 -108t98.5 -55.5t148.5 -15.5 q90 0 151.5 15.5t99 55.5t54 108.5t16.5 176.5q0 115 -16.5 185.5t-54 108.5t-99 50.5t-151.5 12.5q-88 0 -148.5 -12.5t-98.5 -50.5t-54.5 -108.5t-16.5 -185.5zM362 684v545h334q78 0 112 -53.5t34 -126.5q0 -94 -37 -129t-103 -35q35 -16 69 -60.5t56 -140.5h-174 q-6 27 -16 55.5t-23.5 50t-27 36t-25.5 14.5h-39v-156h-160zM522 979h111q25 0 34 16.5t9 44.5q0 25 -9.5 41.5t-33.5 16.5h-111v-119z" />
<glyph unicode="&#xaf;" horiz-adv-x="1064" d="M252 1180v184h569v-184h-569z" />
<glyph unicode="&#x2c9;" horiz-adv-x="1064" d="M252 1180v184h569v-184h-569z" />
<glyph unicode="&#xb0;" horiz-adv-x="888" d="M72 1006q0 135 21.5 224t66.5 140t115.5 71.5t169 20.5t169 -20.5t115.5 -71.5t66.5 -140t21.5 -224q0 -137 -21.5 -228.5t-66.5 -145.5t-115.5 -77t-169 -23t-169 23t-115.5 77t-66.5 145.5t-21.5 228.5zM295 1003.5q0 -90.5 7 -145.5t24.5 -88t46 -44t71.5 -11t72 11 t45.5 44t23.5 88t7 145.5t-7 144.5t-23.5 84t-45.5 40t-72 10t-71.5 -10t-46 -40t-24.5 -84t-7 -144.5z" />
<glyph unicode="&#xb1;" horiz-adv-x="1191" d="M98 39v242h996v-242h-996zM98 778v242h375v377h244v-377h377v-242h-377v-377h-244v377h-375z" />
<glyph unicode="&#xb2;" horiz-adv-x="878" d="M74 561q8 102 28.5 175t56.5 124t87 87t121 65q84 33 131 67.5t47 91.5q0 53 -37 74t-133 21q-57 0 -128 -10.5t-110 -24.5l-35 190q53 16 132 27.5t157 11.5q190 0 282.5 -60.5t92.5 -211.5q0 -92 -41 -167t-145 -112q-117 -41 -180.5 -71.5t-71.5 -94.5h440v-182h-694z " />
<glyph unicode="&#xb3;" horiz-adv-x="866" d="M86 571l33 174q43 -12 107.5 -20t119.5 -8q111 0 147.5 22.5t36.5 83.5q0 66 -32.5 86.5t-122.5 20.5h-107v170h103q84 0 112.5 20.5t28.5 75.5q0 51 -31.5 68.5t-136.5 17.5q-133 0 -219 -29l-33 174q59 14 134 23.5t153 9.5q193 0 279.5 -51t86.5 -174 q0 -94 -38.5 -148.5t-157.5 -64.5q125 -6 171 -65.5t46 -163.5q0 -143 -98.5 -199.5t-288.5 -56.5q-70 0 -151 9t-142 25z" />
<glyph unicode="&#xb4;" horiz-adv-x="985" d="M190 1163l248 264h273l-297 -264h-224z" />
<glyph unicode="&#xb5;" horiz-adv-x="1193" d="M123 -393l12 829v606h254v-555q0 -68 7 -122t31 -90.5t68 -56t115 -19.5q96 0 189 26v817h254v-983q-49 -18 -108.5 -34.5t-124 -27.5t-132 -18.5t-129.5 -7.5q-59 0 -107.5 7.5t-86.5 25.5l6 -397h-248z" />
<glyph unicode="&#x3bc;" horiz-adv-x="1193" d="M123 -393l12 829v606h254v-555q0 -68 7 -122t31 -90.5t68 -56t115 -19.5q96 0 189 26v817h254v-983q-49 -18 -108.5 -34.5t-124 -27.5t-132 -18.5t-129.5 -7.5q-59 0 -107.5 7.5t-86.5 25.5l6 -397h-248z" />
<glyph unicode="&#xb6;" horiz-adv-x="1378" d="M57 938q0 104 19.5 193.5t65.5 156t122 103t189 36.5h743v-1427h-238v471h-176v-471h-239v471h-94q-104 0 -178 38t-121.5 102.5t-70 149.5t-22.5 177z" />
<glyph unicode="&#xb7;" horiz-adv-x="608" d="M131 621q0 49 8 79.5t28.5 48t53.5 22.5t80 5q51 0 85 -5t54.5 -22.5t28.5 -48t8 -79.5q0 -55 -8 -89t-28.5 -52.5t-54.5 -24.5t-85 -6q-47 0 -80 6t-53.5 24.5t-28.5 52.5t-8 89z" />
<glyph unicode="&#x2219;" horiz-adv-x="608" d="M131 621q0 49 8 79.5t28.5 48t53.5 22.5t80 5q51 0 85 -5t54.5 -22.5t28.5 -48t8 -79.5q0 -55 -8 -89t-28.5 -52.5t-54.5 -24.5t-85 -6q-47 0 -80 6t-53.5 24.5t-28.5 52.5t-8 89z" />
<glyph unicode="&#xb8;" horiz-adv-x="1312" d="M520 -383l45 111q25 -12 64 -18.5t82 -6.5q47 0 65.5 11.5t18.5 41.5q0 39 -41 49q-26 6 -79 7q-32 0 -73 -2l74 190h100v-86q121 0 173 -34t52 -126q0 -96 -63.5 -133t-216.5 -37q-72 0 -117 8.5t-84 24.5z" />
<glyph unicode="&#xb9;" horiz-adv-x="772" d="M76 1292l463 193v-916h-213v627l-195 -84z" />
<glyph unicode="&#xba;" horiz-adv-x="942" d="M113 1065q0 113 23.5 189.5t68.5 122.5t111.5 65.5t152.5 19.5q88 0 155.5 -19.5t112.5 -65.5t68.5 -122.5t23.5 -189.5t-23.5 -189.5t-68.5 -123.5t-112.5 -67.5t-155.5 -20.5q-86 0 -152.5 20.5t-111.5 67.5t-68.5 123.5t-23.5 189.5zM311 1063q0 -74 7.5 -120 t25.5 -71.5t49 -36t76 -10.5t77 10.5t50 36t26.5 71.5t8.5 120q0 76 -8.5 123t-26.5 72.5t-50 33.5t-77 8t-76 -8t-49 -33.5t-25.5 -72.5t-7.5 -123z" />
<glyph unicode="&#xbb;" horiz-adv-x="1368" d="M55 215l363 418l-363 428l144 151l557 -573l-553 -573zM614 215l363 418l-363 428l144 151l557 -573l-553 -573z" />
<glyph unicode="&#xbc;" horiz-adv-x="1761" d="M45 1292l465 193v-916h-215v627l-193 -84zM223 0l881 1427h250l-881 -1427h-250zM877 201v88l93 152l102 157l104 152q51 74 98 135h280v-498h117v-186h-117v-201h-211v201h-466zM1118 387h225v330q-66 -84 -124 -168t-101 -162z" />
<glyph unicode="&#xbd;" horiz-adv-x="1761" d="M37 1292l465 193v-916h-215v627l-193 -84zM215 0l881 1427h250l-881 -1427h-250zM1008 0q8 102 28.5 175t56 124t87 87t120.5 65q84 33 131.5 67.5t47.5 91.5q0 53 -37 74t-133 21q-57 0 -128 -10.5t-110 -24.5l-35 190q53 16 132 27.5t157 11.5q190 0 282.5 -60.5 t92.5 -211.5q0 -92 -41 -167t-146 -112q-117 -41 -180 -71.5t-71 -94.5h440v-182h-694z" />
<glyph unicode="&#xbe;" horiz-adv-x="1761" d="M49 571l33 174q43 -12 107.5 -20t119.5 -8q111 0 148 22.5t37 83.5q0 66 -33 86.5t-123 20.5h-107v170h103q84 0 112.5 20.5t28.5 75.5q0 51 -31.5 68.5t-136.5 17.5q-133 0 -219 -29l-33 174q59 14 134 23.5t153 9.5q193 0 280 -51t87 -174q0 -94 -39 -148.5t-158 -64.5 q125 -6 171 -65.5t46 -163.5q0 -143 -98.5 -199.5t-288.5 -56.5q-70 0 -151 9t-142 25zM352 0l883 1427h250l-883 -1427h-250zM905 201v88l93 152l103 157l104 152l100 135h278v-498h119v-186h-119v-201h-211v201h-467zM1147 387h225v330q-65 -84 -122.5 -168t-102.5 -162z " />
<glyph unicode="&#xbf;" horiz-adv-x="1009" d="M55 16q0 86 23.5 164t69 152t107.5 146.5t142 146.5h267q-76 -82 -133.5 -155t-95.5 -143.5t-56.5 -144t-18.5 -155.5q0 -43 11.5 -76t40 -55.5t77 -35t119.5 -12.5q90 0 166 11.5t127 31.5l55 -237q-35 -10 -81 -19.5t-97 -16.5t-101 -11t-91 -4q-143 0 -244.5 25.5 t-165 77.5t-92.5 130t-29 180zM367 915q0 51 8 82t26.5 47.5t50 22.5t78.5 6q45 0 75 -6t48.5 -22.5t26.5 -47t8 -82.5q0 -47 -8 -74.5t-26.5 -43t-48.5 -20.5t-75 -5q-47 0 -78.5 5t-50 20.5t-26.5 43t-8 74.5z" />
<glyph unicode="&#xc0;" horiz-adv-x="1396" d="M-18 0q49 160 111 343l131 371l138 370l136 343h424l119 -363l133 -380l135 -365l127 -319h-299l-67 168q-36 90 -71 188h-624l-59 -185l-52 -171h-282zM336 1794h280l277 -264h-234zM446 588h476l-107 315q-51 156 -92 295h-55l-110 -294z" />
<glyph unicode="&#xc1;" horiz-adv-x="1396" d="M-18 0q49 160 111 343l131 371l138 370l136 343h424l119 -363l133 -380l135 -365l127 -319h-299l-67 168q-36 90 -71 188h-624l-59 -185l-52 -171h-282zM446 588h476l-107 315q-51 156 -92 295h-55l-110 -294zM508 1530l264 264h281l-324 -264h-221z" />
<glyph unicode="&#xc2;" horiz-adv-x="1396" d="M-18 0q49 160 111 343l131 371l138 370l136 343h424l119 -363l133 -380l135 -365l127 -319h-299l-67 168q-36 90 -71 188h-624l-59 -185l-52 -171h-282zM324 1530l249 264h250l258 -264h-237l-148 160l-143 -160h-229zM446 588h476l-107 315q-51 156 -92 295h-55 l-110 -294z" />
<glyph unicode="&#xc3;" horiz-adv-x="1396" d="M-18 0q49 160 111 343l131 371l138 370l136 343h424l119 -363l133 -380l135 -365l127 -319h-299l-67 168q-36 90 -71 188h-624l-59 -185l-52 -171h-282zM313 1628q41 72 92.5 117t126.5 45q51 0 92.5 -16.5t76 -37t67.5 -37t67.5 -16.5t60.5 25t50 92l125 -102 q-29 -80 -91 -135.5t-155 -55.5q-45 0 -82.5 17.5t-72.5 38t-68 38t-70 17.5q-31 0 -56 -21.5t-48 -80.5zM446 588h476l-107 315q-51 156 -92 295h-55l-110 -294z" />
<glyph unicode="&#xc4;" horiz-adv-x="1396" d="M-18 0q49 160 111 343l131 371l138 370l136 343h424l119 -363l133 -380l135 -365l127 -319h-299l-67 168q-36 90 -71 188h-624l-59 -185l-52 -171h-282zM354 1655q0 74 27 94t96.5 20t95 -20t25.5 -94q0 -80 -25.5 -102.5t-95 -22.5t-96.5 22.5t-27 102.5zM446 588h476 l-107 315q-51 156 -92 295h-55l-110 -294zM791 1655q0 74 25.5 94t96.5 20q70 0 95.5 -20t25.5 -94q0 -80 -25.5 -102.5t-95.5 -22.5q-35 0 -58.5 4t-37.5 18.5t-20 38t-6 64.5z" />
<glyph unicode="&#xc5;" horiz-adv-x="1396" d="M-18 0q49 160 111 343l131 371l138 370l136 343h424l119 -363l133 -380l135 -365l127 -319h-299l-67 168q-36 90 -71 188h-624l-59 -185l-52 -171h-282zM446 588h476l-107 315q-51 156 -92 295h-55l-110 -294zM461 1622q0 111 57 156t189 45q123 0 183 -45t60 -156 t-60.5 -156t-183 -45t-184 45t-61.5 156zM604 1620q0 -45 19.5 -66.5t83 -21.5t83 21.5t19.5 66.5q0 47 -19.5 67.5t-83 20.5t-83 -21.5t-19.5 -66.5z" />
<glyph unicode="&#xc6;" horiz-adv-x="1984" d="M-295 0l228 343l256 371l265 370l253 343h1222v-233h-766v-330h455v-229h-455v-402h766v-233h-1034v356h-637l-229 -356h-324zM410 588h485v610h-57l-209 -294z" />
<glyph unicode="&#xc7;" horiz-adv-x="1212" d="M109 727q0 219 40.5 361.5t123.5 225.5t209 115.5t296 32.5q49 0 103.5 -4t108.5 -11t105.5 -16.5t92.5 -21.5l-60 -238q-29 10 -65.5 18.5t-77.5 14.5t-82 9.5t-78 3.5q-117 0 -198.5 -15.5t-132 -67t-74 -148.5t-23.5 -261t23.5 -264.5t74 -153.5t132.5 -70.5 t198 -17.5q37 0 78 3t82 9.5t78 14.5t65 18l60 -241q-41 -12 -92.5 -21.5t-105.5 -15.5t-108.5 -10.5t-103.5 -4.5q-170 0 -296 36t-209 124t-123.5 232.5t-40.5 363.5zM535 -383l45 111q25 -12 63.5 -18.5t81.5 -6.5q47 0 65.5 11.5t18.5 41.5q0 39 -41 49q-26 6 -78 7 q-32 0 -74 -2l74 190h101v-86q121 0 173 -34t52 -126q0 -96 -63.5 -133t-217.5 -37q-72 0 -116.5 8.5t-83.5 24.5z" />
<glyph unicode="&#xc8;" horiz-adv-x="1269" d="M180 0v1427h1037v-233h-766v-330h546v-231h-546v-400h766v-233h-1037zM412 1794h280l277 -264h-234z" />
<glyph unicode="&#xc9;" horiz-adv-x="1269" d="M180 0v1427h1037v-233h-766v-330h546v-231h-546v-400h766v-233h-1037zM516 1530l264 264h281l-324 -264h-221z" />
<glyph unicode="&#xca;" horiz-adv-x="1269" d="M180 0v1427h1037v-233h-766v-330h546v-231h-546v-400h766v-233h-1037zM338 1530l250 264h250l258 -264h-238l-147 160l-144 -160h-229z" />
<glyph unicode="&#xcb;" horiz-adv-x="1269" d="M180 0v1427h1037v-233h-766v-330h546v-231h-546v-400h766v-233h-1037zM371 1655q0 74 26.5 94t96 20t95 -20t25.5 -94q0 -80 -25.5 -102.5t-95 -22.5t-96 22.5t-26.5 102.5zM807 1655q0 74 25.5 94t97.5 20q70 0 95.5 -20t25.5 -94q0 -80 -26 -102.5t-95 -22.5 q-35 0 -58.5 4t-38 18.5t-20.5 38t-6 64.5z" />
<glyph unicode="&#xcc;" horiz-adv-x="630" d="M-61 1794h280l277 -264h-234zM180 0v1427h271v-1427h-271z" />
<glyph unicode="&#xcd;" horiz-adv-x="630" d="M143 1530l265 264h280l-323 -264h-222zM180 0v1427h271v-1427h-271z" />
<glyph unicode="&#xce;" horiz-adv-x="630" d="M-61 1530l249 264h250l258 -264h-237l-148 160l-143 -160h-229zM180 0v1427h271v-1427h-271z" />
<glyph unicode="&#xcf;" horiz-adv-x="630" d="M-23 1655q0 74 27 94t96.5 20t95 -20t25.5 -94q0 -80 -25.5 -102.5t-95 -22.5t-96.5 22.5t-27 102.5zM180 0v1427h271v-1427h-271zM414 1655q0 74 25.5 94t97.5 20q70 0 95 -20t25 -94q0 -80 -25.5 -102.5t-94.5 -22.5q-35 0 -58.5 4t-38 18.5t-20.5 38t-6 64.5z" />
<glyph unicode="&#xd0;" horiz-adv-x="1507" d="M74 637v188h106v602h545q170 0 296 -32.5t210 -113.5t126 -217t42 -345q0 -207 -42 -345t-126 -221t-210 -118t-296 -35h-545v637h-106zM451 233h247q119 0 198 18.5t126 72t67.5 147.5t20.5 246q0 158 -20.5 252t-67.5 143t-126 64.5t-198 15.5h-247v-367h325v-188h-325 v-404z" />
<glyph unicode="&#xd1;" horiz-adv-x="1585" d="M180 0v1427h355l307 -506l293 -524v1030h268v-1427h-330l-303 538l-326 537v-1075h-264zM422 1628q41 72 92 117t127 45q51 0 92 -16.5t76 -37t67.5 -37t67.5 -16.5t60.5 25t50.5 92l125 -102q-29 -80 -91.5 -135.5t-154.5 -55.5q-45 0 -83 17.5t-73 38l-67.5 38 t-69.5 17.5q-31 0 -56.5 -21.5t-47.5 -80.5z" />
<glyph unicode="&#xd2;" horiz-adv-x="1576" d="M109 727q0 217 43 359.5t128 225.5t211.5 116.5t296.5 33.5t297 -33.5t212 -116.5t127 -225.5t42 -359.5q0 -221 -42 -366.5t-127 -232.5t-212 -122t-296.5 -35t-297.5 35t-213 122t-127 232.5t-42 366.5zM397 723q0 -162 17.5 -261.5t61.5 -154.5t120 -73.5t192.5 -18.5 t192.5 18.5t120 73.5t61.5 154.5t17.5 261.5t-17.5 260t-61.5 150.5t-120 69t-192.5 16.5t-192.5 -16.5t-120 -69t-61.5 -150.5t-17.5 -260zM434 1794h281l276 -264h-233z" />
<glyph unicode="&#xd3;" horiz-adv-x="1576" d="M109 727q0 217 43 359.5t128 225.5t211.5 116.5t296.5 33.5t297 -33.5t212 -116.5t127 -225.5t42 -359.5q0 -221 -42 -366.5t-127 -232.5t-212 -122t-296.5 -35t-297.5 35t-213 122t-127 232.5t-42 366.5zM397 723q0 -162 17.5 -261.5t61.5 -154.5t120 -73.5t192.5 -18.5 t192.5 18.5t120 73.5t61.5 154.5t17.5 261.5t-17.5 260t-61.5 150.5t-120 69t-192.5 16.5t-192.5 -16.5t-120 -69t-61.5 -150.5t-17.5 -260zM516 1530l264 264h281l-324 -264h-221z" />
<glyph unicode="&#xd4;" horiz-adv-x="1576" d="M109 727q0 217 43 359.5t128 225.5t211.5 116.5t296.5 33.5t297 -33.5t212 -116.5t127 -225.5t42 -359.5q0 -221 -42 -366.5t-127 -232.5t-212 -122t-296.5 -35t-297.5 35t-213 122t-127 232.5t-42 366.5zM397 723q0 -162 17.5 -261.5t61.5 -154.5t120 -73.5t192.5 -18.5 t192.5 18.5t120 73.5t61.5 154.5t17.5 261.5t-17.5 260t-61.5 150.5t-120 69t-192.5 16.5t-192.5 -16.5t-120 -69t-61.5 -150.5t-17.5 -260zM408 1530l249 264h250l258 -264h-237l-148 160l-143 -160h-229z" />
<glyph unicode="&#xd5;" horiz-adv-x="1576" d="M109 727q0 217 43 359.5t128 225.5t211.5 116.5t296.5 33.5t297 -33.5t212 -116.5t127 -225.5t42 -359.5q0 -221 -42 -366.5t-127 -232.5t-212 -122t-297 -35t-298 35t-212.5 122t-126.5 232.5t-42 366.5zM397 723q0 -162 17.5 -261.5t61.5 -154.5t120 -73.5t192.5 -18.5 t192.5 18.5t120 73.5t61.5 154.5t17.5 261.5t-17.5 260t-61.5 150.5t-120 69t-192.5 16.5t-192.5 -16.5t-120 -69t-61.5 -150.5t-17.5 -260zM406 1628q41 72 92 117t127 45q51 0 92 -16.5t75.5 -37t67.5 -37t68 -16.5t60.5 25t49.5 92l125 -102q-29 -80 -91 -135.5 t-154 -55.5q-45 0 -83 17.5t-73 38l-67.5 38t-69.5 17.5q-31 0 -56.5 -21.5t-48.5 -80.5z" />
<glyph unicode="&#xd6;" horiz-adv-x="1576" d="M109 727q0 217 43 359.5t128 225.5t212 116.5t296.5 33.5t296.5 -33.5t212 -116.5t127 -225.5t42 -359.5q0 -221 -42 -366.5t-127 -232.5t-212 -122t-296.5 -35t-297.5 35t-213 122t-127 232.5t-42 366.5zM397 723q0 -162 17.5 -261.5t61.5 -154.5t120 -73.5t192.5 -18.5 t192.5 18.5t120 73.5t61.5 154.5t17.5 261.5t-17.5 260t-61.5 150.5t-120 69t-192.5 16.5t-192.5 -16.5t-120 -69t-61.5 -150.5t-17.5 -260zM444 1655q0 74 27 94t96.5 20t95 -20t25.5 -94q0 -80 -25.5 -102.5t-95 -22.5t-96.5 22.5t-27 102.5zM881 1655q0 74 25.5 94 t97.5 20q70 0 95 -20t25 -94q0 -80 -25.5 -102.5t-94.5 -22.5q-35 0 -58.5 4t-38 18.5t-20.5 38t-6 64.5z" />
<glyph unicode="&#xd7;" horiz-adv-x="1191" d="M156 1008l172 172l266 -267l266 269l172 -174l-266 -267l266 -266l-172 -170l-266 266l-264 -266l-172 172l264 266z" />
<glyph unicode="&#xd8;" horiz-adv-x="1576" d="M35 0l180 207q-53 88 -79.5 215t-26.5 305q0 217 43 359.5t128 225.5t211.5 116.5t296.5 33.5q135 0 243 -21.5t188 -74.5l51 61h276l-180 -206q51 -86 75.5 -207t24.5 -287q0 -221 -42 -366.5t-127 -232.5t-212 -122t-297 -35q-135 0 -240.5 21.5t-182.5 70.5l-56 -63 h-274zM397 791q0 -39 2 -85.5t5.5 -92.5t8.5 -90t13 -77l616 719q-43 31 -105.5 42.5t-148.5 11.5q-111 0 -185.5 -15.5t-120.5 -61.5t-65.5 -130t-19.5 -221zM543 268q41 -31 101.5 -42t143.5 -11q111 0 186 17.5t121 65.5t66.5 134t20.5 223q0 37 -2 80t-5.5 86t-8.5 83 t-13 73z" />
<glyph unicode="&#xd9;" horiz-adv-x="1519" d="M160 432v995h272v-954q0 -72 17.5 -120t55.5 -77.5t100.5 -43t154.5 -13.5q86 0 148.5 11.5t102.5 40t59.5 77.5t19.5 125v954h268l2 -995q0 -141 -41 -230t-119 -140.5t-189.5 -71t-250.5 -19.5t-251 19.5t-189.5 71t-118.5 140.5t-41 230zM438 1794h281l276 -264h-233z " />
<glyph unicode="&#xda;" horiz-adv-x="1519" d="M160 432v995h272v-954q0 -72 17.5 -120t55.5 -77.5t100.5 -43t154.5 -13.5q86 0 148.5 11.5t102.5 40t59.5 77.5t19.5 125v954h268l2 -995q0 -141 -41 -230t-119 -140.5t-189.5 -71t-250.5 -19.5t-251 19.5t-189.5 71t-118.5 140.5t-41 230zM541 1530l264 264h280 l-323 -264h-221z" />
<glyph unicode="&#xdb;" horiz-adv-x="1519" d="M160 432v995h272v-954q0 -72 17.5 -120t55.5 -77.5t100.5 -43t154.5 -13.5q86 0 148.5 11.5t102.5 40t59.5 77.5t19.5 125v954h268l2 -995q0 -141 -41 -230t-119 -140.5t-189.5 -71t-250.5 -19.5t-251 19.5t-189.5 71t-118.5 140.5t-41 230zM377 1530l250 264h250 l258 -264h-238l-147 160l-144 -160h-229z" />
<glyph unicode="&#xdc;" horiz-adv-x="1519" d="M160 432v995h272v-954q0 -72 17.5 -120t55.5 -77.5t100.5 -43t154.5 -13.5q86 0 148.5 11.5t102.5 40t59.5 77.5t19.5 125v954h268l2 -995q0 -141 -41 -230t-119 -140.5t-189.5 -71t-250.5 -19.5t-251 19.5t-189.5 71t-118.5 140.5t-41 230zM414 1655q0 74 26.5 94t96 20 t95 -20t25.5 -94q0 -80 -25.5 -102.5t-95 -22.5t-96 22.5t-26.5 102.5zM850 1655q0 74 25.5 94t97.5 20q70 0 95.5 -20t25.5 -94q0 -80 -26 -102.5t-95 -22.5q-35 0 -58.5 4t-38 18.5t-20.5 38t-6 64.5z" />
<glyph unicode="&#xdd;" horiz-adv-x="1306" d="M-78 1427h352l194 -255l204 -289l206 285q97 140 171 259h327l-272 -396l-303 -415v-616h-271v614l-157 221l-159 217l-154 201zM463 1530l264 264h281l-324 -264h-221z" />
<glyph unicode="&#xde;" horiz-adv-x="1378" d="M180 0v1427h271v-210h473q113 0 189.5 -37t122.5 -103.5t65.5 -156t19.5 -193.5q0 -92 -22.5 -177t-70.5 -149.5t-122 -102.5t-176 -38h-479v-260h-271zM451 485h397q86 0 131 60.5t45 183.5q0 256 -170 256h-403v-500z" />
<glyph unicode="&#xdf;" horiz-adv-x="1339" d="M141 0v1079q0 104 38 178t106.5 119t165 65.5t213.5 20.5q281 0 409.5 -85t128.5 -279q0 -72 -11 -130.5t-44 -103.5t-92.5 -72.5t-153.5 -35.5q100 -4 166 -33t102.5 -77t51 -114.5t14.5 -146.5q0 -117 -33 -195.5t-102.5 -127t-178 -70t-259.5 -21.5q-31 0 -69 1t-73 5 l29 222q25 -4 59.5 -6.5t63.5 -2.5q84 0 138 12.5t86 39t44 68.5t12 102q0 131 -59 181t-201 50h-78v211h72q141 0 192.5 50t51.5 151q0 102 -58.5 141t-207.5 39q-135 0 -201 -50t-66 -141v-1044h-256z" />
<glyph unicode="&#xe0;" horiz-adv-x="1146" d="M100 319q0 111 30 178.5t84 103.5t129 48.5t167 12.5q66 0 129 -7.5t129 -21.5q0 68 -10 111.5t-39 69.5t-79 36t-132 10q-86 0 -168 -14.5t-147 -36.5l-48 209q82 23 193 39t223 16q117 0 202 -19.5t140 -66.5t82 -125t27 -194v-615q-49 -18 -108.5 -33.5t-122 -26.5 t-124 -16.5t-116.5 -5.5q-123 0 -208 16.5t-136.5 56.5t-74 106.5t-22.5 168.5zM236 1427h270l250 -264h-226zM367 330q0 -53 8 -85t29.5 -49.5t59.5 -23.5t95 -6q55 0 109.5 9t99.5 26v260q-43 10 -96.5 14t-110.5 4q-53 0 -91 -5t-60.5 -20.5t-32.5 -45t-10 -78.5z" />
<glyph unicode="&#xe1;" horiz-adv-x="1146" d="M100 319q0 111 30 178.5t84 103.5t129 48.5t167 12.5q66 0 129 -7.5t129 -21.5q0 68 -10 111.5t-39 69.5t-79 36t-132 10q-86 0 -168 -14.5t-147 -36.5l-48 209q82 23 193 39t223 16q117 0 202 -19.5t140 -66.5t82 -125t27 -194v-615q-49 -18 -108.5 -33.5t-122 -26.5 t-124 -16.5t-116.5 -5.5q-123 0 -208 16.5t-136.5 56.5t-74 106.5t-22.5 168.5zM367 330q0 -53 8 -85t29.5 -49.5t59.5 -23.5t95 -6q55 0 109.5 9t99.5 26v260q-43 10 -96.5 14t-110.5 4q-53 0 -91 -5t-60.5 -20.5t-32.5 -45t-10 -78.5zM387 1163l248 264h272l-297 -264 h-223z" />
<glyph unicode="&#xe2;" horiz-adv-x="1146" d="M100 319q0 111 30 178.5t84 103.5t129 48.5t167 12.5q66 0 129 -7.5t129 -21.5q0 68 -10 111.5t-39 69.5t-79 36t-132 10q-86 0 -168 -14.5t-147 -36.5l-48 209q82 23 193 39t223 16q117 0 202 -19.5t140 -66.5t82 -125t27 -194v-615q-49 -18 -108.5 -33.5t-122 -26.5 t-124 -16.5t-116.5 -5.5q-123 0 -208 16.5t-136.5 56.5t-74 106.5t-22.5 168.5zM199 1163l250 264h249l258 -264h-239l-146 156l-141 -156h-231zM367 330q0 -53 8 -85t29.5 -49.5t59.5 -23.5t95 -6q55 0 109.5 9t99.5 26v260q-43 10 -96.5 14t-110.5 4q-53 0 -91 -5 t-60.5 -20.5t-32.5 -45t-10 -78.5z" />
<glyph unicode="&#xe3;" horiz-adv-x="1146" d="M100 319q0 111 30 178.5t84 103.5t129 48.5t167 12.5q66 0 129 -7.5t129 -21.5q0 68 -10 111.5t-39 69.5t-79 36t-132 10q-86 0 -168 -14.5t-148 -36.5l-47 209q82 23 192.5 39t223.5 16q117 0 202 -19.5t140 -66.5t82 -125t27 -194v-615q-49 -18 -108.5 -33.5 t-122 -26.5t-124 -16.5t-116.5 -5.5q-123 0 -208 16.5t-136.5 56.5t-74 106.5t-22.5 168.5zM184 1262q43 76 94.5 120.5t129.5 44.5q51 0 90 -17t71 -37l63 -37q30 -17 66.5 -17t60 24.5t48.5 94.5l127 -103q-29 -84 -88.5 -137t-151.5 -53q-47 0 -83 17.5t-69 36.5l-67 37 q-33 17 -69 17q-31 0 -56.5 -22.5t-50.5 -81.5zM367 330q0 -53 8 -85t29.5 -49.5t59.5 -23.5t95 -6q55 0 109.5 9t99.5 26v260q-43 10 -96.5 14t-110.5 4q-53 0 -91 -5t-60.5 -20.5t-32.5 -45t-10 -78.5z" />
<glyph unicode="&#xe4;" horiz-adv-x="1146" d="M100 319q0 111 30 178.5t84 103.5t129 48.5t167 12.5q66 0 129 -7.5t129 -21.5q0 68 -10 111.5t-39 69.5t-79 36t-132 10q-86 0 -168 -14.5t-148 -36.5l-47 209q82 23 192.5 39t223.5 16q117 0 202 -19.5t140 -66.5t82 -125t27 -194v-615q-49 -18 -108.5 -33.5 t-122 -26.5t-124 -16.5t-116.5 -5.5q-123 0 -208 16.5t-136.5 56.5t-74 106.5t-22.5 168.5zM219 1282q0 74 25.5 93.5t95.5 19.5t96.5 -19.5t26.5 -93.5q0 -82 -26.5 -104.5t-96.5 -22.5t-95.5 22.5t-25.5 104.5zM367 330q0 -53 8 -85t29.5 -49.5t59.5 -23.5t95 -6 q55 0 109.5 9t99.5 26v260q-43 10 -96.5 14t-110.5 4q-53 0 -91 -5t-60.5 -20.5t-32.5 -45t-10 -78.5zM655 1282q0 37 6.5 59.5t20.5 33.5t37.5 15.5t58.5 4.5q68 0 94.5 -19.5t26.5 -93.5q0 -82 -26.5 -104.5t-94.5 -22.5q-72 0 -97.5 22.5t-25.5 104.5z" />
<glyph unicode="&#xe5;" horiz-adv-x="1146" d="M100 319q0 111 30 178.5t84 103.5t129 48.5t167 12.5q66 0 129 -7.5t129 -21.5q0 68 -10 111.5t-39 69.5t-79 36t-132 10q-86 0 -168 -14.5t-147 -36.5l-48 209q82 23 193 39t223 16q117 0 202 -19.5t140 -66.5t82 -125t27 -194v-615q-49 -18 -108.5 -33.5t-122 -26.5 t-124 -16.5t-116.5 -5.5q-123 0 -208 16.5t-136.5 56.5t-74 106.5t-22.5 168.5zM330 1317q0 111 57 156t188 45q123 0 183.5 -45.5t60.5 -155.5q0 -113 -60.5 -157t-183 -44t-184 44t-61.5 157zM367 330q0 -53 8 -85t29.5 -49.5t59.5 -23.5t95 -6q55 0 109.5 9t99.5 26v260 q-43 10 -96.5 14t-110.5 4q-53 0 -91 -5t-60.5 -20.5t-32.5 -45t-10 -78.5zM473 1313q0 -45 19.5 -66.5t83 -21.5t83 22.5t19.5 65.5q0 47 -19.5 67.5t-83 20.5t-83 -20.5t-19.5 -67.5z" />
<glyph unicode="&#xe6;" horiz-adv-x="1777" d="M100 319q0 111 30 178.5t84 103.5t130 48.5t166 12.5q66 0 129 -7.5t129 -21.5q0 68 -9 111.5t-38 68.5t-80 34t-133 9q-86 0 -168 -12.5t-147 -34.5l-48 209q82 23 193 39t223 16q133 0 216 -27.5t130 -97.5q49 68 130 96.5t200 28.5q123 0 212 -25.5t145.5 -94 t79.5 -188.5q19 -95 19 -235q0 -36 -1 -75h-674q0 -84 17.5 -136.5t50 -82t84 -40t118.5 -10.5q27 0 65 3.5t79 9.5t79.5 13t69.5 17l41 -200q-39 -12 -86 -23.5t-95 -18.5t-96.5 -11.5t-87.5 -4.5q-197 0 -303 74q-39 -18 -90 -32.5t-106.5 -23.5t-111.5 -13.5t-105 -4.5 q-123 0 -208 16.5t-136.5 56.5t-74 106.5t-22.5 168.5zM369 330q0 -49 7 -81t27.5 -50.5t58.5 -25.5t99 -7q27 0 61.5 4t68.5 10t63.5 15.5t50.5 19.5q-27 63 -34 121.5t-7 124.5q-84 18 -201 18q-53 0 -91 -5t-60.5 -20.5t-32.5 -45t-10 -78.5zM1020 649h438q-4 70 -15 113 t-36 67.5t-62.5 33.5t-93.5 9q-57 0 -98 -10t-68.5 -34.5t-43 -67.5t-21.5 -111z" />
<glyph unicode="&#xe7;" horiz-adv-x="962" d="M104 526.5q0 159.5 36 265t103.5 168t163 88t214.5 25.5q37 0 80.5 -4t86.5 -10t82 -15.5t68 -19.5l-57 -217q-49 18 -114 31.5t-128 13.5q-70 0 -121 -11.5t-85 -46t-50 -99t-16 -173.5q0 -104 16 -168.5t50 -100.5t85 -48t121 -12q66 0 129 14t113 35l57 -217 q-31 -12 -71 -22.5t-82 -16.5t-85 -10.5t-79 -4.5q-119 0 -214.5 27t-163 90.5t-103.5 171t-36 267zM377 -383l45 111q25 -12 63.5 -18.5t81.5 -6.5q47 0 65.5 11.5t18.5 41.5q0 39 -41 49q-26 6 -78 7q-32 0 -73 -2l73 190h101v-86q121 0 173 -34t52 -126q0 -96 -63.5 -133 t-216.5 -37q-72 0 -117 8.5t-84 24.5z" />
<glyph unicode="&#xe8;" horiz-adv-x="1130" d="M104 526q0 156 33 261.5t96.5 169t152.5 90t204 26.5q123 0 212 -25.5t145.5 -94t79.5 -188.5q19 -95 19 -235q0 -36 -2 -75h-673q0 -84 17.5 -136.5t50 -82t83.5 -40t119 -10.5q27 0 64.5 3.5t78.5 9.5t80 13t70 17l41 -200q-39 -12 -86 -23.5t-95.5 -18.5t-96.5 -11.5 t-87 -4.5q-113 0 -206 27t-159.5 90.5t-103.5 170.5t-37 267zM279 1427h270l250 -264h-226zM373 649h438q-4 70 -15.5 113t-36 67.5t-62.5 33.5t-93 9q-59 0 -101 -10t-68.5 -36.5t-41 -70t-20.5 -106.5z" />
<glyph unicode="&#xe9;" horiz-adv-x="1130" d="M104 526q0 156 33 261.5t96.5 169t152.5 90t204 26.5q123 0 212 -25.5t145.5 -94t79.5 -188.5q19 -95 19 -235q0 -36 -2 -75h-673q0 -84 17.5 -136.5t50 -82t83.5 -40t119 -10.5q27 0 64.5 3.5t78.5 9.5t80 13t70 17l41 -200q-39 -12 -86 -23.5t-95.5 -18.5t-96.5 -11.5 t-87 -4.5q-113 0 -206 27t-159.5 90.5t-103.5 170.5t-37 267zM373 649h438q-4 70 -15.5 113t-36 67.5t-62.5 33.5t-93 9q-59 0 -101 -10t-68.5 -36.5t-41 -70t-20.5 -106.5zM412 1163l247 264h273l-297 -264h-223z" />
<glyph unicode="&#xea;" horiz-adv-x="1130" d="M104 526q0 156 33 261.5t96.5 169t152.5 90t204 26.5q123 0 212 -25.5t145.5 -94t79.5 -188.5q19 -95 19 -235q0 -36 -2 -75h-673q0 -84 17.5 -136.5t50 -82t83.5 -40t119 -10.5q27 0 64.5 3.5t78.5 9.5t80 13t70 17l41 -200q-39 -12 -86 -23.5t-95.5 -18.5t-96.5 -11.5 t-87 -4.5q-113 0 -206 27t-159.5 90.5t-103.5 170.5t-37 267zM227 1163l250 264h250l258 -264h-240l-145 156l-141 -156h-232zM373 649h438q-4 70 -15.5 113t-36 67.5t-62.5 33.5t-93 9q-59 0 -101 -10t-68.5 -36.5t-41 -70t-20.5 -106.5z" />
<glyph unicode="&#xeb;" horiz-adv-x="1130" d="M104 526q0 156 33 261.5t96.5 169t152.5 90t204 26.5q123 0 212 -25.5t145.5 -94t79.5 -188.5q19 -95 19 -235q0 -36 -2 -75h-673q0 -84 17.5 -136.5t50 -82t83.5 -40t119 -10.5q27 0 64.5 3.5t78.5 9.5t80 13t70 17l41 -200q-39 -12 -86 -23.5t-95.5 -18.5t-96.5 -11.5 t-87 -4.5q-113 0 -206 27t-159.5 90.5t-103.5 170.5t-37 267zM260 1282q0 74 25.5 93.5t95.5 19.5t96.5 -19.5t26.5 -93.5q0 -82 -26.5 -104.5t-96.5 -22.5t-95.5 22.5t-25.5 104.5zM373 649h438q-4 70 -15.5 113t-36 67.5t-62.5 33.5t-93 9q-59 0 -101 -10t-68.5 -36.5 t-41 -70t-20.5 -106.5zM696 1282q0 37 6.5 59.5t20.5 33.5t37.5 15.5t58.5 4.5q68 0 94.5 -19.5t26.5 -93.5q0 -82 -26.5 -104.5t-94.5 -22.5q-72 0 -97.5 22.5t-25.5 104.5z" />
<glyph unicode="&#xec;" horiz-adv-x="536" d="M-82 1427h270l250 -264h-225zM141 0v1042h254v-1042h-254z" />
<glyph unicode="&#xed;" horiz-adv-x="536" d="M90 1163l248 264h272l-297 -264h-223zM141 0v1042h254v-1042h-254z" />
<glyph unicode="&#xee;" horiz-adv-x="536" d="M-109 1163l250 264h250l258 -264h-239l-146 156l-141 -156h-232zM141 0v1042h254v-1042h-254z" />
<glyph unicode="&#xef;" horiz-adv-x="536" d="M-70 1282q0 74 26 93.5t95.5 19.5t96 -19.5t26.5 -93.5q0 -82 -26.5 -104.5t-96 -22.5t-95.5 22.5t-26 104.5zM141 0v1042h254v-1042h-254zM367 1282q0 37 6 59.5t20.5 33.5t38 15.5t57.5 4.5q68 0 94.5 -19.5t26.5 -93.5q0 -82 -26.5 -104.5t-94.5 -22.5q-72 0 -97 22.5 t-25 104.5z" />
<glyph unicode="&#xf0;" horiz-adv-x="1282" d="M104 446q0 119 26 202t87.5 133t162.5 73t253 23q14 0 36.5 -1.5t48 -2.5t50.5 -3t43 -4q-55 106 -141 209l-148 -92l-100 133l143 90l-105 112l-110 109h336l47 -45l49 -47l125 78l99 -133l-113 -72q129 -160 211 -343t82 -406q0 -145 -24.5 -239.5t-86 -152t-167 -80 t-267.5 -22.5q-147 0 -249.5 24.5t-166 81t-92.5 148.5t-29 227zM387 434q0 -59 10.5 -102t38 -71t76.5 -41t129 -13q74 0 124 8t79.5 38t43 85t13.5 149q0 76 -18 148q-51 8 -108.5 11t-112.5 3q-86 0 -139.5 -9t-84 -32.5t-41 -65.5t-10.5 -108z" />
<glyph unicode="&#xf1;" horiz-adv-x="1193" d="M141 0v983q47 18 107.5 34.5t125 29t132 19.5t129.5 7q111 0 190.5 -24.5t132 -81t77 -150.5t24.5 -235v-582h-254v555q0 86 -9.5 142.5t-35 89t-68.5 45t-110 12.5q-94 0 -187 -25v-819h-254zM219 1262q43 76 94.5 120.5t128.5 44.5q51 0 90 -17t72 -37l63 -37 q30 -17 66.5 -17t60 24.5t48.5 94.5l127 -103q-29 -84 -88.5 -137t-151.5 -53q-47 0 -83 17.5t-69 36.5l-67 37q-33 17 -70 17q-31 0 -56.5 -22.5t-49.5 -81.5z" />
<glyph unicode="&#xf2;" d="M104 526.5q0 159.5 31 265t93.5 168t155.5 88t216 25.5q125 0 219 -25.5t156.5 -88t93.5 -168t31 -265t-31 -267t-93.5 -171t-156.5 -90.5t-219 -27t-218 27t-154.5 90.5t-92.5 171t-31 267zM293 1427h270l250 -264h-225zM367 522q0 -109 11 -176t38.5 -105t71.5 -51.5 t112 -13.5t114 13.5t73.5 51.5t39 105.5t11.5 175.5q0 113 -11.5 180.5t-39 104.5t-73.5 49t-114 12t-112 -12t-71.5 -49t-38.5 -104.5t-11 -180.5z" />
<glyph unicode="&#xf3;" d="M104 526.5q0 159.5 31 265t93.5 168t155.5 88t216 25.5q125 0 219 -25.5t156.5 -88t93.5 -168t31 -265t-31 -267t-93.5 -171t-156.5 -90.5t-219 -27t-218 27t-154.5 90.5t-92.5 171t-31 267zM367 522q0 -109 11 -176t38.5 -105t71.5 -51.5t112 -13.5t114 13.5t73.5 51.5 t39 105.5t11.5 175.5q0 113 -11.5 180.5t-39 104.5t-73.5 49t-114 12t-112 -12t-71.5 -49t-38.5 -104.5t-11 -180.5zM406 1163l247 264h273l-297 -264h-223z" />
<glyph unicode="&#xf4;" d="M104 526.5q0 159.5 31 265t93.5 168t155.5 88t216 25.5q125 0 219 -25.5t156.5 -88t93.5 -168t31 -265t-31 -267t-93.5 -171t-156.5 -90.5t-219 -27t-218 27t-154.5 90.5t-92.5 171t-31 267zM219 1163l250 264h250l258 -264h-240l-145 156l-141 -156h-232zM367 522 q0 -109 11 -176t38.5 -105t71.5 -51.5t112 -13.5t114 13.5t73.5 51.5t39 105.5t11.5 175.5q0 113 -11.5 180.5t-39 104.5t-73.5 49t-114 12t-112 -12t-71.5 -49t-38.5 -104.5t-11 -180.5z" />
<glyph unicode="&#xf5;" d="M104 526.5q0 159.5 31 265t93.5 168t155.5 88t216 25.5q125 0 219 -25.5t156.5 -88t93.5 -168t31 -265t-31 -267t-93.5 -171t-156.5 -90.5t-219 -27t-218 27t-154.5 90.5t-92.5 171t-31 267zM223 1262q43 76 94.5 120.5t128.5 44.5q51 0 90 -17t72 -37l63 -37 q30 -17 66.5 -17t60 24.5t48.5 94.5l127 -103q-29 -84 -88.5 -137t-151.5 -53q-47 0 -83 17.5t-69 36.5l-67 37q-33 17 -70 17q-31 0 -56.5 -22.5t-49.5 -81.5zM367 522q0 -109 11 -176t38.5 -105t71.5 -51.5t112 -13.5t114 13.5t73.5 51.5t39 105.5t11.5 175.5 q0 113 -11.5 180.5t-39 104.5t-73.5 49t-114 12t-112 -12t-71.5 -49t-38.5 -104.5t-11 -180.5z" />
<glyph unicode="&#xf6;" d="M104 526.5q0 159.5 31 265t93.5 168t155.5 88t216 25.5q125 0 219 -25.5t156.5 -88t93.5 -168t31 -265t-31 -267t-93.5 -171t-156.5 -90.5t-219 -27t-218 27t-154.5 90.5t-92.5 171t-31 267zM260 1282q0 74 25.5 93.5t95.5 19.5t96.5 -19.5t26.5 -93.5 q0 -82 -26.5 -104.5t-96.5 -22.5t-95.5 22.5t-25.5 104.5zM367 522q0 -109 11 -176t38.5 -105t71.5 -51.5t112 -13.5t114 13.5t73.5 51.5t39 105.5t11.5 175.5q0 113 -11.5 180.5t-39 104.5t-73.5 49t-114 12t-112 -12t-71.5 -49t-38.5 -104.5t-11 -180.5zM696 1282 q0 37 6.5 59.5t20.5 33.5t37.5 15.5t58.5 4.5q68 0 94.5 -19.5t26.5 -93.5q0 -82 -26.5 -104.5t-94.5 -22.5q-72 0 -97.5 22.5t-25.5 104.5z" />
<glyph unicode="&#xf7;" horiz-adv-x="1191" d="M98 621v241h996v-241h-996zM434 313q0 47 8.5 76t26.5 44.5t48 20.5t75 5q47 0 78.5 -5t50 -20.5t27 -44.5t8.5 -76q0 -51 -8.5 -81.5t-27 -48t-50 -22.5t-78.5 -5q-45 0 -75 5t-48 22.5t-26.5 48t-8.5 81.5zM434 1178q0 47 8.5 74.5t26.5 43t48 20.5t75 5q47 0 78.5 -5 t50 -20.5t27 -43t8.5 -74.5q0 -51 -8.5 -82t-27 -48.5t-50 -22.5t-78.5 -5q-45 0 -75 5t-48 22.5t-26.5 48.5t-8.5 82z" />
<glyph unicode="&#xf8;" d="M33 0l141 162q-70 125 -70 364q0 160 31 265.5t93.5 168t155.5 88t216 25.5q96 0 172 -14.5t133 -48.5l31 32h238l-142 -161q35 -63 51.5 -149.5t16.5 -205.5q0 -160 -31 -267t-93.5 -170.5t-156.5 -90.5t-219 -27q-188 0 -301 64l-31 -35h-235zM367 571q0 -106 14 -176 l373 439q-29 18 -66 25t-88 7q-63 0 -107 -10t-72 -42t-40 -90.5t-14 -152.5zM453 209q25 -18 61.5 -24.5t85.5 -6.5q70 0 116 16.5t71.5 54.5t36 98.5t10.5 146.5q0 41 -2.5 77.5t-8.5 71.5z" />
<glyph unicode="&#xf9;" horiz-adv-x="1193" d="M135 461v581h254v-555q0 -86 9.5 -142t34 -89t67.5 -45t110 -12q100 0 189 26v817h254v-983q-49 -18 -108.5 -34.5t-124 -28.5t-132 -19.5t-129.5 -7.5q-111 0 -190.5 24.5t-132 81t-77 151t-24.5 235.5zM279 1427h270l250 -264h-226z" />
<glyph unicode="&#xfa;" horiz-adv-x="1193" d="M135 461v581h254v-555q0 -86 9.5 -142t34 -89t67.5 -45t110 -12q100 0 189 26v817h254v-983q-49 -18 -108.5 -34.5t-124 -28.5t-132 -19.5t-129.5 -7.5q-111 0 -190.5 24.5t-132 81t-77 151t-24.5 235.5zM410 1163l247 264h273l-297 -264h-223z" />
<glyph unicode="&#xfb;" horiz-adv-x="1193" d="M135 461v581h254v-555q0 -86 9.5 -142t34 -89t67.5 -45t110 -12q100 0 189 26v817h254v-983q-49 -18 -108.5 -34.5t-124 -28.5t-132 -19.5t-129.5 -7.5q-111 0 -190.5 24.5t-132 81t-77 151t-24.5 235.5zM229 1163l250 264h250l258 -264h-239l-146 156l-141 -156h-232z " />
<glyph unicode="&#xfc;" horiz-adv-x="1193" d="M135 461v581h254v-555q0 -86 9.5 -142t34 -89t67.5 -45t110 -12q100 0 189 26v817h254v-983q-49 -18 -108.5 -34.5t-124 -28.5t-132 -19.5t-129.5 -7.5q-111 0 -190.5 24.5t-132 81t-77 151t-24.5 235.5zM262 1282q0 74 25.5 93.5t95.5 19.5t96.5 -19.5t26.5 -93.5 q0 -82 -26.5 -104.5t-96.5 -22.5t-95.5 22.5t-25.5 104.5zM698 1282q0 37 6.5 59.5t20.5 33.5t37.5 15.5t58.5 4.5q68 0 94.5 -19.5t26.5 -93.5q0 -82 -26.5 -104.5t-94.5 -22.5q-72 0 -97.5 22.5t-25.5 104.5z" />
<glyph unicode="&#xfd;" horiz-adv-x="1046" d="M0 1042h264q70 -174 137.5 -380.5t120.5 -409.5q74 197 141.5 396.5t116.5 393.5h258q-78 -268 -179 -542.5t-216 -542.5l-79 -180q-42 -92 -83 -170h-282q41 74 86 165l84 177l-83 283l-91 286q-47 141 -96.5 274t-98.5 250zM367 1163l247 264h273l-297 -264h-223z" />
<glyph unicode="&#xfe;" d="M141 -393v1845h254v-399q51 10 103.5 15t99.5 5q129 0 223 -26.5t155.5 -89t91.5 -169t30 -266.5t-32 -265t-90 -168.5t-142 -90.5t-189 -27q-90 0 -148.5 18.5t-101.5 41.5v-424h-254zM395 287q0 -47 59.5 -74t145.5 -27q68 0 113 15.5t72.5 53.5t40 101.5t12.5 159.5 q0 106 -12.5 173t-40 103.5t-73.5 49t-114 12.5q-53 0 -107.5 -7t-95.5 -24v-536z" />
<glyph unicode="&#xff;" horiz-adv-x="1046" d="M0 1042h264q70 -174 137.5 -380.5t120.5 -409.5q74 197 141.5 396.5t116.5 393.5h258q-78 -268 -179 -542.5t-216 -542.5l-79 -180q-42 -92 -83 -170h-282q41 74 86 165l84 177l-83 283l-91 286q-47 141 -96.5 274t-98.5 250zM190 1282q0 74 26 93.5t95.5 19.5t96 -19.5 t26.5 -93.5q0 -82 -26.5 -104.5t-96 -22.5t-95.5 22.5t-26 104.5zM627 1282q0 37 6 59.5t20.5 33.5t38 15.5t58.5 4.5q68 0 94 -19.5t26 -93.5q0 -82 -26.5 -104.5t-93.5 -22.5q-72 0 -97.5 22.5t-25.5 104.5z" />
<glyph unicode="&#x152;" horiz-adv-x="2248" d="M109 727q0 217 43 359.5t128 225.5t211.5 116.5t296.5 33.5q86 0 161 -8t141 -27h1105v-233h-825q78 -115 92 -330h422v-229h-422q-4 -141 -29.5 -238.5t-72.5 -163.5h835v-233h-1134q-59 -16 -127 -22.5t-146 -6.5q-170 0 -297.5 35t-212.5 122t-127 232.5t-42 366.5z M397 723q0 -162 17.5 -261.5t61.5 -154.5t120 -73.5t192.5 -18.5t192.5 18.5t120 73.5t61.5 154.5t17.5 261.5t-17.5 260t-61.5 150.5t-120 69t-192.5 16.5t-192.5 -16.5t-120 -69t-61.5 -150.5t-17.5 -260z" />
<glyph unicode="&#x153;" horiz-adv-x="1857" d="M104 526.5q0 159.5 31 265t93.5 168t155.5 88t216 25.5q131 0 221 -29.5t146 -103.5q53 70 139 101.5t209 31.5t213 -25.5t146.5 -94t79.5 -188.5q17 -89 18 -217q0 -44 -3 -93h-673q2 -84 18 -136.5t50 -82t84 -40t118 -10.5q29 0 66.5 3.5t77.5 9.5t79 13t70 17 l43 -200q-80 -27 -182.5 -42.5t-184.5 -15.5q-125 0 -215 32t-149 110q-53 -78 -144.5 -110t-226.5 -32q-125 0 -218 27t-154.5 90.5t-92.5 171t-31 267zM367 522q0 -109 11 -176t38.5 -105t71.5 -51.5t112 -13.5t114 13.5t73.5 51.5t39 105.5t11.5 175.5q0 113 -11.5 180.5 t-39 104.5t-73.5 49t-114 12t-112 -12t-71.5 -49t-38.5 -104.5t-11 -180.5zM1098 649h438q-2 70 -14.5 113t-36 67.5t-61.5 33.5t-93 9q-57 0 -98 -10t-68.5 -34.5t-44 -67.5t-22.5 -111z" />
<glyph unicode="&#x178;" horiz-adv-x="1306" d="M-78 1427h352l194 -255l204 -289l206 285q97 140 171 259h327l-272 -396l-303 -415v-616h-271v614l-157 221l-159 217l-154 201zM330 1655q0 74 26.5 94t96 20t95 -20t25.5 -94q0 -80 -25.5 -102.5t-95 -22.5t-96 22.5t-26.5 102.5zM766 1655q0 74 25.5 94t97.5 20 q70 0 95.5 -20t25.5 -94q0 -80 -26 -102.5t-95 -22.5q-35 0 -58.5 4t-38 18.5t-20.5 38t-6 64.5z" />
<glyph unicode="&#x2c6;" horiz-adv-x="1351" d="M322 1163l249 264h250l258 -264h-239l-146 156l-141 -156h-231z" />
<glyph unicode="&#x2dc;" horiz-adv-x="1464" d="M291 1262q43 76 94 120.5t129 44.5q51 0 90 -17t72 -37l62 -37q30 -17 67 -17t60.5 24.5t47.5 94.5l127 -103q-29 -84 -88 -137t-151 -53q-47 0 -83 17.5t-70 36.5l-66 37q-33 17 -70 17q-31 0 -56.5 -22.5t-49.5 -81.5z" />
<glyph unicode="&#x2013;" horiz-adv-x="1183" d="M100 455v241h983v-241h-983z" />
<glyph unicode="&#x2014;" horiz-adv-x="1771" d="M100 455v241h1571v-241h-1571z" />
<glyph unicode="&#x2018;" horiz-adv-x="522" d="M49 1034l223 537h205l-160 -537h-268z" />
<glyph unicode="&#x2019;" horiz-adv-x="522" d="M47 1024l160 537h268l-223 -537h-205z" />
<glyph unicode="&#x201a;" horiz-adv-x="501" d="M37 -326l160 537h268l-223 -537h-205z" />
<glyph unicode="&#x201c;" horiz-adv-x="921" d="M49 1034l223 537h205l-160 -537h-268zM446 1034l224 537h204l-159 -537h-269z" />
<glyph unicode="&#x201d;" horiz-adv-x="921" d="M47 1026l160 537h268l-223 -537h-205zM444 1026l160 537h268l-223 -537h-205z" />
<glyph unicode="&#x201e;" horiz-adv-x="921" d="M47 -336l160 537h268l-223 -537h-205zM444 -336l160 537h268l-223 -537h-205z" />
<glyph unicode="&#x2022;" d="M104 669.5q0 159.5 31 265t93.5 168t155.5 88.5t216 26q125 0 219 -26t156.5 -88.5t93.5 -168t31 -265t-31 -267t-93.5 -171t-156.5 -90t-219 -26.5t-218 26.5t-154.5 90t-92.5 171t-31 267z" />
<glyph unicode="&#x2026;" horiz-adv-x="2336" d="M289 150q0 47 8 74.5t26.5 43t48 20.5t74.5 5q47 0 79 -5t50.5 -20.5t26.5 -43t8 -74.5q0 -51 -8 -82t-26.5 -48.5t-50 -23.5t-79.5 -6q-45 0 -74.5 6t-48 23.5t-26.5 48.5t-8 82zM1006 150q0 47 8 74.5t26.5 43t49 20.5t75.5 5t77 -5t50.5 -20.5t26.5 -43t8 -74.5 q0 -51 -8 -82t-26.5 -48.5t-50.5 -23.5t-77 -6t-75.5 6t-49 23.5t-26.5 48.5t-8 82zM1726 150q0 47 8.5 74.5t27 43t49 20.5t73.5 5q47 0 79 -5t50.5 -20.5t26.5 -43t8 -74.5q0 -51 -8 -82t-26.5 -48.5t-50.5 -23.5t-79 -6q-43 0 -73.5 6t-49 23.5t-27 48.5t-8.5 82z" />
<glyph unicode="&#x2039;" horiz-adv-x="808" d="M55 639l553 571l146 -149l-361 -418l361 -426l-144 -154z" />
<glyph unicode="&#x203a;" horiz-adv-x="808" d="M55 215l363 418l-363 428l144 151l557 -573l-553 -573z" />
<glyph unicode="&#x20ac;" horiz-adv-x="1212" d="M109 727q0 219 40.5 361.5t123.5 225.5t209 115.5t296 32.5q49 0 103.5 -4t108.5 -11t105.5 -16.5t92.5 -21.5l-60 -238q-29 10 -65.5 18.5t-77.5 14.5t-82 9.5t-78 3.5q-86 0 -151.5 -8.5t-113.5 -33t-81 -68.5t-51 -116h490v-174h-519q-2 -16 -2 -46v-46v-47 q0 -29 2 -45h519v-174h-490q18 -76 50 -123t80 -72.5t114.5 -35t152.5 -9.5q37 0 78 3t82 9.5t78 14.5t65 18l60 -241q-41 -12 -92.5 -21.5t-105.5 -15.5t-108.5 -10.5t-103.5 -4.5q-170 0 -296 36t-209 124t-123.5 232.5t-40.5 363.5z" />
<glyph unicode="&#x2122;" horiz-adv-x="1687" d="M14 1268v159h648v-159h-232v-576h-182v576h-234zM739 692v735h240l186 -497l181 497h229v-735h-172v512l-178 -483h-142l-172 483v-512h-172z" />
<glyph unicode="&#xe000;" horiz-adv-x="1040" d="M0 1040h1040v-1040h-1040v1040z" />
<glyph unicode="&#xfb01;" horiz-adv-x="1216" d="M10 821v221h174v62q0 115 36 188.5t101.5 115.5t154.5 58.5t198 16.5q104 0 204.5 -17.5t182.5 -46.5l-60 -198q-55 18 -131.5 31.5t-162.5 13.5q-61 0 -110.5 -7.5t-85.5 -26t-54.5 -53t-18.5 -89.5v-48h637v-1042h-254v821h-383v-821h-254v821h-174z" />
<glyph unicode="&#xfb02;" horiz-adv-x="1226" d="M10 821v221h174v62q0 117 35 190.5t96.5 115.5t146.5 57.5t187 15.5q111 0 214.5 -15.5t211.5 -48.5v-1126q0 -72 16.5 -131.5t63.5 -114.5l-112.5 -47.5t-112.5 -46.5q-53 59 -81 137t-28 193v960q-90 23 -176 23q-94 0 -150.5 -34t-56.5 -142v-48h277v-221h-277v-821 h-254v821h-174z" />
<glyph unicode="&#xfb03;" horiz-adv-x="1853" d="M10 821v221h174v62q0 117 34 190.5t91.5 115.5t133 57.5t159.5 15.5q90 0 184.5 -19.5t180.5 -50.5q66 41 152.5 55.5t191 14.5t205 -17.5t182.5 -46.5l-60 -198q-55 18 -131.5 31.5t-163.5 13.5q-61 0 -110 -7.5t-85 -26t-54.5 -53t-18.5 -89.5v-48h637v-1042h-254v821 h-383v-821h-254v821h-383v-821h-254v821h-174zM438 1042h383v62q0 78 21 131q-47 16 -98.5 23.5t-98.5 7.5q-100 0 -153.5 -35t-53.5 -141v-48z" />
<glyph unicode="&#xfb04;" horiz-adv-x="1865" d="M10 821v221h174v62q0 117 34 190.5t91.5 115.5t133 57.5t159.5 15.5q90 0 184.5 -17.5t176.5 -50.5q61 39 143 53.5t180 14.5q111 0 214.5 -15.5t211.5 -48.5v-1126q0 -72 16.5 -131.5t63.5 -114.5l-112.5 -47.5t-112.5 -46.5q-53 59 -81 137t-28 193v960q-90 23 -176 23 q-47 0 -85 -7.5t-64.5 -27t-42 -54t-15.5 -87.5v-48h277v-221h-277v-821h-254v821h-383v-821h-254v821h-174zM438 1042h383v62q0 82 21 131q-47 14 -97.5 22.5t-99.5 8.5q-115 0 -161 -42t-46 -155v-27z" />
</font>
</defs>
</svg>
