<?xml version="1.0" standalone="no"?>
<!DOCTYPE svg PUBLIC "-//W3C//DTD SVG 1.1//EN" "http://www.w3.org/Graphics/SVG/1.1/DTD/svg11.dtd" >
<svg>
<metadata>
Created by FontForge 20120731 at Tue Jan 29 12:25:36 2013
 By Stefan Warting
2005 Albert-Jan Pool published by FSI Fonts und Software GmbH
</metadata>
<defs>
<font id="DINOT-CondBold" horiz-adv-x="396" >
  <font-face 
    font-family="DINOT-CondBold"
    font-weight="700"
    font-stretch="normal"
    units-per-em="1000"
    panose-1="2 0 5 6 3 0 0 2 0 4"
    ascent="764"
    descent="-236"
    x-height="527"
    cap-height="712"
    bbox="-102 -226 1003 962"
    underline-thickness="77"
    underline-position="-39"
    unicode-range="U+000D-FB02"
  />
<missing-glyph horiz-adv-x="417" 
d="M52 0v712h314v-712h-314zM129 77h159v558h-159v-558z" />
    <glyph glyph-name="fi" unicode="fi" horiz-adv-x="463" 
d="M252 432h-73v-432h-106v432h-54v81h54v47q0 85 53 127q43 33 126 33v-95q-38 0 -55.5 -16.5t-17.5 -54.5v-41h73v-81zM411 0h-106v513h106v-513zM417 594h-117v117h117v-117z" />
    <glyph glyph-name="fl" unicode="fl" horiz-adv-x="501" 
d="M252 433h-73v-433h-106v433h-54v81h54v46q0 85 53 127q43 33 126 33v-95q-73 0 -73 -71v-40h73v-81zM483 0q-83 0 -124 32q-54 41 -54 128v552h106v-546q0 -71 72 -71v-95z" />
    <glyph glyph-name=".notdef" horiz-adv-x="417" 
d="M52 0v712h314v-712h-314zM129 77h159v558h-159v-558z" />
    <glyph glyph-name=".null" horiz-adv-x="0" 
 />
    <glyph glyph-name=".null" horiz-adv-x="0" 
 />
    <glyph glyph-name="nonmarkingreturn" horiz-adv-x="333" 
 />
    <glyph glyph-name="CR" unicode="&#xd;" horiz-adv-x="179" 
 />
    <glyph glyph-name="space" unicode=" " horiz-adv-x="179" 
 />
    <glyph glyph-name="exclam" unicode="!" horiz-adv-x="257" 
d="M193 200h-106v512h106v-512zM202 0h-124v123h124v-123z" />
    <glyph glyph-name="quotedbl" unicode="&#x22;" horiz-adv-x="437" 
d="M174 511h-102v201h102v-201zM364 511h-101v201h101v-201z" />
    <glyph glyph-name="numbersign" unicode="#" horiz-adv-x="608" 
d="M561 428h-84l-18 -127h71v-100h-87l-29 -201h-111l29 201h-107l-29 -201h-110l29 201h-68v100h84l18 127h-71l-1 101h88l26 183h111l-27 -183h107l27 183h110l-26 -183h68v-101zM367 428h-107l-19 -127h107z" />
    <glyph glyph-name="dollar" unicode="$" horiz-adv-x="449" 
d="M407 197q0 -112 -46 -157q-32 -32 -88 -42v-112h-99v111q-57 9 -91 43q-45 45 -45 153h112q0 -57 20 -80q17 -19 52 -19q36 0 53 20q20 23 20 79q0 57 -12.5 78.5t-54.5 38.5l-85 35q-55 23 -77 60.5t-22 118.5q0 99 58 151q31 28 72 37v94h99v-93q48 -9 79 -38
q50 -49 50 -155h-112q0 54 -17 76q-16 21 -50 21q-30 0 -48 -20q-19 -22 -19 -70q0 -44 11 -62.5t48 -33.5l84 -34q64 -26 86 -67.5t22 -132.5z" />
    <glyph glyph-name="percent" unicode="%" horiz-adv-x="732" 
d="M685 112q0 -57 -36.5 -88.5t-90.5 -31.5t-90.5 31.5t-36.5 88.5v133q0 57 36.5 88.5t90.5 31.5t90.5 -31.5t36.5 -88.5v-133zM301 467q0 -57 -36.5 -88.5t-90.5 -31.5t-90.5 31.5t-36.5 88.5v133q0 57 36.5 88.5t90.5 31.5t90.5 -31.5t36.5 -88.5v-133zM532 712
l-248 -712h-82l248 712h82zM214 469v129q0 45 -40 45q-41 0 -41 -45v-129q0 -45 41 -45q40 0 40 45zM598 114v129q0 45 -40 45t-40 -45v-129q0 -45 40 -45t40 45z" />
    <glyph glyph-name="ampersand" unicode="&#x26;" horiz-adv-x="499" 
d="M497 0h-111l-39 63q-63 -71 -146 -71q-74 0 -120.5 49.5t-46.5 133.5q0 107 106 215q-39 52 -57 90t-18 80q0 76 40 117.5t102 41.5q70 0 107 -41.5t37 -107.5q0 -59 -22.5 -103.5t-68.5 -92.5l85 -131q24 51 29 131h91q-5 -125 -61 -225zM295 144l-103 160
q-59 -60 -59 -122q0 -42 21.5 -68.5t55.5 -26.5q45 0 85 57zM256 568q0 25 -13.5 40.5t-34.5 15.5q-22 0 -35 -16t-13 -44q0 -42 47 -105q26 29 37.5 52t11.5 57z" />
    <glyph glyph-name="quotesingle" unicode="'" horiz-adv-x="247" 
d="M174 511h-102v201h102v-201z" />
    <glyph glyph-name="parenleft" unicode="(" horiz-adv-x="265" 
d="M224 -23l-71 -71q-61 61 -81 96q-24 42 -24 118v472q0 76 24 118q21 36 81 96l71 -71q-42 -42 -56 -67t-14 -82v-460q0 -57 14 -82t56 -67z" />
    <glyph glyph-name="parenright" unicode=")" horiz-adv-x="265" 
d="M218 120q0 -74 -25 -118q-17 -31 -80 -96l-72 71q44 44 56 67q15 25 15 82v460q0 57 -15 82q-12 23 -56 67l72 71q63 -65 80 -96q25 -44 25 -118v-472z" />
    <glyph glyph-name="asterisk" unicode="*" horiz-adv-x="417" 
d="M374 479l-38 -65l-93 58l4 -126h-77l4 126l-94 -58l-37 65l98 51l-98 51l37 66l94 -59l-4 126h77l-4 -126l93 59l38 -66l-98 -51z" />
    <glyph glyph-name="plus" unicode="+" horiz-adv-x="457" 
d="M413 238h-134v-134h-101v134h-134v101h134v134h101v-134h134v-101z" />
    <glyph glyph-name="comma" unicode="," horiz-adv-x="229" 
d="M172 -65l-115 -85v274h115v-189z" />
    <glyph glyph-name="hyphen" unicode="-" horiz-adv-x="295" 
d="M249 238h-202v101h202v-101z" />
    <glyph glyph-name="period" unicode="." horiz-adv-x="234" 
d="M179 0h-123v123h123v-123z" />
    <glyph glyph-name="slash" unicode="/" horiz-adv-x="298" 
d="M291 786l-185 -860h-100l185 860h100z" />
    <glyph glyph-name="zero" unicode="0" horiz-adv-x="401" 
d="M359 152q0 -75 -45 -118q-44 -42 -113 -42q-70 0 -114 42q-45 43 -45 118v408q0 75 45 118q44 42 114 42q69 0 113 -42q45 -43 45 -118v-408zM253 148v416q0 30 -14.5 45.5t-37.5 15.5t-38 -16t-15 -45v-416q0 -29 15 -45t38 -16t37.5 15.5t14.5 45.5z" />
    <glyph glyph-name="one" unicode="1" horiz-adv-x="401" 
d="M283 0h-106v588l-107 -82v120l107 86h106v-712z" />
    <glyph glyph-name="two" unicode="2" horiz-adv-x="401" 
d="M360 0h-313v90l178 346q29 54 29 127q0 30 -14 46t-37 16t-38 -16t-15 -45v-46h-106v42q0 76 44 118t115 42q69 0 110 -38q47 -44 47 -123q0 -81 -39 -156l-161 -308h200v-95z" />
    <glyph glyph-name="three" unicode="3" horiz-adv-x="401" 
d="M361 203q0 -67 -8 -103.5t-39 -66.5q-43 -41 -114 -41t-115 42t-44 118v42h106v-46q0 -29 15 -45t38 -16q24 0 38 18q17 22 17 105t-16 104q-13 18 -40 18h-35v89h35q22 0 34 14q16 18 16 90q0 66 -14 84q-13 16 -35 16q-21 0 -34.5 -15t-13.5 -42v-50h-106v43
q0 76 44 118q43 41 110 41q69 0 109 -40q46 -46 46 -148q0 -78 -18 -113q-13 -25 -39 -42q29 -21 41 -43q22 -39 22 -131z" />
    <glyph glyph-name="four" unicode="4" horiz-adv-x="401" 
d="M377 111h-49v-111h-106v111h-198v95l183 506h103l-177 -506h89v127h106v-127h49v-95z" />
    <glyph glyph-name="five" unicode="5" horiz-adv-x="401" 
d="M362 240q0 -58 -2 -87t-13 -62t-33 -55q-44 -44 -113 -44q-71 0 -114 41q-45 43 -45 119v35h106v-49q0 -31 14.5 -46.5t38.5 -15.5q25 0 39 19q16 21 16 135q0 104 -14 126q-13 22 -41 22q-23 0 -38 -16.5t-15 -44.5v-15h-101v410h307v-95h-210v-191q18 23 37 34
q24 13 51 13q62 0 96 -43q21 -26 27.5 -70.5t6.5 -119.5z" />
    <glyph glyph-name="six" unicode="6" horiz-adv-x="401" 
d="M361 216q0 -118 -34 -167q-40 -57 -127 -57q-84 0 -124 57q-21 30 -28.5 66t-7.5 101q0 90 29 168l125 328h110l-117 -288q16 12 44 12q60 0 94 -44q20 -26 28 -62.5t8 -113.5zM255 217q0 93 -16 114q-13 18 -38 18t-39 -18q-16 -21 -16 -114q0 -90 16 -112
q14 -18 39 -18t38 18q16 21 16 112z" />
    <glyph glyph-name="seven" unicode="7" horiz-adv-x="401" 
d="M365 624l-187 -624h-106l187 617h-124v-95h-102v190h332v-88z" />
    <glyph glyph-name="eight" unicode="8" horiz-adv-x="401" 
d="M361 201q0 -65 -9 -101.5t-38 -65.5q-42 -42 -113 -42q-72 0 -114 42q-29 29 -38 65.5t-9 101.5q0 88 21 126q11 23 42 45q-25 18 -39 44q-19 37 -19 111q0 106 46 152q41 41 109 41q69 0 110 -41q46 -46 46 -152q0 -74 -19 -111q-14 -26 -39 -44q28 -21 42 -45
q21 -38 21 -126zM255 206q0 85 -16 105q-14 17 -38 17q-25 0 -39 -17q-16 -20 -16 -105q0 -81 16 -102q14 -17 39 -17q24 0 38 17q16 20 16 102zM250 522q0 71 -15 89q-11 14 -34 14q-24 0 -35 -14q-15 -18 -15 -89q0 -76 18 -93q12 -12 32 -12t32 12q3 3 5.5 6.5t4.5 8.5
t3 9t2 11l1.5 10.5t0.5 12v11.5v12.5v11.5z" />
    <glyph glyph-name="nine" unicode="9" horiz-adv-x="401" 
d="M361 496q0 -90 -29 -168l-125 -328h-110l117 288q-16 -12 -43 -12q-61 0 -95 44q-20 26 -28 62.5t-8 113.5q0 117 35 167q40 57 126 57q85 0 125 -57q21 -29 28 -65t7 -102zM255 495q0 90 -16 112q-13 18 -38 18t-39 -18q-16 -21 -16 -112q0 -93 16 -114q14 -18 39 -18
t38 18q16 21 16 114z" />
    <glyph glyph-name="colon" unicode=":" horiz-adv-x="257" 
d="M202 313h-124v123h124v-123zM202 0h-124v123h124v-123z" />
    <glyph glyph-name="semicolon" unicode=";" horiz-adv-x="257" 
d="M198 -65l-116 -85v274h116v-189zM202 313h-124v123h124v-123z" />
    <glyph glyph-name="less" unicode="&#x3c;" horiz-adv-x="401" 
d="M367 60l-333 195v74l333 194v-116l-203 -115l203 -115v-117z" />
    <glyph glyph-name="equal" unicode="=" horiz-adv-x="457" 
d="M413 326h-369v101h369v-101zM413 145h-369v101h369v-101z" />
    <glyph glyph-name="greater" unicode="&#x3e;" horiz-adv-x="401" 
d="M367 255l-333 -195v117l203 115l-203 115v116l333 -194v-74z" />
    <glyph glyph-name="question" unicode="?" horiz-adv-x="426" 
d="M393 524q0 -78 -34 -123l-59 -79q-23 -31 -23 -65v-57h-106v69q0 45 31 86l59 79q26 34 26 93q0 55 -20 77q-17 19 -43 19t-43 -18q-19 -21 -19 -78h-106q0 100 47 144q51 47 120 47q79 0 122 -45q48 -48 48 -149zM286 0h-124v123h124v-123z" />
    <glyph glyph-name="at" unicode="@" horiz-adv-x="608" 
d="M554 0h-102v40q-18 -24 -35 -33q-25 -15 -54 -15q-60 0 -95 41q-30 34 -30 114v188q0 80 30 114q35 41 95 41q29 0 54 -14q19 -10 31 -27v83q0 89 -83 89h-130q-82 0 -82 -89v-396q0 -45 29 -73l-77 -76q-32 31 -45 62.5t-13 81.5v417q0 77 46 121q43 43 118 43h178
q75 0 118 -43q47 -45 47 -121v-548zM448 148v186q0 30 -14.5 46t-37.5 16t-37.5 -16t-14.5 -46v-186q0 -30 14.5 -45.5t37.5 -15.5t37.5 15.5t14.5 45.5z" />
    <glyph glyph-name="A" unicode="A" horiz-adv-x="468" 
d="M462 0h-117l-29 141h-165l-28 -141h-118l175 712h109zM295 242l-61 298l-61 -298h122z" />
    <glyph glyph-name="B" unicode="B" horiz-adv-x="472" 
d="M423 211q0 -119 -46 -166q-44 -45 -140 -45h-177v712h178q95 0 139 -44q44 -45 44 -150q0 -83 -37 -120q-16 -16 -37 -25q23 -9 38 -26q38 -41 38 -136zM311 212q0 59 -20 85t-65 26h-54v-222h54q46 0 65.5 24.5t19.5 86.5zM309 515q0 53 -19 74.5t-65 21.5h-53v-193h53
q44 0 64 23t20 74z" />
    <glyph glyph-name="C" unicode="C" horiz-adv-x="447" 
d="M413 189q-3 -101 -59 -152q-50 -45 -123 -45q-85 0 -138 60q-25 28 -37 79t-13.5 91.5t-1.5 132.5t1.5 133t13.5 92.5t37 79.5q53 60 138 60q75 0 124 -46q54 -51 57 -150h-112q-2 46 -17 69q-16 26 -52 26t-53 -27q-25 -40 -25 -236t25 -236q17 -27 53 -27q37 0 53 26
q15 23 17 70h112z" />
    <glyph glyph-name="D" unicode="D" horiz-adv-x="472" 
d="M431 356q0 -90 -1.5 -130t-13.5 -89.5t-37 -77.5q-52 -59 -138 -59h-181v712h181q86 0 138 -59q25 -28 37 -77.5t13.5 -89.5t1.5 -130zM319 357q0 102 -4.5 152t-19.5 73q-19 29 -57 29h-66v-510h66q38 0 57 29q15 23 19.5 74t4.5 153z" />
    <glyph glyph-name="E" unicode="E" 
d="M359 0h-299v712h299v-101h-187v-202h161v-101h-161v-207h187v-101z" />
    <glyph glyph-name="F" unicode="F" horiz-adv-x="390" 
d="M359 611h-187v-202h161v-101h-161v-308h-112v712h299v-101z" />
    <glyph glyph-name="G" unicode="G" horiz-adv-x="455" 
d="M413 190q0 -94 -50 -146t-132 -52q-85 0 -138 60q-25 28 -37 79t-13.5 92t-1.5 133t1.5 133t13.5 92t37 79q53 60 138 60q79 0 127 -48q52 -53 55 -149h-112q-2 96 -70 96q-36 0 -53 -27q-25 -40 -25 -236t25 -236q17 -27 53 -27q34 0 52 26t18 65v111h-70v92h182v-197z
" />
    <glyph glyph-name="H" unicode="H" horiz-adv-x="483" 
d="M423 0h-112v312h-139v-312h-112v712h112v-300h139v300h112v-712z" />
    <glyph glyph-name="I" unicode="I" horiz-adv-x="232" 
d="M172 0h-112v712h112v-712z" />
    <glyph glyph-name="J" unicode="J" horiz-adv-x="389" 
d="M335 186q0 -90 -49 -140q-51 -54 -143 -54q-86 0 -140 57l78 75q22 -31 62 -31q36 0 58 24.5t22 68.5v526h112v-526z" />
    <glyph glyph-name="K" unicode="K" horiz-adv-x="469" 
d="M462 0h-121l-115 293l-54 -110v-183h-112v712h112v-335l155 335h113l-143 -295z" />
    <glyph glyph-name="L" unicode="L" horiz-adv-x="383" 
d="M359 0h-299v712h112v-611h187v-101z" />
    <glyph glyph-name="M" unicode="M" horiz-adv-x="598" 
d="M538 0h-112v444l-97 -292h-62l-95 287v-439h-112v712h101l138 -374l137 374h102v-712z" />
    <glyph glyph-name="N" unicode="N" horiz-adv-x="499" 
d="M439 0h-99l-168 423v-423h-112v712h100l167 -423v423h112v-712z" />
    <glyph glyph-name="O" unicode="O" horiz-adv-x="462" 
d="M421 356q0 -92 -1.5 -133t-13.5 -92t-37 -79q-53 -60 -138 -60t-138 60q-25 28 -37 79t-13.5 92t-1.5 133t1.5 133t13.5 92t37 79q53 60 138 60t138 -60q25 -28 37 -79t13.5 -92t1.5 -133zM309 356q0 107 -4.5 159.5t-19.5 76.5q-17 27 -54 27q-36 0 -53 -27
q-25 -40 -25 -236t25 -236q17 -27 53 -27q37 0 54 27q15 24 19.5 76.5t4.5 159.5z" />
    <glyph glyph-name="P" unicode="P" horiz-adv-x="459" 
d="M422 496q0 -111 -42 -164.5t-141 -53.5h-67v-278h-112v712h179q96 0 139.5 -52t43.5 -164zM310 495q0 56 -14 86t-55 30h-69v-232h69q41 0 55 30t14 86z" />
    <glyph glyph-name="Q" unicode="Q" horiz-adv-x="462" 
d="M451 39l-52 -62l-58 49q-44 -34 -110 -34q-85 0 -138 60q-25 28 -37 79t-13.5 92t-1.5 133t1.5 133t13.5 92t37 79q53 60 138 60t138 -60q25 -28 37 -79t13.5 -92t1.5 -133q0 -75 -1 -111t-7.5 -81.5t-20.5 -74.5zM309 356q0 110 -4.5 161t-19.5 75q-17 27 -54 27
q-36 0 -53 -27q-15 -24 -20 -76t-5 -160t5 -160t20 -76q17 -27 53 -27q15 0 24 5l-37 31l52 62l29 -24q10 43 10 189z" />
    <glyph glyph-name="R" unicode="R" horiz-adv-x="478" 
d="M445 0h-117l-93 292h-63v-292h-112v712h180q97 0 139.5 -49.5t42.5 -160.5q0 -71 -18.5 -116t-64.5 -70zM310 502q0 52 -14 80.5t-55 28.5h-69v-218h69q41 0 55 28.5t14 80.5z" />
    <glyph glyph-name="S" unicode="S" horiz-adv-x="442" 
d="M404 197q0 -112 -46 -157q-49 -47 -139 -47q-91 0 -138 47q-46 46 -46 153h112q0 -57 20 -80q17 -19 52 -19q37 0 54 20q19 22 19 79t-12.5 78.5t-54.5 38.5l-85 35q-55 23 -77 60.5t-22 118.5q0 99 58 151q49 43 122 43q83 0 128 -43q50 -49 50 -155h-112q0 54 -17 76
q-16 21 -50 21q-30 0 -48 -20q-19 -22 -19 -70q0 -44 11 -62.5t48 -33.5l84 -34q63 -26 85.5 -68t22.5 -132z" />
    <glyph glyph-name="T" unicode="T" horiz-adv-x="393" 
d="M372 611h-120v-611h-112v611h-119v101h351v-101z" />
    <glyph glyph-name="U" unicode="U" horiz-adv-x="471" 
d="M417 175q0 -80 -49 -131q-51 -52 -132 -52q-82 0 -133 52q-49 51 -49 131v537h112v-543q0 -37 20 -56.5t50 -19.5t49.5 19.5t19.5 56.5v543h112v-537z" />
    <glyph glyph-name="V" unicode="V" horiz-adv-x="437" 
d="M433 712l-157 -712h-116l-156 712h123l91 -540l92 540h123z" />
    <glyph glyph-name="W" unicode="W" horiz-adv-x="714" 
d="M710 712l-134 -712h-117l-102 541l-101 -541h-117l-135 712h123l70 -540l98 540h124l99 -540l69 540h123z" />
    <glyph glyph-name="X" unicode="X" horiz-adv-x="432" 
d="M421 0h-123l-82 256l-82 -256h-123l141 369l-130 343h123l71 -238l71 238h123l-133 -343z" />
    <glyph glyph-name="Y" unicode="Y" horiz-adv-x="389" 
d="M388 712l-138 -433v-279h-112v279l-138 433h124l70 -282l71 282h123z" />
    <glyph glyph-name="Z" unicode="Z" horiz-adv-x="373" 
d="M341 0h-310v84l194 527h-182v101h298v-84l-193 -527h193v-101z" />
    <glyph glyph-name="bracketleft" unicode="[" horiz-adv-x="282" 
d="M253 -74h-200v860h200v-94h-94v-672h94v-94z" />
    <glyph glyph-name="backslash" unicode="\" horiz-adv-x="298" 
d="M291 -74h-100l-185 860h100z" />
    <glyph glyph-name="bracketright" unicode="]" horiz-adv-x="282" 
d="M228 -74h-199v94h93v672h-93v94h199v-860z" />
    <glyph glyph-name="asciicircum" unicode="^" horiz-adv-x="463" 
d="M418 434h-103l-83 177l-83 -177h-104l140 283h93z" />
    <glyph glyph-name="underscore" unicode="_" horiz-adv-x="457" 
d="M457 -153h-457v77h457v-77z" />
    <glyph glyph-name="grave" unicode="`" horiz-adv-x="399" 
d="M245 587h-74l-87 139h89z" />
    <glyph glyph-name="a" unicode="a" horiz-adv-x="399" 
d="M350 0h-100v45q-18 -25 -32 -35q-26 -18 -60 -18q-61 0 -99 44q-32 38 -32 118q0 75 49 118q41 36 121 36h47v73q0 61 -51 61q-22 0 -35 -15q-16 -17 -16 -49h-106q0 69 45 114q43 43 111 43q74 0 112 -39q46 -46 46 -124v-372zM244 155v78h-35q-38 0 -55 -16
q-21 -19 -21 -59q0 -73 55 -73q24 0 40 19t16 51z" />
    <glyph glyph-name="b" unicode="b" horiz-adv-x="408" 
d="M372 264q0 -100 -6.5 -150.5t-30.5 -80.5q-33 -41 -93 -41q-28 0 -53 15q-8 4 -19 14.5t-16 18.5v-40h-102v712h106v-219q13 18 31 28q23 14 53 14q59 0 93 -41q24 -30 30.5 -80t6.5 -150zM266 264q0 129 -15 155q-14 22 -40 22q-22 0 -36 -14q-17 -17 -17 -50v-227
q0 -33 17 -50q13 -13 36 -13q27 0 40 21q15 26 15 156z" />
    <glyph glyph-name="c" unicode="c" horiz-adv-x="384" 
d="M356 155q-5 -83 -46 -124q-39 -39 -112 -39q-85 0 -125 56q-37 50 -37 216q0 164 37 216q40 55 125 55q71 0 111 -37q41 -40 47 -125h-105q-2 34 -14 49q-13 19 -39 19q-27 0 -41 -22q-15 -26 -15 -155t15 -156q13 -21 41 -21q26 0 39 18q12 15 14 50h105z" />
    <glyph glyph-name="d" unicode="d" horiz-adv-x="408" 
d="M356 0h-102v40q-5 -8 -16 -18.5t-19 -14.5q-25 -15 -53 -15q-60 0 -93 41q-24 30 -30.5 80.5t-6.5 150.5t6.5 150t30.5 80q34 41 93 41q30 0 53 -14q18 -10 31 -28v219h106v-712zM250 150v227q0 33 -17 50q-14 14 -36 14q-26 0 -40 -22q-15 -26 -15 -155q0 -130 15 -156
q13 -21 40 -21q23 0 36 13q17 17 17 50z" />
    <glyph glyph-name="e" unicode="e" horiz-adv-x="394" 
d="M359 233h-217q0 -102 16 -125q14 -21 41 -21q24 0 40 21q13 16 13 47h105q-3 -76 -44 -121q-38 -42 -114 -42q-71 0 -114 43q-31 31 -40 86t-9 143t9 143t40 86q42 42 113 42q74 0 113 -42q8 -9 15 -19.5t11.5 -24.5t8 -24.5t6 -30t4 -29.5t2 -33.5t1 -31.5t0.5 -34.5
v-32.5zM253 311q0 90 -15 109q-16 21 -40 21t-40 -21q-16 -20 -16 -109h111z" />
    <glyph glyph-name="f" unicode="f" horiz-adv-x="271" 
d="M252 432h-73v-432h-106v432h-54v81h54v45q0 85 53 127q43 33 126 33v-95q-73 0 -73 -71v-39h73v-81z" />
    <glyph glyph-name="g" unicode="g" horiz-adv-x="408" 
d="M356 -10q0 -92 -45 -137q-43 -43 -114 -43q-72 0 -114 41q-44 44 -44 116h105q0 -32 15 -50q14 -16 38 -16q23 0 38 17q15 18 15 65v90q-15 -20 -30 -29q-19 -12 -51 -12q-58 0 -91 39q-24 28 -33 76t-9 136t9 136.5t33 76.5q33 39 91 39q29 0 54 -14q18 -10 31 -28v34
h102v-537zM250 187v190q0 31 -16 49q-14 15 -37 15q-22 0 -39 -22q-16 -21 -16 -137t16 -137t39 -21q25 0 38 15q15 17 15 48z" />
    <glyph glyph-name="h" unicode="h" horiz-adv-x="417" 
d="M368 0h-106v379q0 30 -14.5 45.5t-37.5 15.5t-37.5 -15.5t-14.5 -45.5v-379h-106v712h106v-219q13 18 31 28q23 14 53 14q61 0 96 -41q30 -34 30 -114v-380z" />
    <glyph glyph-name="i" unicode="i" horiz-adv-x="210" 
d="M158 0h-106v513h106v-513zM163 594h-117v117h117v-117z" />
    <glyph glyph-name="j" unicode="j" horiz-adv-x="210" 
d="M158 -25q0 -86 -54 -127q-43 -33 -124 -33v95q37 0 54.5 16t17.5 55v532h106v-538zM163 594h-117v117h117v-117z" />
    <glyph glyph-name="k" unicode="k" horiz-adv-x="416" 
d="M409 0h-117l-89 222l-45 -71v-151h-106v712h106v-410l133 225h111l-131 -209z" />
    <glyph glyph-name="l" unicode="l" horiz-adv-x="244" 
d="M227 0q-84 0 -125 32q-53 40 -53 128v552h106v-546q0 -71 72 -71v-95z" />
    <glyph glyph-name="m" unicode="m" horiz-adv-x="628" 
d="M579 0h-106v379q0 29 -15 45t-38 16t-37.5 -15.5t-14.5 -45.5v-379h-106v379q0 30 -14.5 45.5t-37.5 15.5t-37.5 -15.5t-14.5 -45.5v-379h-106v527h102v-39q18 24 35 33q23 14 53 14q65 0 103 -54q22 25 47 40q25 14 56 14q65 0 100 -41q31 -35 31 -114v-380z" />
    <glyph glyph-name="n" unicode="n" horiz-adv-x="417" 
d="M368 0h-106v379q0 30 -14.5 45.5t-37.5 15.5t-37.5 -15.5t-14.5 -45.5v-379h-106v527h102v-39q18 24 35 33q23 14 53 14q61 0 96 -41q30 -34 30 -114v-380z" />
    <glyph glyph-name="o" unicode="o" 
d="M360 264q0 -164 -37 -216q-40 -56 -125 -56t-125 56q-37 52 -37 216t37 216q40 55 125 55t125 -55q37 -52 37 -216zM254 264q0 129 -15 155q-14 22 -41 22t-41 -22q-15 -26 -15 -155q0 -130 15 -156q13 -21 41 -21q27 0 41 21q15 26 15 156z" />
    <glyph glyph-name="p" unicode="p" horiz-adv-x="408" 
d="M372 264q0 -100 -6.5 -150.5t-30.5 -80.5q-34 -41 -93 -41q-30 0 -53 14q-18 10 -31 28v-219h-106v712h102v-39q5 8 16 18.5t19 14.5q23 14 53 14q60 0 93 -41q24 -30 30.5 -80t6.5 -150zM266 264q0 129 -15 155q-14 22 -40 22q-22 0 -36 -14q-17 -17 -17 -50v-227
q0 -33 17 -50q13 -13 36 -13q27 0 40 21q15 26 15 156z" />
    <glyph glyph-name="q" unicode="q" horiz-adv-x="408" 
d="M356 -185h-106v219q-13 -18 -31 -28q-23 -14 -53 -14q-59 0 -93 41q-24 30 -30.5 80.5t-6.5 150.5t6.5 150t30.5 80q33 41 93 41q30 0 53 -14q8 -4 19 -14.5t16 -18.5v39h102v-712zM250 150v227q0 33 -17 50q-14 14 -36 14q-26 0 -40 -22q-15 -26 -15 -155
q0 -130 15 -156q13 -21 40 -21q23 0 36 13q17 17 17 50z" />
    <glyph glyph-name="r" unicode="r" horiz-adv-x="299" 
d="M282 432h-36q-38 0 -63 -24.5t-25 -66.5v-341h-106v527h102v-56q16 24 46 42q36 22 82 22v-103z" />
    <glyph glyph-name="s" unicode="s" horiz-adv-x="381" 
d="M352 152q0 -70 -47 -117q-43 -43 -115 -43q-75 0 -116 43q-47 49 -47 119h105q0 -32 18 -50q15 -16 40 -16t41 15q15 14 15 42q0 23 -11 39q-12 18 -41 30l-70 31q-54 24 -77 61q-17 27 -17 72q0 65 46 113q44 44 114 44q69 0 111 -40q45 -43 45 -117h-104q0 32 -15 48
t-37 16q-24 0 -39 -15t-15 -40q0 -19 8 -31q11 -18 39 -30l70 -30q54 -24 77 -58q22 -31 22 -86z" />
    <glyph glyph-name="t" unicode="t" horiz-adv-x="274" 
d="M254 0q-87 0 -128 32q-53 42 -53 128v272h-54v81h54v149h106v-149h73v-81h-73v-266q0 -71 75 -71v-95z" />
    <glyph glyph-name="u" unicode="u" horiz-adv-x="417" 
d="M365 0h-101v40q-17 -23 -36 -33q-25 -15 -53 -15q-61 0 -96 41q-30 34 -30 114v380h106v-379q0 -30 14.5 -45.5t37.5 -15.5t37.5 15.5t14.5 45.5v379h106v-527z" />
    <glyph glyph-name="v" unicode="v" horiz-adv-x="381" 
d="M377 527l-130 -527h-112l-131 527h117l70 -359l69 359h117z" />
    <glyph glyph-name="w" unicode="w" horiz-adv-x="577" 
d="M573 527l-118 -527h-105l-63 342l-62 -342h-105l-116 527h118l55 -359l65 359h91l66 -359l55 359h119z" />
    <glyph glyph-name="x" unicode="x" horiz-adv-x="391" 
d="M382 0h-118l-69 164l-69 -164h-117l124 268l-118 259h117l63 -160l63 160h118l-120 -259z" />
    <glyph glyph-name="y" unicode="y" horiz-adv-x="382" 
d="M377 527l-148 -594q-18 -73 -65.5 -95.5t-131.5 -22.5v94q28 1 43 3.5t30 15t21 36.5l9 37l-131 526h117l70 -359l69 359h117z" />
    <glyph glyph-name="z" unicode="z" horiz-adv-x="325" 
d="M299 0h-273v80l154 353h-142v94h261v-79l-154 -353h154v-95z" />
    <glyph glyph-name="braceleft" unicode="{" horiz-adv-x="335" 
d="M307 -74h-61q-58 0 -94 36q-38 36 -38 104v190q0 23 -13 38t-33 15h-39v94h39q20 0 33 15t13 38v190q0 68 38 104q36 36 94 36h61v-95h-39q-21 0 -34.5 -14.5t-13.5 -37.5v-180q0 -54 -27 -81q-16 -16 -36 -22q12 -4 36 -22q27 -27 27 -81v-180q0 -23 13.5 -37.5
t34.5 -14.5h39v-95z" />
    <glyph glyph-name="bar" unicode="|" horiz-adv-x="330" 
d="M218 -74h-106v860h106v-860z" />
    <glyph glyph-name="braceright" unicode="}" horiz-adv-x="335" 
d="M307 309h-39q-20 0 -33.5 -15t-13.5 -38v-190q0 -69 -37 -104q-36 -36 -95 -36h-60v95h39q20 0 33.5 14.5t13.5 37.5v180q0 54 27 81q16 16 36 22q-26 8 -36 22q-27 27 -27 81v180q0 23 -13.5 37.5t-33.5 14.5h-39v95h60q59 0 95 -36q37 -35 37 -104v-190q0 -23 13.5 -38
t33.5 -15h39v-94z" />
    <glyph glyph-name="asciitilde" unicode="~" horiz-adv-x="457" 
d="M434 287q-66 -66 -126 -66q-41 0 -88 25q-38 20 -66 20q-33 0 -66 -33l-65 64q66 66 126 66q42 0 89 -25q38 -20 65 -20q33 0 66 33z" />
    <glyph glyph-name="uni00A0" unicode="&#xa0;" horiz-adv-x="179" 
 />
    <glyph glyph-name="exclamdown" unicode="&#xa1;" horiz-adv-x="257" 
d="M170 -185h-106v513h106v-513zM179 404h-123v123h123v-123z" />
    <glyph glyph-name="cent" unicode="&#xa2;" horiz-adv-x="392" 
d="M360 259q-3 -78 -45 -118q-24 -24 -71 -34v-107h-81v107q-54 10 -85 50q-37 49 -37 206t37 206q31 40 85 50v93h81v-93q40 -6 70 -33q42 -38 46 -119h-105q0 30 -13 47q-14 17 -39 17q-28 0 -41 -20q-15 -25 -15 -148t15 -148q14 -21 41 -21q24 0 39 18q13 15 13 47h105z
" />
    <glyph glyph-name="sterling" unicode="&#xa3;" horiz-adv-x="460" 
d="M427 0h-332v324h-63v81h63v122q0 87 54 140t137 53q87 0 141 -57l-77 -75q-24 31 -64 31q-34 0 -56.5 -24.5t-22.5 -66.5v-123h80v-81h-80v-223h220v-101z" />
    <glyph glyph-name="currency" unicode="&#xa4;" horiz-adv-x="560" 
d="M491 141l-65 -66l-57 56q-43 -25 -89 -25q-45 0 -90 25l-56 -56l-66 66l57 56q-25 41 -25 89q0 49 25 90l-57 56l66 66l56 -56q43 24 90 24t89 -24l57 56l65 -66l-56 -56q25 -43 25 -90q0 -46 -25 -89zM369 286q0 37 -26 63.5t-63 26.5t-63 -26.5t-26 -63.5t26 -63
t63 -26t63 26t26 63z" />
    <glyph glyph-name="yen" unicode="&#xa5;" horiz-adv-x="389" 
d="M380 712l-93 -305h59v-80h-84l-15 -48v-40h99v-81h-99v-158h-106v158h-99v81h99v40l-14 48h-85v80h60l-93 305h117l68 -282l69 282h117z" />
    <glyph glyph-name="brokenbar" unicode="&#xa6;" horiz-adv-x="330" 
d="M218 438h-106v346h106v-346zM218 -72h-106v346h106v-346z" />
    <glyph glyph-name="section" unicode="&#xa7;" horiz-adv-x="429" 
d="M384 270q0 -61 -9 -93t-40 -58q-14 -12 -26 -15q33 -21 49 -48q19 -32 19 -76q0 -71 -47 -118q-41 -42 -118 -42q-72 0 -116 44q-47 47 -47 113h108q0 -28 16 -45q15 -16 39 -16q27 0 41 14q15 15 15 41q0 21 -11 37q-14 20 -41 31l-73 31q-30 13 -50 32q-32 31 -40 66.5
t-8 101.5q0 58 9.5 89t39.5 57q15 11 28 16q-35 22 -51 49q-18 29 -18 75q0 66 46 112q44 44 116 44q63 0 106 -35q52 -43 52 -118h-106q0 29 -15 44q-15 16 -37 16q-23 0 -38 -15t-15 -39q0 -21 8 -35q12 -19 39 -30l72 -31q38 -15 59 -36q27 -28 35.5 -60t8.5 -103z
M278 270q0 28 -1 42t-6 31.5t-16 27.5q-17 15 -40 15t-41 -15q-23 -20 -23 -101q0 -82 23 -102q17 -14 41 -14q22 0 40 15q11 9 16 27t6 32t1 42z" />
    <glyph glyph-name="dieresis" unicode="&#xa8;" horiz-adv-x="399" 
d="M337 597h-100v100h100v-100zM162 597h-100v100h100v-100z" />
    <glyph glyph-name="copyright" unicode="&#xa9;" horiz-adv-x="844" 
d="M784 356q0 -150 -106 -256t-256 -106t-256 106t-106 256t106 256t256 106t256 -106t106 -256zM713 356q0 127 -84 212t-207 85t-207 -85t-84 -212t84 -212t207 -85t207 85t84 212zM527 269q-1 -57 -32 -88q-28 -28 -71 -28q-46 0 -77 36q-14 16 -20.5 46.5t-7.5 53.5
t-1 66t1 66t7.5 53.5t20.5 46.5q31 36 77 36q44 0 71 -27q29 -30 31 -88h-64q0 27 -9 40q-10 15 -29 15q-17 0 -28 -16q-14 -22 -14 -126t14 -126q11 -16 28 -16q18 0 28 13q10 12 10 43h65z" />
    <glyph glyph-name="ordfeminine" unicode="&#xaa;" horiz-adv-x="331" 
d="M289 294h-82v34q-14 -18 -28 -26q-21 -12 -47 -12q-51 0 -81 34q-26 29 -26 92q0 59 41 94q34 29 98 29h37v54q0 47 -40 47q-17 0 -30 -13q-11 -12 -11 -38h-88q0 57 36 93q35 35 92 35q59 0 92 -33q37 -37 37 -99v-291zM201 420v57h-28q-29 0 -43 -13q-17 -15 -17 -44
q0 -56 44 -56q19 0 31.5 15.5t12.5 40.5z" />
    <glyph glyph-name="guillemotleft" unicode="&#xab;" horiz-adv-x="414" 
d="M185 27l-161 249l161 248v-158l-61 -90l61 -92v-157zM367 27l-160 249l160 248v-158l-62 -90l62 -92v-157z" />
    <glyph glyph-name="logicalnot" unicode="&#xac;" horiz-adv-x="457" 
d="M407 142h-101v110h-255v101h356v-211z" />
    <glyph glyph-name="uni00AD" unicode="&#xad;" horiz-adv-x="295" 
d="M249 238h-202v101h202v-101z" />
    <glyph glyph-name="registered" unicode="&#xae;" horiz-adv-x="844" 
d="M784 356q0 -150 -106 -256t-256 -106t-256 106t-106 256t106 256t256 106t256 -106t106 -256zM713 356q0 127 -84 212t-207 85t-207 -85t-84 -212t84 -212t207 -85t207 85t84 212zM544 158h-67l-49 160h-35v-160h-65v394h104q50 0 74 -24q26 -27 26 -93q0 -62 -25 -88
q-7 -8 -19 -15zM468 435q0 34 -11 47q-10 10 -25 10h-39v-114h39q15 0 25 10q11 12 11 47z" />
    <glyph glyph-name="macron" unicode="&#xaf;" horiz-adv-x="399" 
d="M322 610h-245v71h245v-71z" />
    <glyph glyph-name="degree" unicode="&#xb0;" horiz-adv-x="410" 
d="M367 564q0 -67 -47.5 -114.5t-114.5 -47.5t-114.5 47.5t-47.5 114.5t47.5 114.5t114.5 47.5t114.5 -47.5t47.5 -114.5zM274 564q0 29 -20 49.5t-49 20.5t-49 -20.5t-20 -49.5t20 -49t49 -20t49 20t20 49z" />
    <glyph glyph-name="plusminus" unicode="&#xb1;" horiz-adv-x="457" 
d="M413 316h-134v-134h-101v134h-134v101h134v134h101v-134h134v-101zM413 13h-369v101h369v-101z" />
    <glyph glyph-name="twosuperior" unicode="&#xb2;" horiz-adv-x="317" 
d="M276 285h-231v56l133 203q21 32 21 72q0 19 -11.5 30t-29.5 11q-41 0 -41 -43v-30h-76v28q0 52 32 78q31 27 85 27q51 0 82 -24q36 -29 36 -79q0 -48 -29 -92l-119 -178h148v-59z" />
    <glyph glyph-name="threesuperior" unicode="&#xb3;" horiz-adv-x="317" 
d="M275 405q0 -37 -6 -58t-28 -40q-33 -27 -85 -27q-53 0 -86 28q-32 27 -32 80v18h77v-20q0 -25 11 -35q11 -11 30 -11q21 0 30 11q12 13 12 59q0 44 -11 57q-10 13 -32 13h-25v57h25q17 0 27 9q13 13 13 53q0 37 -11 48q-10 10 -28 10t-28 -10t-10 -31v-24h-77v20
q0 51 31 78q32 27 84 27q53 0 82 -26q33 -29 33 -88q0 -45 -14 -67q-11 -16 -31 -27q22 -11 34 -30q15 -24 15 -74z" />
    <glyph glyph-name="acute" unicode="&#xb4;" horiz-adv-x="399" 
d="M315 726l-87 -139h-74l72 139h89z" />
    <glyph glyph-name="uni00B5" unicode="&#xb5;" horiz-adv-x="421" 
d="M367 0h-102v40q-18 -24 -35 -33q-25 -15 -56 -15q-16 0 -22 8v-185h-102v712h106v-379q0 -29 15 -45t38 -16t37.5 15.5t14.5 45.5v379h106v-527z" />
    <glyph glyph-name="paragraph" unicode="&#xb6;" horiz-adv-x="602" 
d="M549 -185h-106v796h-101v-796h-106v471h-52q-148 0 -148 213t148 213h365v-897z" />
    <glyph glyph-name="periodcentered" unicode="&#xb7;" horiz-adv-x="272" 
d="M216 221h-160v160h160v-160z" />
    <glyph glyph-name="cedilla" unicode="&#xb8;" horiz-adv-x="399" 
d="M243 -40l-53 -154h-76l61 154h68z" />
    <glyph glyph-name="onesuperior" unicode="&#xb9;" horiz-adv-x="317" 
d="M212 285h-77v349l-75 -47v76l76 49h76v-427z" />
    <glyph glyph-name="ordmasculine" unicode="&#xba;" horiz-adv-x="329" 
d="M297 502q0 -129 -31 -170q-32 -44 -101 -44q-70 0 -102 44q-31 41 -31 170t31 170q32 44 102 44q69 0 101 -44q31 -41 31 -170zM209 502q0 98 -13 120q-11 17 -31 17q-21 0 -32 -17q-13 -23 -13 -120t13 -120q11 -17 32 -17q20 0 31 17q13 22 13 120z" />
    <glyph glyph-name="guillemotright" unicode="&#xbb;" horiz-adv-x="414" 
d="M389 276l-160 -249v157l61 92l-61 90v158zM207 276l-160 -249v157l62 92l-62 90v158z" />
    <glyph glyph-name="onequarter" unicode="&#xbc;" horiz-adv-x="785" 
d="M550 712l-246 -712h-82l246 712h82zM750 63h-34v-63h-76v63h-146v60l109 304h75l-106 -304h68v70h76v-70h34v-60zM211 285h-76v349l-75 -47v76l75 49h76v-427z" />
    <glyph glyph-name="onehalf" unicode="&#xbd;" horiz-adv-x="785" 
d="M550 712l-246 -712h-82l246 712h82zM744 0h-231v56l134 203q20 31 20 72q0 19 -11.5 30t-29.5 11q-40 0 -40 -43v-30h-77v28q0 52 32 78q31 27 85 27q52 0 83 -24q35 -28 35 -79q0 -48 -29 -92l-118 -178h147v-59zM211 285h-76v349l-75 -47v76l75 49h76v-427z" />
    <glyph glyph-name="threequarters" unicode="&#xbe;" horiz-adv-x="785" 
d="M550 712l-246 -712h-82l246 712h82zM275 405q0 -37 -6 -58t-28 -40q-33 -27 -85 -27q-53 0 -86 28q-32 27 -32 80v18h77v-20q0 -25 11 -35q11 -11 30 -11q21 0 30 11q12 13 12 59q0 44 -11 57q-10 13 -32 13h-25v57h25q17 0 27 9q13 13 13 53q0 37 -11 48q-10 10 -28 10
t-28 -10t-10 -31v-24h-77v20q0 51 31 78q32 27 84 27q53 0 82 -26q33 -29 33 -88q0 -45 -14 -67q-11 -16 -31 -27q22 -11 34 -30q15 -24 15 -74zM750 63h-34v-63h-77v63h-146v60l110 304h74l-105 -304h67v70h77v-70h34v-60z" />
    <glyph glyph-name="questiondown" unicode="&#xbf;" horiz-adv-x="426" 
d="M370 1q0 -101 -47 -145q-51 -47 -120 -47q-78 0 -122 46q-48 48 -48 149q0 78 34 123l59 78q23 31 23 65v58h106v-70q0 -45 -31 -86l-59 -78q-26 -34 -26 -93q0 -55 20 -78q17 -19 43 -19t43 19q19 21 19 78h106zM264 404h-123v123h123v-123z" />
    <glyph glyph-name="Agrave" unicode="&#xc0;" horiz-adv-x="468" 
d="M462 0h-117l-29 141h-165l-28 -141h-118l175 712h109zM295 242l-61 298l-61 -298h122zM280 760h-74l-88 139h90z" />
    <glyph glyph-name="Aacute" unicode="&#xc1;" horiz-adv-x="468" 
d="M462 0h-117l-29 141h-165l-28 -141h-118l175 712h109zM295 242l-61 298l-61 -298h122zM350 899l-87 -139h-74l72 139h89z" />
    <glyph glyph-name="Acircumflex" unicode="&#xc2;" horiz-adv-x="468" 
d="M462 0h-117l-29 141h-165l-28 -141h-118l175 712h109zM295 242l-61 298l-61 -298h122zM375 760h-81l-60 82l-59 -82h-81l99 139h83z" />
    <glyph glyph-name="Atilde" unicode="&#xc3;" horiz-adv-x="468" 
d="M462 0h-117l-29 141h-165l-28 -141h-118l175 712h109zM295 242l-61 298l-61 -298h122zM381 814q-46 -46 -90 -46q-30 0 -61 17q-25 15 -44 15q-23 0 -46 -23l-46 46q47 47 89 47q33 0 62 -17q25 -15 44 -15q23 0 45 23z" />
    <glyph glyph-name="Adieresis" unicode="&#xc4;" horiz-adv-x="468" 
d="M462 0h-117l-29 141h-165l-28 -141h-118l175 712h109zM295 242l-61 298l-61 -298h122zM372 770h-100v100h100v-100zM197 770h-100v100h100v-100z" />
    <glyph glyph-name="Aring" unicode="&#xc5;" horiz-adv-x="468" 
d="M462 0h-117l-29 141h-165l-28 -141h-118l175 712h109zM295 242l-61 298l-61 -298h122zM339 858q0 -43 -30.5 -73.5t-74.5 -30.5q-43 0 -73.5 30.5t-30.5 73.5t30.5 73.5t73.5 30.5q44 0 74.5 -30.5t30.5 -73.5zM280 858q0 19 -13.5 32.5t-32.5 13.5t-32 -13.5t-13 -32.5
t13 -32.5t32 -13.5t32.5 13.5t13.5 32.5z" />
    <glyph glyph-name="AE" unicode="&#xc6;" horiz-adv-x="675" 
d="M638 0h-299v148h-158l-52 -148h-123l261 712h371v-101h-187v-202h161v-101h-161v-207h187v-101zM339 249v362l-125 -362h125z" />
    <glyph glyph-name="Ccedilla" unicode="&#xc7;" horiz-adv-x="447" 
d="M413 189q-3 -101 -59 -152q-50 -45 -123 -45q-85 0 -138 60q-25 28 -37 79t-13.5 91.5t-1.5 132.5t1.5 133t13.5 92.5t37 79.5q53 60 138 60q75 0 124 -46q54 -51 57 -150h-112q-2 46 -17 69q-16 26 -52 26t-53 -27q-25 -40 -25 -236t25 -236q17 -27 53 -27q37 0 53 26
q15 23 17 70h112zM267 -40l-53 -154h-76l61 154h68z" />
    <glyph glyph-name="Egrave" unicode="&#xc8;" 
d="M359 0h-299v712h299v-101h-187v-202h161v-101h-161v-207h187v-101zM259 760h-74l-88 139h90z" />
    <glyph glyph-name="Eacute" unicode="&#xc9;" 
d="M359 0h-299v712h299v-101h-187v-202h161v-101h-161v-207h187v-101zM329 899l-87 -139h-74l72 139h89z" />
    <glyph glyph-name="Ecircumflex" unicode="&#xca;" 
d="M359 0h-299v712h299v-101h-187v-202h161v-101h-161v-207h187v-101zM354 760h-81l-60 82l-59 -82h-81l99 139h83z" />
    <glyph glyph-name="Edieresis" unicode="&#xcb;" 
d="M359 0h-299v712h299v-101h-187v-202h161v-101h-161v-207h187v-101zM351 770h-100v100h100v-100zM176 770h-100v100h100v-100z" />
    <glyph glyph-name="Igrave" unicode="&#xcc;" horiz-adv-x="232" 
d="M172 0h-112v712h112v-712zM162 760h-74l-88 139h90z" />
    <glyph glyph-name="Iacute" unicode="&#xcd;" horiz-adv-x="232" 
d="M172 0h-112v712h112v-712zM232 899l-87 -139h-74l72 139h89z" />
    <glyph glyph-name="Icircumflex" unicode="&#xce;" horiz-adv-x="232" 
d="M172 0h-112v712h112v-712zM257 760h-81l-60 82l-59 -82h-81l99 139h83z" />
    <glyph glyph-name="Idieresis" unicode="&#xcf;" horiz-adv-x="232" 
d="M172 0h-112v712h112v-712zM254 770h-100v100h100v-100zM79 770h-100v100h100v-100z" />
    <glyph glyph-name="Eth" unicode="&#xd0;" horiz-adv-x="489" 
d="M448 356q0 -90 -1.5 -130t-13.5 -89.5t-37 -77.5q-52 -59 -138 -59h-181v314h-51v88h51v310h181q86 0 138 -59q25 -28 37 -77.5t13.5 -89.5t1.5 -130zM336 357q0 102 -4.5 152t-19.5 73q-19 29 -57 29h-66v-209h70v-88h-70v-213h66q38 0 57 29q15 23 19.5 74t4.5 153z
" />
    <glyph glyph-name="Ntilde" unicode="&#xd1;" horiz-adv-x="499" 
d="M439 0h-99l-168 423v-423h-112v712h100l167 -423v423h112v-712zM396 814q-46 -46 -90 -46q-30 0 -61 17q-25 15 -44 15q-23 0 -46 -23l-46 46q47 47 89 47q33 0 62 -17q25 -15 44 -15q23 0 45 23z" />
    <glyph glyph-name="Ograve" unicode="&#xd2;" horiz-adv-x="462" 
d="M421 356q0 -92 -1.5 -133t-13.5 -92t-37 -79q-53 -60 -138 -60t-138 60q-25 28 -37 79t-13.5 92t-1.5 133t1.5 133t13.5 92t37 79q53 60 138 60t138 -60q25 -28 37 -79t13.5 -92t1.5 -133zM309 356q0 107 -4.5 159.5t-19.5 76.5q-17 27 -54 27q-36 0 -53 -27
q-25 -40 -25 -236t25 -236q17 -27 53 -27q37 0 54 27q15 24 19.5 76.5t4.5 159.5zM277 760h-74l-88 139h90z" />
    <glyph glyph-name="Oacute" unicode="&#xd3;" horiz-adv-x="462" 
d="M421 356q0 -92 -1.5 -133t-13.5 -92t-37 -79q-53 -60 -138 -60t-138 60q-25 28 -37 79t-13.5 92t-1.5 133t1.5 133t13.5 92t37 79q53 60 138 60t138 -60q25 -28 37 -79t13.5 -92t1.5 -133zM309 356q0 107 -4.5 159.5t-19.5 76.5q-17 27 -54 27q-36 0 -53 -27
q-25 -40 -25 -236t25 -236q17 -27 53 -27q37 0 54 27q15 24 19.5 76.5t4.5 159.5zM347 899l-87 -139h-74l72 139h89z" />
    <glyph glyph-name="Ocircumflex" unicode="&#xd4;" horiz-adv-x="462" 
d="M421 356q0 -92 -1.5 -133t-13.5 -92t-37 -79q-53 -60 -138 -60t-138 60q-25 28 -37 79t-13.5 92t-1.5 133t1.5 133t13.5 92t37 79q53 60 138 60t138 -60q25 -28 37 -79t13.5 -92t1.5 -133zM309 356q0 107 -4.5 159.5t-19.5 76.5q-17 27 -54 27q-36 0 -53 -27
q-25 -40 -25 -236t25 -236q17 -27 53 -27q37 0 54 27q15 24 19.5 76.5t4.5 159.5zM372 760h-81l-60 82l-59 -82h-81l99 139h83z" />
    <glyph glyph-name="Otilde" unicode="&#xd5;" horiz-adv-x="462" 
d="M421 356q0 -92 -1.5 -133t-13.5 -92t-37 -79q-53 -60 -138 -60t-138 60q-25 28 -37 79t-13.5 92t-1.5 133t1.5 133t13.5 92t37 79q53 60 138 60t138 -60q25 -28 37 -79t13.5 -92t1.5 -133zM309 356q0 107 -4.5 159.5t-19.5 76.5q-17 27 -54 27q-36 0 -53 -27
q-25 -40 -25 -236t25 -236q17 -27 53 -27q37 0 54 27q15 24 19.5 76.5t4.5 159.5zM378 814q-46 -46 -90 -46q-30 0 -61 17q-25 15 -44 15q-23 0 -46 -23l-46 46q47 47 89 47q33 0 62 -17q25 -15 44 -15q23 0 45 23z" />
    <glyph glyph-name="Odieresis" unicode="&#xd6;" horiz-adv-x="462" 
d="M421 356q0 -92 -1.5 -133t-13.5 -92t-37 -79q-53 -60 -138 -60t-138 60q-25 28 -37 79t-13.5 92t-1.5 133t1.5 133t13.5 92t37 79q53 60 138 60t138 -60q25 -28 37 -79t13.5 -92t1.5 -133zM309 356q0 107 -4.5 159.5t-19.5 76.5q-17 27 -54 27q-36 0 -53 -27
q-25 -40 -25 -236t25 -236q17 -27 53 -27q37 0 54 27q15 24 19.5 76.5t4.5 159.5zM369 770h-100v100h100v-100zM194 770h-100v100h100v-100z" />
    <glyph glyph-name="multiply" unicode="&#xd7;" horiz-adv-x="457" 
d="M413 170l-68 -68l-116 116l-116 -116l-68 68l116 116l-116 116l68 68l116 -115l116 115l68 -68l-116 -116z" />
    <glyph glyph-name="Oslash" unicode="&#xd8;" horiz-adv-x="457" 
d="M422 356q0 -92 -1.5 -133t-13.5 -92t-37 -79q-53 -60 -139 -60q-51 0 -87 19l-19 -55h-74l37 102q-23 28 -33.5 79.5t-12 91.5t-1.5 127q0 92 1.5 133t13.5 92t37 79q53 60 138 60q51 0 87 -19l20 55h74l-37 -103q23 -28 33.5 -79.5t12 -91t1.5 -126.5zM281 598
q-18 21 -50 21q-36 0 -53 -27q-25 -40 -25 -236q0 -93 5 -127zM309 356q0 99 -4 126l-123 -368q16 -21 49 -21q37 0 54 27q15 24 19.5 76.5t4.5 159.5z" />
    <glyph glyph-name="Ugrave" unicode="&#xd9;" horiz-adv-x="471" 
d="M417 175q0 -80 -49 -131q-51 -52 -132 -52q-82 0 -133 52q-49 51 -49 131v537h112v-543q0 -37 20 -56.5t50 -19.5t49.5 19.5t19.5 56.5v543h112v-537zM281 760h-74l-88 139h90z" />
    <glyph glyph-name="Uacute" unicode="&#xda;" horiz-adv-x="471" 
d="M417 175q0 -80 -49 -131q-51 -52 -132 -52q-82 0 -133 52q-49 51 -49 131v537h112v-543q0 -37 20 -56.5t50 -19.5t49.5 19.5t19.5 56.5v543h112v-537zM351 899l-87 -139h-74l72 139h89z" />
    <glyph glyph-name="Ucircumflex" unicode="&#xdb;" horiz-adv-x="471" 
d="M417 175q0 -80 -49 -131q-51 -52 -132 -52q-82 0 -133 52q-49 51 -49 131v537h112v-543q0 -37 20 -56.5t50 -19.5t49.5 19.5t19.5 56.5v543h112v-537zM376 760h-81l-60 82l-59 -82h-81l99 139h83z" />
    <glyph glyph-name="Udieresis" unicode="&#xdc;" horiz-adv-x="471" 
d="M417 175q0 -80 -49 -131q-51 -52 -132 -52q-82 0 -133 52q-49 51 -49 131v537h112v-543q0 -37 20 -56.5t50 -19.5t49.5 19.5t19.5 56.5v543h112v-537zM373 770h-100v100h100v-100zM198 770h-100v100h100v-100z" />
    <glyph glyph-name="Yacute" unicode="&#xdd;" horiz-adv-x="389" 
d="M388 712l-138 -433v-279h-112v279l-138 433h124l70 -282l71 282h123zM312 899l-87 -139h-74l72 139h89z" />
    <glyph glyph-name="Thorn" unicode="&#xde;" horiz-adv-x="459" 
d="M422 361q0 -111 -42 -164.5t-141 -53.5h-67v-143h-112v712h112v-135h67q96 0 139.5 -52t43.5 -164zM310 360q0 56 -14 86t-55 30h-69v-232h69q41 0 55 30t14 86z" />
    <glyph glyph-name="germandbls" unicode="&#xdf;" horiz-adv-x="416" 
d="M381 215q0 -46 -1.5 -69t-12.5 -54t-33 -52q-41 -40 -122 -40v95q33 0 46 17q8 10 12 30t4.5 33.5t0.5 48.5q0 83 -15 105q-13 19 -40 19h-8v89h8q22 0 34 17q14 19 14 75q0 58 -15 78q-13 18 -41 18q-24 0 -39 -16.5t-15 -47.5v-561h-106v558q0 76 45 119t114 43
q75 0 116 -41q47 -47 47 -141q0 -67 -17 -101q-13 -25 -38 -43q26 -18 39 -41q23 -39 23 -138z" />
    <glyph glyph-name="agrave" unicode="&#xe0;" horiz-adv-x="399" 
d="M350 0h-100v45q-18 -25 -32 -35q-26 -18 -60 -18q-61 0 -99 44q-32 38 -32 118q0 75 49 118q41 36 121 36h47v73q0 61 -51 61q-22 0 -35 -15q-16 -17 -16 -49h-106q0 69 45 114q43 43 111 43q74 0 112 -39q46 -46 46 -124v-372zM244 155v78h-35q-38 0 -55 -16
q-21 -19 -21 -59q0 -73 55 -73q24 0 40 19t16 51zM242 587h-74l-88 139h90z" />
    <glyph glyph-name="aacute" unicode="&#xe1;" horiz-adv-x="399" 
d="M350 0h-100v45q-18 -25 -32 -35q-26 -18 -60 -18q-61 0 -99 44q-32 38 -32 118q0 75 49 118q41 36 121 36h47v73q0 61 -51 61q-22 0 -35 -15q-16 -17 -16 -49h-106q0 69 45 114q43 43 111 43q74 0 112 -39q46 -46 46 -124v-372zM244 155v78h-35q-38 0 -55 -16
q-21 -19 -21 -59q0 -73 55 -73q24 0 40 19t16 51zM313 726l-88 -139h-74l72 139h90z" />
    <glyph glyph-name="acircumflex" unicode="&#xe2;" horiz-adv-x="399" 
d="M350 0h-100v45q-18 -25 -32 -35q-26 -18 -60 -18q-61 0 -99 44q-32 38 -32 118q0 75 49 118q41 36 121 36h47v73q0 61 -51 61q-22 0 -35 -15q-16 -17 -16 -49h-106q0 69 45 114q43 43 111 43q74 0 112 -39q46 -46 46 -124v-372zM244 155v78h-35q-38 0 -55 -16
q-21 -19 -21 -59q0 -73 55 -73q24 0 40 19t16 51zM336 587h-82l-59 82l-59 -82h-82l99 139h84z" />
    <glyph glyph-name="atilde" unicode="&#xe3;" horiz-adv-x="399" 
d="M350 0h-100v45q-18 -25 -32 -35q-26 -18 -60 -18q-61 0 -99 44q-32 38 -32 118q0 75 49 118q41 36 121 36h47v73q0 61 -51 61q-22 0 -35 -15q-16 -17 -16 -49h-106q0 69 45 114q43 43 111 43q74 0 112 -39q46 -46 46 -124v-372zM244 155v78h-35q-38 0 -55 -16
q-21 -19 -21 -59q0 -73 55 -73q24 0 40 19t16 51zM342 642q-46 -47 -90 -47q-30 0 -61 17q-25 15 -44 15q-23 0 -46 -23l-46 46q47 47 89 47q33 0 62 -17q25 -15 44 -15q23 0 45 23z" />
    <glyph glyph-name="adieresis" unicode="&#xe4;" horiz-adv-x="399" 
d="M350 0h-100v45q-18 -25 -32 -35q-26 -18 -60 -18q-61 0 -99 44q-32 38 -32 118q0 75 49 118q41 36 121 36h47v73q0 61 -51 61q-22 0 -35 -15q-16 -17 -16 -49h-106q0 69 45 114q43 43 111 43q74 0 112 -39q46 -46 46 -124v-372zM244 155v78h-35q-38 0 -55 -16
q-21 -19 -21 -59q0 -73 55 -73q24 0 40 19t16 51zM333 597h-100v100h100v-100zM157 597h-99v100h99v-100z" />
    <glyph glyph-name="aring" unicode="&#xe5;" horiz-adv-x="399" 
d="M350 0h-100v45q-18 -25 -32 -35q-26 -18 -60 -18q-61 0 -99 44q-32 38 -32 118q0 75 49 118q41 36 121 36h47v73q0 61 -51 61q-22 0 -35 -15q-16 -17 -16 -49h-106q0 69 45 114q43 43 111 43q74 0 112 -39q46 -46 46 -124v-372zM244 155v78h-35q-38 0 -55 -16
q-21 -19 -21 -59q0 -73 55 -73q24 0 40 19t16 51zM300 689q0 -43 -31 -73.5t-74 -30.5t-73.5 30.5t-30.5 73.5q0 44 30.5 74.5t73.5 30.5q44 0 74.5 -30.5t30.5 -74.5zM241 689q0 19 -13.5 32.5t-32.5 13.5t-32.5 -13.5t-13.5 -32.5t13.5 -32t32.5 -13t32.5 13t13.5 32z" />
    <glyph glyph-name="ae" unicode="&#xe6;" horiz-adv-x="602" 
d="M567 233h-217q0 -102 16 -125q14 -21 40 -21q25 0 41 21q13 16 13 47h105q-3 -76 -44 -121q-38 -42 -115 -42q-51 0 -89 26q-24 17 -41 44q-22 -35 -42 -48q-30 -22 -76 -22q-61 0 -99 44q-32 38 -32 118q0 75 49 118q41 36 121 36h47v74q0 29 -13.5 44.5t-37.5 15.5
t-37 -16q-14 -17 -14 -48h-106q0 69 45 114q43 43 111 43q56 0 88 -24q13 -11 19 -21q10 12 16 17q35 28 91 28q74 0 113 -42q8 -9 15 -19.5t11.5 -24.5t8 -24.5t6 -30t4 -29.5t2 -33.5t1 -31.5t0.5 -34.5v-32.5zM244 155v78h-35q-38 0 -55 -16q-21 -19 -21 -59
q0 -73 55 -73q24 0 40 19t16 51zM461 311q0 90 -15 109q-16 21 -40 21t-40 -21q-16 -20 -16 -109h111z" />
    <glyph glyph-name="ccedilla" unicode="&#xe7;" horiz-adv-x="384" 
d="M356 155q-5 -83 -46 -124q-39 -39 -112 -39q-85 0 -125 56q-37 50 -37 216q0 164 37 216q40 55 125 55q71 0 111 -37q41 -40 47 -125h-105q-2 34 -14 49q-13 19 -39 19q-27 0 -41 -22q-15 -26 -15 -155t15 -156q13 -21 41 -21q26 0 39 18q12 15 14 50h105zM243 -40
l-53 -154h-76l61 154h68z" />
    <glyph glyph-name="egrave" unicode="&#xe8;" horiz-adv-x="394" 
d="M359 233h-217q0 -102 16 -125q14 -21 41 -21q24 0 40 21q13 16 13 47h105q-3 -76 -44 -121q-38 -42 -114 -42q-71 0 -114 43q-31 31 -40 86t-9 143t9 143t40 86q42 42 113 42q74 0 113 -42q8 -9 15 -19.5t11.5 -24.5t8 -24.5t6 -30t4 -29.5t2 -33.5t1 -31.5t0.5 -34.5
v-32.5zM253 311q0 90 -15 109q-16 21 -40 21t-40 -21q-16 -20 -16 -109h111zM245 587h-74l-88 139h90z" />
    <glyph glyph-name="eacute" unicode="&#xe9;" horiz-adv-x="394" 
d="M359 233h-217q0 -102 16 -125q14 -21 41 -21q24 0 40 21q13 16 13 47h105q-3 -76 -44 -121q-38 -42 -114 -42q-71 0 -114 43q-31 31 -40 86t-9 143t9 143t40 86q42 42 113 42q74 0 113 -42q8 -9 15 -19.5t11.5 -24.5t8 -24.5t6 -30t4 -29.5t2 -33.5t1 -31.5t0.5 -34.5
v-32.5zM253 311q0 90 -15 109q-16 21 -40 21t-40 -21q-16 -20 -16 -109h111zM316 726l-88 -139h-74l72 139h90z" />
    <glyph glyph-name="ecircumflex" unicode="&#xea;" horiz-adv-x="394" 
d="M359 233h-217q0 -102 16 -125q14 -21 41 -21q24 0 40 21q13 16 13 47h105q-3 -76 -44 -121q-38 -42 -114 -42q-71 0 -114 43q-31 31 -40 86t-9 143t9 143t40 86q42 42 113 42q74 0 113 -42q8 -9 15 -19.5t11.5 -24.5t8 -24.5t6 -30t4 -29.5t2 -33.5t1 -31.5t0.5 -34.5
v-32.5zM253 311q0 90 -15 109q-16 21 -40 21t-40 -21q-16 -20 -16 -109h111zM339 587h-82l-59 82l-59 -82h-82l99 139h84z" />
    <glyph glyph-name="edieresis" unicode="&#xeb;" horiz-adv-x="394" 
d="M359 233h-217q0 -102 16 -125q14 -21 41 -21q24 0 40 21q13 16 13 47h105q-3 -76 -44 -121q-38 -42 -114 -42q-71 0 -114 43q-31 31 -40 86t-9 143t9 143t40 86q42 42 113 42q74 0 113 -42q8 -9 15 -19.5t11.5 -24.5t8 -24.5t6 -30t4 -29.5t2 -33.5t1 -31.5t0.5 -34.5
v-32.5zM253 311q0 90 -15 109q-16 21 -40 21t-40 -21q-16 -20 -16 -109h111zM336 597h-100v100h100v-100zM160 597h-99v100h99v-100z" />
    <glyph glyph-name="igrave" unicode="&#xec;" horiz-adv-x="210" 
d="M159 0h-106v513h106v-513zM151 587h-74l-88 139h90z" />
    <glyph glyph-name="iacute" unicode="&#xed;" horiz-adv-x="210" 
d="M159 0h-106v513h106v-513zM223 726l-88 -139h-74l72 139h90z" />
    <glyph glyph-name="icircumflex" unicode="&#xee;" horiz-adv-x="210" 
d="M159 0h-106v513h106v-513zM246 587h-82l-59 82l-59 -82h-82l99 139h84z" />
    <glyph glyph-name="idieresis" unicode="&#xef;" horiz-adv-x="210" 
d="M158 0h-106v513h106v-513zM244 597h-100v100h100v-100zM69 597h-100v100h100v-100z" />
    <glyph glyph-name="eth" unicode="&#xf0;" horiz-adv-x="400" 
d="M362 243q0 -149 -39 -199q-40 -52 -124 -52q-83 0 -123 52q-39 50 -39 199q0 91 7 138.5t31 74.5q34 38 94 38q35 0 60 -17l-30 92h-75v78h51l-23 65h107l22 -65h70v-78h-47l31 -101q27 -90 27 -225zM256 245q0 114 -16 139q-12 20 -41 20q-28 0 -40 -20
q-16 -25 -16 -139q0 -113 16 -138q12 -20 40 -20q29 0 41 20q16 25 16 138z" />
    <glyph glyph-name="ntilde" unicode="&#xf1;" horiz-adv-x="417" 
d="M368 0h-106v379q0 30 -14.5 45.5t-37.5 15.5t-37.5 -15.5t-14.5 -45.5v-379h-106v527h102v-39q18 24 35 33q23 14 53 14q61 0 96 -41q30 -34 30 -114v-380zM358 642q-46 -47 -90 -47q-30 0 -61 17q-25 15 -44 15q-23 0 -46 -23l-46 46q47 47 89 47q33 0 62 -17
q25 -15 44 -15q23 0 45 23z" />
    <glyph glyph-name="ograve" unicode="&#xf2;" 
d="M360 264q0 -164 -37 -216q-40 -56 -125 -56t-125 56q-37 52 -37 216t37 216q40 55 125 55t125 -55q37 -52 37 -216zM254 264q0 129 -15 155q-14 22 -41 22t-41 -22q-15 -26 -15 -155q0 -130 15 -156q13 -21 41 -21q27 0 41 21q15 26 15 156zM245 587h-74l-88 139h90z" />
    <glyph glyph-name="oacute" unicode="&#xf3;" 
d="M360 264q0 -164 -37 -216q-40 -56 -125 -56t-125 56q-37 52 -37 216t37 216q40 55 125 55t125 -55q37 -52 37 -216zM254 264q0 129 -15 155q-14 22 -41 22t-41 -22q-15 -26 -15 -155q0 -130 15 -156q13 -21 41 -21q27 0 41 21q15 26 15 156zM316 726l-88 -139h-74l72 139
h90z" />
    <glyph glyph-name="ocircumflex" unicode="&#xf4;" 
d="M360 264q0 -164 -37 -216q-40 -56 -125 -56t-125 56q-37 52 -37 216t37 216q40 55 125 55t125 -55q37 -52 37 -216zM254 264q0 129 -15 155q-14 22 -41 22t-41 -22q-15 -26 -15 -155q0 -130 15 -156q13 -21 41 -21q27 0 41 21q15 26 15 156zM339 587h-82l-59 82l-59 -82
h-82l99 139h84z" />
    <glyph glyph-name="otilde" unicode="&#xf5;" 
d="M360 264q0 -164 -37 -216q-40 -56 -125 -56t-125 56q-37 52 -37 216t37 216q40 55 125 55t125 -55q37 -52 37 -216zM254 264q0 129 -15 155q-14 22 -41 22t-41 -22q-15 -26 -15 -155q0 -130 15 -156q13 -21 41 -21q27 0 41 21q15 26 15 156zM345 642q-46 -47 -90 -47
q-30 0 -61 17q-25 15 -44 15q-23 0 -46 -23l-46 46q47 47 89 47q33 0 62 -17q25 -15 44 -15q23 0 45 23z" />
    <glyph glyph-name="odieresis" unicode="&#xf6;" 
d="M360 264q0 -164 -37 -216q-40 -56 -125 -56t-125 56q-37 52 -37 216t37 216q40 55 125 55t125 -55q37 -52 37 -216zM254 264q0 129 -15 155q-14 22 -41 22t-41 -22q-15 -26 -15 -155q0 -130 15 -156q13 -21 41 -21q27 0 41 21q15 26 15 156zM336 597h-100v100h100v-100z
M160 597h-99v100h99v-100z" />
    <glyph glyph-name="divide" unicode="&#xf7;" horiz-adv-x="457" 
d="M413 229h-369v101h369v-101zM291 32h-124v123h124v-123zM291 403h-124v123h124v-123z" />
    <glyph glyph-name="oslash" unicode="&#xf8;" horiz-adv-x="394" 
d="M367 571l-41 -95q34 -50 34 -212q0 -164 -37 -216q-40 -56 -125 -56q-47 0 -77 15l-21 -51h-71l41 96q-34 50 -34 212q0 164 37 216q40 55 125 55q47 0 77 -15l21 51h71zM235 429q-14 16 -37 16q-28 0 -41 -22q-16 -27 -16 -159q0 -45 3 -60zM255 264q0 49 -3 59
l-91 -225q14 -16 37 -16q27 0 41 23q16 27 16 159z" />
    <glyph glyph-name="ugrave" unicode="&#xf9;" horiz-adv-x="417" 
d="M365 0h-101v40q-17 -23 -36 -33q-25 -15 -53 -15q-61 0 -96 41q-30 34 -30 114v380h106v-379q0 -30 14.5 -45.5t37.5 -15.5t37.5 15.5t14.5 45.5v379h106v-527zM254 587h-74l-88 139h90z" />
    <glyph glyph-name="uacute" unicode="&#xfa;" horiz-adv-x="417" 
d="M365 0h-101v40q-17 -23 -36 -33q-25 -15 -53 -15q-61 0 -96 41q-30 34 -30 114v380h106v-379q0 -30 14.5 -45.5t37.5 -15.5t37.5 15.5t14.5 45.5v379h106v-527zM325 726l-88 -139h-74l72 139h90z" />
    <glyph glyph-name="ucircumflex" unicode="&#xfb;" horiz-adv-x="417" 
d="M365 0h-101v40q-17 -23 -36 -33q-25 -15 -53 -15q-61 0 -96 41q-30 34 -30 114v380h106v-379q0 -30 14.5 -45.5t37.5 -15.5t37.5 15.5t14.5 45.5v379h106v-527zM348 587h-82l-59 82l-59 -82h-82l99 139h84z" />
    <glyph glyph-name="udieresis" unicode="&#xfc;" horiz-adv-x="417" 
d="M365 0h-101v40q-17 -23 -36 -33q-25 -15 -53 -15q-61 0 -96 41q-30 34 -30 114v380h106v-379q0 -30 14.5 -45.5t37.5 -15.5t37.5 15.5t14.5 45.5v379h106v-527zM345 597h-100v100h100v-100zM169 597h-99v100h99v-100z" />
    <glyph glyph-name="yacute" unicode="&#xfd;" horiz-adv-x="382" 
d="M377 527l-148 -594q-18 -73 -65.5 -95.5t-131.5 -22.5v94q28 1 43 3.5t30 15t21 36.5l9 37l-131 526h117l70 -359l69 359h117zM311 726l-88 -139h-74l72 139h90z" />
    <glyph glyph-name="thorn" unicode="&#xfe;" horiz-adv-x="411" 
d="M374 264q0 -98 -7 -149.5t-31 -81.5q-34 -41 -92 -41q-31 0 -54 14q-18 10 -31 28v-219h-106v897h102v-224q5 8 16 18.5t19 14.5q23 14 54 14q59 0 92 -41q24 -30 31 -81t7 -149zM268 264q0 128 -16 155q-14 22 -40 22q-22 0 -36 -14q-17 -17 -17 -50v-227q0 -33 17 -50
q13 -13 36 -13q26 0 40 21q16 27 16 156z" />
    <glyph glyph-name="ydieresis" unicode="&#xff;" horiz-adv-x="382" 
d="M377 527l-148 -594q-18 -73 -65.5 -95.5t-131.5 -22.5v94q28 1 43 3.5t30 15t21 36.5l9 37l-131 526h117l70 -359l69 359h117zM331 597h-100v100h100v-100zM155 597h-99v100h99v-100z" />
    <glyph glyph-name="dotlessi" unicode="&#x131;" horiz-adv-x="210" 
d="M159 0h-106v513h106v-513z" />
    <glyph glyph-name="Lslash" unicode="&#x141;" horiz-adv-x="395" 
d="M372 0h-299v257l-47 -40v106l47 39v350h112v-260l93 78v-105l-93 -79v-245h187v-101z" />
    <glyph glyph-name="lslash" unicode="&#x142;" horiz-adv-x="272" 
d="M252 0q-83 0 -124 32q-54 41 -54 128v138l-52 -47v100l52 46v315h106v-229l53 47v-99l-53 -47v-218q0 -71 72 -71v-95z" />
    <glyph glyph-name="OE" unicode="&#x152;" horiz-adv-x="642" 
d="M604 0h-288v27q-35 -35 -90 -35q-86 0 -133 60q-31 40 -41.5 112.5t-10.5 191.5q0 123 10 194t42 110q48 60 133 60q57 0 90 -35v27h288v-101h-187v-202h161v-101h-161v-207h187v-101zM309 356q0 107 -4.5 159.5t-19.5 76.5q-17 27 -54 27q-36 0 -53 -27
q-25 -40 -25 -236t25 -236q17 -27 53 -27q37 0 54 27q15 24 19.5 76.5t4.5 159.5z" />
    <glyph glyph-name="oe" unicode="&#x153;" horiz-adv-x="613" 
d="M578 233h-218q0 -102 16 -125q14 -21 41 -21q24 0 40 21q13 16 13 47h105q-3 -76 -44 -121q-38 -42 -114 -42q-53 0 -91 31q-7 5 -17 19q-6 -10 -18 -20q-38 -30 -93 -30q-85 0 -125 56q-37 52 -37 216t37 216q40 55 125 55q58 0 95 -31q9 -8 15 -18q8 11 19 19
q38 30 89 30q74 0 113 -42q22 -23 33.5 -66t13.5 -78.5t2 -94.5v-21zM254 264q0 129 -15 155q-14 22 -41 22t-41 -22q-15 -26 -15 -155q0 -130 15 -156q13 -21 41 -21q27 0 41 21q15 26 15 156zM472 311q0 89 -16 109q-16 21 -40 21t-40 -21q-16 -20 -16 -109h112z" />
    <glyph glyph-name="Scaron" unicode="&#x160;" horiz-adv-x="442" 
d="M404 197q0 -112 -46 -157q-49 -47 -139 -47q-91 0 -138 47q-46 46 -46 153h112q0 -57 20 -80q17 -19 52 -19q37 0 54 20q19 22 19 79t-12.5 78.5t-54.5 38.5l-85 35q-55 23 -77 60.5t-22 118.5q0 99 58 151q49 43 122 43q83 0 128 -43q50 -49 50 -155h-112q0 54 -17 76
q-16 21 -50 21q-30 0 -48 -20q-19 -22 -19 -70q0 -44 11 -62.5t48 -33.5l84 -34q63 -26 85.5 -68t22.5 -132zM370 897l-99 -140h-83l-99 140h81l59 -82l60 82h81z" />
    <glyph glyph-name="scaron" unicode="&#x161;" horiz-adv-x="381" 
d="M352 152q0 -70 -47 -117q-43 -43 -115 -43q-75 0 -116 43q-47 49 -47 119h105q0 -32 18 -50q15 -16 40 -16t41 15q15 14 15 42q0 23 -11 39q-12 18 -41 30l-70 31q-54 24 -77 61q-17 27 -17 72q0 65 46 113q44 44 114 44q69 0 111 -40q45 -43 45 -117h-104q0 32 -15 48
t-37 16q-24 0 -39 -15t-15 -40q0 -19 8 -31q11 -18 39 -30l70 -30q54 -24 77 -58q22 -31 22 -86zM335 724l-99 -140h-84l-99 140h82l59 -82l59 82h82z" />
    <glyph glyph-name="Ydieresis" unicode="&#x178;" horiz-adv-x="389" 
d="M388 712l-138 -433v-279h-112v279l-138 433h124l70 -282l71 282h123zM333 770h-100v100h100v-100zM158 770h-100v100h100v-100z" />
    <glyph glyph-name="Zcaron" unicode="&#x17d;" horiz-adv-x="373" 
d="M341 0h-310v84l194 527h-182v101h298v-84l-193 -527h193v-101zM335 897l-99 -140h-83l-99 140h81l59 -82l60 82h81z" />
    <glyph glyph-name="zcaron" unicode="&#x17e;" horiz-adv-x="325" 
d="M299 0h-273v80l154 353h-142v94h261v-79l-154 -353h154v-95zM312 724l-99 -140h-84l-99 140h82l59 -82l59 82h82z" />
    <glyph glyph-name="florin" unicode="&#x192;" horiz-adv-x="365" 
d="M342 624h-41q-23 0 -39 -14t-20 -36l-33 -186h75v-80h-90l-89 -493h-105l89 493h-52v80h67l33 192q12 69 57 104t104 35h44v-95z" />
    <glyph glyph-name="dotlessj" unicode="&#x237;" horiz-adv-x="210" 
d="M158 -25q0 -86 -54 -127q-43 -33 -124 -33v95q37 0 54.5 16t17.5 55v532h106v-538z" />
    <glyph glyph-name="circumflex" unicode="&#x2c6;" 
d="M339 587h-82l-59 82l-59 -82h-82l99 139h84z" />
    <glyph glyph-name="caron" unicode="&#x2c7;" 
d="M339 724l-99 -140h-84l-99 140h82l59 -82l59 82h82z" />
    <glyph glyph-name="breve" unicode="&#x2d8;" 
d="M323 703q-2 -61 -37 -90t-88 -29t-87.5 29t-37.5 90h72q4 -46 53 -46t53 46h72z" />
    <glyph glyph-name="dotaccent" unicode="&#x2d9;" 
d="M248 598h-100v100h100v-100z" />
    <glyph glyph-name="ring" unicode="&#x2da;" 
d="M303 689q0 -43 -31 -73.5t-74 -30.5t-73.5 30.5t-30.5 73.5q0 44 30.5 74.5t73.5 30.5q44 0 74.5 -30.5t30.5 -74.5zM244 689q0 19 -13.5 32.5t-32.5 13.5t-32.5 -13.5t-13.5 -32.5t13.5 -32t32.5 -13t32.5 13t13.5 32z" />
    <glyph glyph-name="ogonek" unicode="&#x2db;" 
d="M243 -40l-53 -154h-76l61 154h68z" />
    <glyph glyph-name="tilde" unicode="&#x2dc;" 
d="M345 642q-46 -47 -90 -47q-30 0 -61 17q-25 15 -44 15q-23 0 -46 -23l-46 46q47 47 89 47q33 0 62 -17q25 -15 44 -15q23 0 45 23z" />
    <glyph glyph-name="hungarumlaut" unicode="&#x2dd;" 
d="M222 727l-67 -140h-69l47 140h89zM371 727l-67 -140h-69l46 140h90z" />
    <glyph glyph-name="Delta" unicode="&#x394;" horiz-adv-x="468" 
d="M462 0h-457l175 712h109zM324 101l-90 439l-90 -439h180z" />
    <glyph glyph-name="Omega" unicode="&#x3a9;" horiz-adv-x="491" 
d="M440 0h-167v84q29 17 38 51q12 51 12 221q0 107 -5 160t-20 76q-18 27 -53 27t-53 -27q-15 -23 -19.5 -75t-4.5 -161q0 -174 11 -221q8 -34 39 -51v-84h-167v94h56q-18 13 -28 37q-23 56 -23 225q0 91 1.5 132t13.5 92.5t37 79.5q53 60 137 60q85 0 138 -60
q25 -28 37 -79.5t13.5 -92.5t1.5 -132q0 -169 -23 -225q-9 -23 -29 -37h57v-94z" />
    <glyph glyph-name="mu" unicode="&#x3bc;" horiz-adv-x="421" 
d="M367 0h-102v40q-18 -24 -35 -33q-25 -15 -56 -15q-16 0 -22 8v-185h-102v712h106v-379q0 -29 15 -45t38 -16t37.5 15.5t14.5 45.5v379h106v-527z" />
    <glyph glyph-name="pi" unicode="&#x3c0;" horiz-adv-x="494" 
d="M475 439h-70v-439h-106v439h-104v-439h-106v439h-70v88h456v-88z" />
    <glyph glyph-name="endash" unicode="&#x2013;" horiz-adv-x="457" 
d="M413 238h-369v101h369v-101z" />
    <glyph glyph-name="emdash" unicode="&#x2014;" horiz-adv-x="711" 
d="M665 238h-618v101h618v-101z" />
    <glyph glyph-name="quoteleft" unicode="&#x2018;" horiz-adv-x="229" 
d="M172 594h-115v118l115 85v-203z" />
    <glyph glyph-name="quoteright" unicode="&#x2019;" horiz-adv-x="229" 
d="M172 594l-115 -86v204h115v-118z" />
    <glyph glyph-name="quotesinglbase" unicode="&#x201a;" horiz-adv-x="229" 
d="M172 0l-115 -85v203h115v-118z" />
    <glyph glyph-name="quotedblleft" unicode="&#x201c;" horiz-adv-x="418" 
d="M361 594h-116v118l116 85v-203zM172 594h-115v118l115 85v-203z" />
    <glyph glyph-name="quotedblright" unicode="&#x201d;" horiz-adv-x="418" 
d="M361 594l-116 -86v204h116v-118zM172 594l-115 -86v204h115v-118z" />
    <glyph glyph-name="quotedblbase" unicode="&#x201e;" horiz-adv-x="418" 
d="M361 0l-116 -85v203h116v-118zM172 0l-115 -85v203h115v-118z" />
    <glyph glyph-name="dagger" unicode="&#x2020;" horiz-adv-x="449" 
d="M405 439h-131v-439h-99v439h-131v88h131v185h99v-185h131v-88z" />
    <glyph glyph-name="daggerdbl" unicode="&#x2021;" horiz-adv-x="449" 
d="M405 0h-131v-185h-99v185h-131v89h131v350h-131v88h131v185h99v-185h131v-88h-131v-350h131v-89z" />
    <glyph glyph-name="bullet" unicode="&#x2022;" horiz-adv-x="446" 
d="M386 334q0 -68 -48 -115.5t-115 -47.5t-115 47.5t-48 115.5t48 115.5t115 47.5t115 -47.5t48 -115.5z" />
    <glyph glyph-name="ellipsis" unicode="&#x2026;" horiz-adv-x="654" 
d="M599 0h-123v123h123v-123zM389 0h-123v123h123v-123zM179 0h-123v123h123v-123z" />
    <glyph glyph-name="perthousand" unicode="&#x2030;" horiz-adv-x="1050" 
d="M685 112q0 -57 -36.5 -88.5t-90.5 -31.5t-90.5 31.5t-36.5 88.5v133q0 57 36.5 88.5t90.5 31.5t90.5 -31.5t36.5 -88.5v-133zM301 467q0 -57 -36.5 -88.5t-90.5 -31.5t-90.5 31.5t-36.5 88.5v133q0 57 36.5 88.5t90.5 31.5t90.5 -31.5t36.5 -88.5v-133zM1003 112
q0 -57 -36 -88.5t-90 -31.5t-90.5 31.5t-36.5 88.5v133q0 57 36.5 88.5t90.5 31.5t90 -31.5t36 -88.5v-133zM532 712l-248 -712h-82l248 712h82zM214 469v129q0 45 -40 45q-41 0 -41 -45v-129q0 -45 41 -45q40 0 40 45zM917 114v129q0 45 -40 45q-41 0 -41 -45v-129
q0 -45 41 -45q40 0 40 45zM598 114v129q0 45 -40 45t-40 -45v-129q0 -45 40 -45t40 45z" />
    <glyph glyph-name="guilsinglleft" unicode="&#x2039;" horiz-adv-x="231" 
d="M185 27l-161 249l161 248v-158l-61 -90l61 -92v-157z" />
    <glyph glyph-name="guilsinglright" unicode="&#x203a;" horiz-adv-x="231" 
d="M207 276l-160 -249v157l60 92l-60 90v158z" />
    <glyph glyph-name="fraction" unicode="&#x2044;" horiz-adv-x="125" 
d="M226 712l-246 -712h-82l246 712h82z" />
    <glyph glyph-name="Euro" unicode="&#x20ac;" horiz-adv-x="498" 
d="M459 189q-3 -101 -59 -152q-50 -45 -123 -45q-84 0 -137 60q-47 53 -50 183h-58v81h56v80h-56v81h58q3 129 50 183q53 60 137 60q76 0 125 -46q54 -51 57 -150h-112q-2 95 -70 95q-38 0 -55 -27q-18 -28 -19 -115h106v-81h-109v-80h109v-81h-106q1 -88 20 -115
q18 -27 54 -27q68 0 70 96h112z" />
    <glyph glyph-name="trademark" unicode="&#x2122;" horiz-adv-x="631" 
d="M581 275h-70v263l-56 -171h-40l-55 168v-260h-70v437h63l82 -225l83 225h63v-437zM240 647h-73v-372h-70v372h-72v65h215v-65z" />
    <glyph glyph-name="uni2126" unicode="&#x2126;" horiz-adv-x="491" 
d="M440 0h-167v84q29 17 38 51q12 51 12 221q0 107 -5 160t-20 76q-18 27 -53 27t-53 -27q-15 -23 -19.5 -75t-4.5 -161q0 -174 11 -221q8 -34 39 -51v-84h-167v94h56q-18 13 -28 37q-23 56 -23 225q0 91 1.5 132t13.5 92.5t37 79.5q53 60 137 60q85 0 138 -60
q25 -28 37 -79.5t13.5 -92.5t1.5 -132q0 -169 -23 -225q-9 -23 -29 -37h57v-94z" />
    <glyph glyph-name="arrowleft" unicode="&#x2190;" horiz-adv-x="719" 
d="M672 235h-463l210 -208h-136l-259 258l259 258h136l-210 -207h463v-101z" />
    <glyph glyph-name="arrowup" unicode="&#x2191;" horiz-adv-x="719" 
d="M618 225l-208 209v-463h-101v463l-208 -209v136l258 258l259 -258v-136z" />
    <glyph glyph-name="arrowright" unicode="&#x2192;" horiz-adv-x="719" 
d="M695 285l-259 -258h-136l210 208h-463v101h463l-210 207h136z" />
    <glyph glyph-name="arrowdown" unicode="&#x2193;" horiz-adv-x="719" 
d="M618 210l-259 -259l-258 259v136l208 -210v463h101v-463l208 210v-136z" />
    <glyph glyph-name="uni2196" unicode="&#x2196;" horiz-adv-x="719" 
d="M592 429h-295l327 -327l-71 -71l-328 327l1 -295l-96 96v366h365z" />
    <glyph glyph-name="uni2197" unicode="&#x2197;" horiz-adv-x="719" 
d="M493 62v295l-327 -327l-71 71l327 328l-295 -1l96 96h366v-365z" />
    <glyph glyph-name="uni2198" unicode="&#x2198;" horiz-adv-x="719" 
d="M588 412v-365h-365l-97 96l296 -2l-327 328l71 71l327 -327l-1 295z" />
    <glyph glyph-name="uni2199" unicode="&#x2199;" horiz-adv-x="719" 
d="M496 46h-365v365l96 97l-2 -296l328 327l71 -71l-327 -327l295 1z" />
    <glyph glyph-name="partialdiff" unicode="&#x2202;" horiz-adv-x="412" 
d="M360 264q0 -164 -38 -217q-39 -55 -123 -55t-124 52q-38 50 -38 201q0 93 7 141t31 75q33 38 93 38q27 0 53 -14q23 -13 32 -27v63q0 64 -14 82q-17 22 -45 22q-35 0 -60 -28l-69 67q53 55 134 55q76 0 114 -39q24 -25 35.5 -59t11.5 -110q9 -195 0 -247zM254 245
q0 115 -16 140q-12 19 -39 19q-28 0 -40 -19q-16 -25 -16 -140q0 -114 16 -139q12 -19 40 -19q27 0 39 19q16 25 16 139z" />
    <glyph glyph-name="uni2206" unicode="&#x2206;" horiz-adv-x="468" 
d="M462 0h-457l175 712h109zM324 101l-90 439l-90 -439h180z" />
    <glyph glyph-name="product" unicode="&#x220f;" horiz-adv-x="483" 
d="M423 -190h-112v849h-139v-849h-112v950h363v-950z" />
    <glyph glyph-name="summation" unicode="&#x2211;" horiz-adv-x="392" 
d="M353 -192h-322v84l141 404l-136 380v84h317v-101h-199l106 -315v-102l-111 -333h204v-101z" />
    <glyph glyph-name="minus" unicode="&#x2212;" horiz-adv-x="295" 
d="M249 238h-202v101h202v-101z" />
    <glyph glyph-name="uni2219" unicode="&#x2219;" horiz-adv-x="272" 
d="M216 221h-160v160h160v-160z" />
    <glyph glyph-name="radical" unicode="&#x221a;" horiz-adv-x="492" 
d="M469 611h-83l-143 -611h-117l-122 522h122l58 -357l101 547h184v-101z" />
    <glyph glyph-name="infinity" unicode="&#x221e;" horiz-adv-x="655" 
d="M612 288q0 -63 -38.5 -104t-108.5 -41q-73 0 -137 72q-64 -72 -138 -72q-70 0 -108.5 41t-38.5 104t38.5 104t108.5 41q73 0 138 -73q65 73 137 73q70 0 108.5 -41t38.5 -104zM514 285q0 23 -14 36.5t-35 13.5q-13 0 -25.5 -7.5t-21 -16.5t-22.5 -26q40 -49 69 -49
q21 0 35 13t14 36zM259 285q-14 17 -22.5 26t-21 16.5t-25.5 7.5q-21 0 -35 -13.5t-14 -36.5t14 -36t35 -13q29 0 69 49z" />
    <glyph glyph-name="uni2224" unicode="&#x2224;" horiz-adv-x="272" 
d="M216 221h-160v160h160v-160z" />
    <glyph glyph-name="logicaland" unicode="&#x2227;" horiz-adv-x="272" 
d="M216 221h-160v160h160v-160z" />
    <glyph glyph-name="integral" unicode="&#x222b;" horiz-adv-x="310" 
d="M280 624h-31q-18 0 -29.5 -12.5t-11.5 -32.5v-619q0 -69 -37 -104q-36 -36 -95 -36h-46v95h31q18 0 29.5 13t11.5 33v618q0 69 37 104q36 36 95 36h46v-95z" />
    <glyph glyph-name="approxequal" unicode="&#x2248;" horiz-adv-x="457" 
d="M434 371q-66 -66 -126 -66q-39 0 -88 26q-36 19 -66 19q-33 0 -66 -33l-65 64q66 66 126 66q42 0 89 -25q38 -20 65 -20q33 0 66 33zM434 189q-66 -66 -126 -66q-39 0 -88 26q-36 19 -66 19q-32 0 -65 -33l-66 64q66 66 126 66q42 0 89 -25q38 -20 65 -20q33 0 66 33z
" />
    <glyph glyph-name="notequal" unicode="&#x2260;" horiz-adv-x="457" 
d="M424 148h-235l-76 -110l-78 51l42 59h-43v101h110l57 79h-167v102h235l76 110l77 -52l-41 -58h43v-102h-111l-57 -79h168v-101z" />
    <glyph glyph-name="lessequal" unicode="&#x2264;" horiz-adv-x="401" 
d="M367 191l-333 194v74l333 194v-116l-203 -115l203 -115v-116zM367 -11l-333 195v111l333 -194v-112z" />
    <glyph glyph-name="greaterequal" unicode="&#x2265;" horiz-adv-x="401" 
d="M367 385l-333 -194v116l203 115l-203 115v116l333 -194v-74zM367 184l-333 -195v112l333 194v-111z" />
    <glyph glyph-name="dotmath" unicode="&#x22c5;" horiz-adv-x="272" 
d="M216 221h-160v160h160v-160z" />
    <glyph glyph-name="lozenge" unicode="&#x25ca;" horiz-adv-x="494" 
d="M449 334l-202 -281l-202 281l202 281zM336 334l-89 125l-89 -125l89 -125z" />
    <glyph glyph-name="parenleft.case" horiz-adv-x="265" 
d="M224 -23l-71 -71q-61 61 -81 96q-24 42 -24 118v472q0 76 24 118q21 36 81 96l71 -71q-42 -42 -56 -67t-14 -82v-460q0 -57 14 -82t56 -67z" />
    <glyph glyph-name="parenright.case" horiz-adv-x="265" 
d="M218 120q0 -74 -25 -118q-17 -31 -80 -96l-72 71q44 44 56 67q15 25 15 82v460q0 57 -15 82q-12 23 -56 67l72 71q63 -65 80 -96q25 -44 25 -118v-472z" />
    <glyph glyph-name="hyphen.case" horiz-adv-x="295" 
d="M249 305h-202v101h202v-101z" />
    <glyph glyph-name="bracketleft.case" horiz-adv-x="282" 
d="M253 -74h-200v860h200v-94h-94v-672h94v-94z" />
    <glyph glyph-name="bracketright.case" horiz-adv-x="282" 
d="M228 -74h-199v94h93v672h-93v94h199v-860z" />
    <glyph glyph-name="braceleft.case" horiz-adv-x="335" 
d="M307 -74h-61q-58 0 -94 36q-38 36 -38 104v190q0 23 -13 38t-33 15h-39v94h39q20 0 33 15t13 38v190q0 68 38 104q36 36 94 36h61v-95h-39q-21 0 -34.5 -14.5t-13.5 -37.5v-180q0 -54 -27 -81q-16 -16 -36 -22q12 -4 36 -22q27 -27 27 -81v-180q0 -23 13.5 -37.5
t34.5 -14.5h39v-95z" />
    <glyph glyph-name="braceright.case" horiz-adv-x="335" 
d="M307 309h-39q-20 0 -33.5 -15t-13.5 -38v-190q0 -69 -37 -104q-36 -36 -95 -36h-60v95h39q20 0 33.5 14.5t13.5 37.5v180q0 54 27 81q16 16 36 22q-26 8 -36 22q-27 27 -27 81v180q0 23 -13.5 37.5t-33.5 14.5h-39v95h60q59 0 95 -36q37 -35 37 -104v-190q0 -23 13.5 -38
t33.5 -15h39v-94z" />
    <glyph glyph-name="guillemotleft.case" horiz-adv-x="414" 
d="M185 107l-161 249l161 248v-158l-61 -90l61 -92v-157zM367 107l-160 249l160 248v-158l-62 -90l62 -92v-157z" />
    <glyph glyph-name="uni00AD.case" horiz-adv-x="295" 
d="M249 305h-202v101h202v-101z" />
    <glyph glyph-name="guillemotright.case" horiz-adv-x="414" 
d="M389 356l-160 -249v157l61 92l-61 90v158zM207 356l-160 -249v157l62 92l-62 90v158z" />
    <glyph glyph-name="endash.case" horiz-adv-x="457" 
d="M413 305h-369v101h369v-101z" />
    <glyph glyph-name="emdash.case" horiz-adv-x="711" 
d="M665 305h-618v101h618v-101z" />
    <glyph glyph-name="guilsinglleft.case" horiz-adv-x="231" 
d="M185 107l-161 249l161 248v-158l-61 -90l61 -92v-157z" />
    <glyph glyph-name="guilsinglright.case" horiz-adv-x="231" 
d="M207 356l-160 -249v157l60 92l-60 90v158z" />
    <glyph glyph-name="grave.lc" 
d="M245 587h-74l-88 139h90z" />
    <glyph glyph-name="dieresis.lc" 
d="M336 597h-100v100h100v-100zM160 597h-99v100h99v-100z" />
    <glyph glyph-name="macron.lc" 
d="M321 604h-246v71h246v-71z" />
    <glyph glyph-name="acute.lc" 
d="M316 726l-88 -139h-74l72 139h90z" />
    <glyph glyph-name="circumflex.lc" 
d="M339 587h-82l-59 82l-59 -82h-82l99 139h84z" />
    <glyph glyph-name="caron.lc" 
d="M339 724l-99 -140h-84l-99 140h82l59 -82l59 82h82z" />
    <glyph glyph-name="breve.lc" 
d="M323 703q-2 -61 -37 -90t-88 -29t-87.5 29t-37.5 90h72q4 -46 53 -46t53 46h72z" />
    <glyph glyph-name="dotaccent.lc" 
d="M248 598h-100v100h100v-100z" />
    <glyph glyph-name="ring.lc" 
d="M303 689q0 -43 -31 -73.5t-74 -30.5t-73.5 30.5t-30.5 73.5q0 44 30.5 74.5t73.5 30.5q44 0 74.5 -30.5t30.5 -74.5zM244 689q0 19 -13.5 32.5t-32.5 13.5t-32.5 -13.5t-13.5 -32.5t13.5 -32t32.5 -13t32.5 13t13.5 32z" />
    <glyph glyph-name="tilde.lc" 
d="M345 642q-46 -47 -90 -47q-30 0 -61 17q-25 15 -44 15q-23 0 -46 -23l-46 46q47 47 89 47q33 0 62 -17q25 -15 44 -15q23 0 45 23z" />
    <glyph glyph-name="hungarumlaut.lc" 
d="M222 727l-67 -140h-69l47 140h89zM371 727l-67 -140h-69l46 140h90z" />
    <glyph glyph-name="diedot.lc" 
d="M162 597h-100v100h100v-100z" />
    <glyph glyph-name="zero.lf" horiz-adv-x="401" 
d="M359 152q0 -76 -44 -118q-43 -42 -114 -42q-72 0 -114 42q-45 42 -45 118v408q0 76 45 118q42 42 114 42q71 0 114 -42q44 -42 44 -118v-408zM253 148v416q0 30 -14.5 45.5t-37.5 15.5t-37.5 -15.5t-14.5 -45.5v-416q0 -30 14.5 -45.5t37.5 -15.5t37.5 15.5t14.5 45.5z
" />
    <glyph glyph-name="one.lf" horiz-adv-x="313" 
d="M242 0h-106v587l-106 -81v120l106 86h106v-712z" />
    <glyph glyph-name="two.lf" horiz-adv-x="375" 
d="M346 0h-314v90l178 346q30 58 30 127q0 30 -14.5 46t-37.5 16t-38 -16t-15 -45v-46h-106v42q0 76 45 118q42 42 114 42q69 0 111 -38q47 -45 47 -123q0 -79 -40 -156l-160 -308h200v-95z" />
    <glyph glyph-name="three.lf" horiz-adv-x="385" 
d="M351 203q0 -67 -8 -103.5t-39 -65.5q-44 -42 -114 -42q-73 0 -115 42q-44 42 -44 118v42h106v-45q0 -30 14.5 -46t38.5 -16t38 19q17 20 17 104q0 82 -16 103q-14 19 -40 19h-35v89h35q22 0 34 14q16 18 16 90q0 66 -14 84q-13 16 -35 16q-21 0 -34.5 -15t-13.5 -42v-50
h-106v43q0 77 44 118q41 41 110 41t109 -40q46 -43 46 -148q0 -78 -17 -113q-14 -27 -40 -42q30 -21 41 -43q22 -38 22 -131z" />
    <glyph glyph-name="four.lf" horiz-adv-x="405" 
d="M377 111h-49v-111h-106v111h-198v95l183 506h103l-177 -506h89v127h106v-127h49v-95z" />
    <glyph glyph-name="five.lf" horiz-adv-x="394" 
d="M360 240q0 -58 -2 -87t-13 -62t-33 -55q-44 -44 -113 -44q-71 0 -114 41q-45 43 -45 119v35h106v-49q0 -31 14.5 -46.5t38.5 -15.5q25 0 39 19q16 21 16 135q0 104 -14 126q-13 22 -41 22q-23 0 -38 -16.5t-15 -44.5v-15h-101v410h307v-95h-210v-191q18 23 37 34
q24 13 51 13q62 0 96 -43q21 -26 27.5 -70.5t6.5 -119.5z" />
    <glyph glyph-name="six.lf" horiz-adv-x="387" 
d="M354 216q0 -118 -34 -167q-40 -57 -127 -57q-85 0 -125 57q-20 30 -27.5 66t-7.5 101q0 94 29 168l125 328h110l-117 -287q16 11 44 11q60 0 94 -44q20 -26 28 -62.5t8 -113.5zM248 217q0 93 -16 114q-15 18 -38 18q-26 0 -39 -18q-16 -23 -16 -114q0 -90 16 -112
q14 -18 39 -18q24 0 38 18q16 21 16 112z" />
    <glyph glyph-name="seven.lf" horiz-adv-x="386" 
d="M363 624l-182 -624h-105l180 617h-123v-95h-103v190h333v-88z" />
    <glyph glyph-name="eight.lf" horiz-adv-x="394" 
d="M358 201q0 -65 -9 -101.5t-38 -65.5q-44 -42 -114 -42t-114 42q-29 29 -38 65.5t-9 101.5q0 88 22 126q12 24 41 45q-26 21 -38 44q-20 39 -20 111q0 106 47 152q40 41 109 41t110 -41q46 -46 46 -152q0 -72 -19 -111q-13 -24 -39 -44q28 -21 42 -45q21 -38 21 -126z
M252 206q0 84 -17 105q-14 17 -38 17t-38 -17q-17 -21 -17 -105q0 -80 17 -102q14 -17 38 -17q26 0 38 17q17 21 17 102zM247 522q0 70 -15 89q-14 14 -35 14q-20 0 -34 -14q-16 -19 -16 -89q0 -76 18 -93q14 -12 32 -12q20 0 32 12q18 19 18 93z" />
    <glyph glyph-name="nine.lf" horiz-adv-x="387" 
d="M354 496q0 -94 -29 -168l-125 -328h-110l117 287q-17 -11 -43 -11q-61 0 -95 44q-20 26 -28 62.5t-8 113.5q0 119 35 167q38 57 126 57q85 0 125 -57q20 -30 27.5 -66t7.5 -101zM248 495q0 91 -16 112q-13 18 -38 18q-26 0 -39 -18q-16 -22 -16 -112q0 -92 16 -114
q15 -18 39 -18t38 18q16 22 16 114z" />
    <glyph glyph-name="zero.osf" horiz-adv-x="401" 
d="M355 152q0 -77 -44 -118q-42 -42 -114 -42t-114 42q-44 42 -44 118v290q0 76 44 118q42 42 114 42t114 -42q44 -41 44 -118v-290zM249 148v298q0 30 -14.5 45.5t-37.5 15.5t-37.5 -15.5t-14.5 -45.5v-298q0 -30 14.5 -45.5t37.5 -15.5t37.5 15.5t14.5 45.5z" />
    <glyph glyph-name="one.osf" horiz-adv-x="331" 
d="M254 0h-106v474l-107 -86v120l107 86h106v-594z" />
    <glyph glyph-name="two.osf" horiz-adv-x="388" 
d="M354 0h-323v90l174 235q24 32 31 56.5t7 63.5q0 30 -14.5 46t-37.5 16t-38 -16t-15 -45v-41h-106v37q0 76 44 118q43 42 115 42q70 0 111 -38q47 -45 47 -123q0 -51 -14 -87t-47 -77l-134 -182h200v-95z" />
    <glyph glyph-name="three.osf" horiz-adv-x="389" 
d="M350 85q0 -68 -8 -104t-39 -65q-44 -42 -114 -42q-72 0 -114 42q-45 42 -45 118v42h106v-45q0 -30 15 -46t38 -16q24 0 38 19q17 20 17 104q0 82 -16 103q-14 19 -39 19h-36v89h36q20 0 34 14q16 19 16 90q0 66 -15 84q-13 16 -35 16q-21 0 -34.5 -15t-13.5 -42v-50h-106
v43q0 76 44 118q41 41 110 41q70 0 110 -40q46 -45 46 -148q0 -78 -18 -113q-15 -28 -39 -42q29 -22 41 -43q21 -39 21 -131z" />
    <glyph glyph-name="four.osf" horiz-adv-x="414" 
d="M385 30h-52v-153h-106v153h-198v95l183 504h103l-177 -504h89v127h106v-127h52v-95z" />
    <glyph glyph-name="five.osf" horiz-adv-x="397" 
d="M360 122q0 -58 -2 -87t-13 -62t-33 -55q-44 -44 -113 -44q-71 0 -114 41q-45 43 -45 119v35h106v-49q0 -31 14.5 -46.5t38.5 -15.5q25 0 39 19q16 21 16 135q0 104 -14 126q-13 22 -41 22q-23 0 -38 -16.5t-15 -44.5v-15h-101v410h307v-95h-210v-191q18 23 37 34
q24 13 51 13q62 0 96 -43q21 -26 27.5 -70.5t6.5 -119.5z" />
    <glyph glyph-name="six.osf" horiz-adv-x="389" 
d="M356 216q0 -119 -35 -167q-40 -57 -127 -57q-85 0 -125 57q-20 30 -27.5 66t-7.5 101q0 94 29 168l125 328h110l-117 -287q18 11 44 11q60 0 94 -44q20 -26 28.5 -63t8.5 -113zM249 217q0 93 -16 114q-15 18 -38 18q-25 0 -39 -18q-16 -23 -16 -114q0 -90 16 -112
q14 -18 39 -18t38 18q16 21 16 112z" />
    <glyph glyph-name="seven.osf" horiz-adv-x="395" 
d="M366 506l-189 -624h-104l186 617h-123v-95h-103v190h333v-88z" />
    <glyph glyph-name="eight.osf" horiz-adv-x="398" 
d="M360 201q0 -65 -9 -101.5t-38 -65.5q-44 -42 -114 -42t-114 42q-29 29 -38 65.5t-9 101.5q0 88 21 126q14 24 42 45q-26 21 -38 44q-20 39 -20 111q0 106 46 152q41 41 109 41q70 0 110 -41q47 -46 47 -152q0 -72 -20 -111q-12 -23 -38 -44q28 -21 42 -45q21 -38 21 -126
zM254 206q0 84 -17 105q-15 17 -38 17q-24 0 -38 -17q-17 -21 -17 -105q0 -80 17 -102q14 -17 38 -17t38 17q17 21 17 102zM249 522q0 71 -16 89q-12 14 -34 14t-34 -14q-16 -19 -16 -89q0 -76 18 -93q12 -12 32 -12t32 12q18 18 18 93z" />
    <glyph glyph-name="nine.osf" horiz-adv-x="389" 
d="M356 378q0 -90 -29 -168l-126 -328h-110l117 287q-16 -11 -43 -11q-61 0 -95 44q-20 26 -28 62.5t-8 113.5q0 119 35 167q38 57 126 57q85 0 125 -57q20 -30 28 -66.5t8 -100.5zM249 377q0 91 -16 112q-13 18 -38 18t-39 -18q-16 -22 -16 -112q0 -92 16 -114
q15 -18 39 -18q25 0 38 18q16 22 16 114z" />
    <glyph glyph-name="exclam.ss01" horiz-adv-x="257" 
d="M193 200h-106v512h106v-512zM210 66q0 -29 -20.5 -49.5t-49.5 -20.5t-49.5 20.5t-20.5 49.5t20.5 50t49.5 21t49.5 -21t20.5 -50z" />
    <glyph glyph-name="period.ss01" horiz-adv-x="234" 
d="M187 67q0 -29 -20.5 -50t-49.5 -21t-49.5 21t-20.5 50t20.5 49.5t49.5 20.5t49.5 -20.5t20.5 -49.5z" />
    <glyph glyph-name="colon.ss01" horiz-adv-x="257" 
d="M210 366q0 -29 -20.5 -49.5t-49.5 -20.5t-49.5 20.5t-20.5 49.5t20.5 50t49.5 21t49.5 -21t20.5 -50zM210 66q0 -29 -20.5 -49.5t-49.5 -20.5t-49.5 20.5t-20.5 49.5t20.5 50t49.5 21t49.5 -21t20.5 -50z" />
    <glyph glyph-name="semicolon.ss01" horiz-adv-x="257" 
d="M198 -65l-116 -85v274h116v-189zM210 366q0 -29 -20.5 -49.5t-49.5 -20.5t-49.5 20.5t-20.5 49.5t20.5 50t49.5 21t49.5 -21t20.5 -50z" />
    <glyph glyph-name="question.ss01" horiz-adv-x="426" 
d="M393 524q0 -78 -34 -123l-59 -79q-23 -31 -23 -65v-57h-106v69q0 45 31 86l59 79q26 34 26 93q0 55 -20 77q-17 19 -43 19t-43 -18q-19 -21 -19 -78h-106q0 100 47 144q51 47 120 47q79 0 122 -45q48 -48 48 -149zM294 66q0 -29 -20.5 -49.5t-49.5 -20.5t-49.5 20.5
t-20.5 49.5t20.5 50t49.5 21t49.5 -21t20.5 -50z" />
    <glyph glyph-name="at.ss01" horiz-adv-x="837" 
d="M788 354q-2 -127 -79 -220.5t-200 -93.5h-79l9 45q-43 -51 -92 -51q-53 0 -76.5 37.5t-22.5 96.5q2 57 12 96q26 140 74 188q37 41 91 41q56 0 80 -51l10 45h105l-75 -372q71 6 115.5 75.5t45.5 163.5q1 124 -64.5 200t-173.5 76q-130 0 -224 -115.5t-96 -275.5
q-2 -163 77 -254t216 -91h64l-15 -75h-64q-168 0 -268.5 115t-96.5 307q3 193 122 329t287 136q143 0 231.5 -98.5t86.5 -253.5zM478 329q6 69 -34 69q-22 0 -38 -21q-21 -26 -39 -112q-8 -39 -10 -73q-3 -63 33 -63q22 0 40 23q23 32 39 112q8 47 9 65z" />
    <glyph glyph-name="i.ss01" horiz-adv-x="210" 
d="M158 0h-106v513h106v-513zM172 657q0 -28 -19.5 -47.5t-47.5 -19.5t-47.5 19.5t-19.5 47.5t19.5 47.5t47.5 19.5t47.5 -19.5t19.5 -47.5z" />
    <glyph glyph-name="j.ss01" horiz-adv-x="210" 
d="M158 -25q0 -86 -54 -127q-43 -33 -124 -33v95q37 0 54.5 16t17.5 55v532h106v-538zM172 657q0 -28 -19.5 -47.5t-47.5 -19.5t-47.5 19.5t-19.5 47.5t19.5 47.5t47.5 19.5t47.5 -19.5t19.5 -47.5z" />
    <glyph glyph-name="exclamdown.ss01" horiz-adv-x="257" 
d="M170 -185h-106v513h106v-513zM187 461q0 -29 -20.5 -49.5t-49.5 -20.5t-49.5 20.5t-20.5 49.5t20.5 49.5t49.5 20.5t49.5 -20.5t20.5 -49.5z" />
    <glyph glyph-name="dieresis.ss01" horiz-adv-x="399" 
d="M340 646q0 -22 -16 -38.5t-39 -16.5t-39.5 16t-16.5 39t16.5 39t39.5 16t39 -16t16 -39zM170 646q0 -22 -16 -38.5t-39 -16.5t-39.5 16t-16.5 39t16.5 39t39.5 16t39 -16t16 -39z" />
    <glyph glyph-name="periodcentered.ss01" horiz-adv-x="280" 
d="M226 301q0 -35 -25.5 -60.5t-60.5 -25.5t-60.5 25.5t-25.5 60.5t25.5 60.5t60.5 25.5t60.5 -25.5t25.5 -60.5z" />
    <glyph glyph-name="cedilla.ss01" 
d="M253 -128q0 -42 -29.5 -70t-78.5 -28v61q18 0 29 11t11 26q0 16 -11.5 27t-28.5 11v60q49 0 78.5 -28t29.5 -70z" />
    <glyph glyph-name="questiondown.ss01" horiz-adv-x="426" 
d="M370 1q0 -101 -47 -145q-51 -47 -120 -47q-78 0 -122 46q-48 48 -48 149q0 78 34 123l59 78q23 31 23 65v58h106v-70q0 -45 -31 -86l-59 -78q-26 -34 -26 -93q0 -55 20 -78q17 -19 43 -19t43 19q19 21 19 78h106zM273 461q0 -29 -21 -49.5t-50 -20.5t-49.5 20.5
t-20.5 49.5t20.5 49.5t49.5 20.5t50 -20.5t21 -49.5z" />
    <glyph glyph-name="Adieresis.ss01" horiz-adv-x="468" 
d="M462 0h-117l-29 141h-165l-28 -141h-118l175 712h109zM295 242l-61 298l-61 -298h122zM205 819q0 -23 -16.5 -39t-39.5 -16t-39 16t-16 39t16 39t39 16t39.5 -16t16.5 -39zM375 819q0 -23 -16.5 -39t-39.5 -16t-39 16t-16 39t16 39t39 16t39.5 -16t16.5 -39z" />
    <glyph glyph-name="Ccedilla.ss01" horiz-adv-x="447" 
d="M413 189q-3 -101 -59 -152q-50 -45 -123 -45q-85 0 -138 60q-25 28 -37 79t-13.5 91.5t-1.5 132.5t1.5 133t13.5 92.5t37 79.5q53 60 138 60q75 0 124 -46q54 -51 57 -150h-112q-2 46 -17 69q-16 26 -52 26t-53 -27q-25 -40 -25 -236t25 -236q17 -27 53 -27q37 0 53 26
q15 23 17 70h112zM280 -128q0 -42 -29.5 -70t-78.5 -28v61q18 0 29 11t11 26q0 16 -11 27t-29 11v60q49 0 78.5 -28t29.5 -70z" />
    <glyph glyph-name="Edieresis.ss01" 
d="M359 0h-299v712h299v-101h-187v-202h161v-101h-161v-207h187v-101zM184 819q0 -23 -16.5 -39t-39.5 -16t-39 16t-16 39t16.5 39t38.5 16q23 0 39.5 -16t16.5 -39zM354 819q0 -23 -16.5 -39t-39.5 -16t-39 16t-16 39t16.5 39t38.5 16q23 0 39.5 -16t16.5 -39z" />
    <glyph glyph-name="Idieresis.ss01" horiz-adv-x="232" 
d="M172 0h-112v712h112v-712zM87 819q0 -23 -16.5 -39t-39.5 -16t-39 16t-16 39t16 39t39 16t39.5 -16t16.5 -39zM257 819q0 -23 -16.5 -39t-39.5 -16t-39 16t-16 39t16 39t39 16t39.5 -16t16.5 -39z" />
    <glyph glyph-name="Odieresis.ss01" horiz-adv-x="462" 
d="M421 356q0 -92 -1.5 -133t-13.5 -92t-37 -79q-53 -60 -138 -60t-138 60q-25 28 -37 79t-13.5 92t-1.5 133t1.5 133t13.5 92t37 79q53 60 138 60t138 -60q25 -28 37 -79t13.5 -92t1.5 -133zM309 356q0 107 -4.5 159.5t-19.5 76.5q-17 27 -54 27q-36 0 -53 -27
q-25 -40 -25 -236t25 -236q17 -27 53 -27q37 0 54 27q15 24 19.5 76.5t4.5 159.5zM202 819q0 -23 -16.5 -39t-39.5 -16t-39 16t-16 39t16.5 39t38.5 16q23 0 39.5 -16t16.5 -39zM372 819q0 -23 -16.5 -39t-39.5 -16t-39 16t-16 39t16.5 39t38.5 16q23 0 39.5 -16t16.5 -39z
" />
    <glyph glyph-name="Udieresis.ss01" horiz-adv-x="471" 
d="M417 175q0 -80 -49 -131q-51 -52 -132 -52q-82 0 -133 52q-49 51 -49 131v537h112v-543q0 -37 20 -56.5t50 -19.5t49.5 19.5t19.5 56.5v543h112v-537zM206 819q0 -23 -16.5 -39t-39.5 -16t-39 16t-16 39t16.5 39t38.5 16q23 0 39.5 -16t16.5 -39zM376 819
q0 -23 -16.5 -39t-39.5 -16t-39 16t-16 39t16.5 39t38.5 16q23 0 39.5 -16t16.5 -39z" />
    <glyph glyph-name="adieresis.ss01" horiz-adv-x="399" 
d="M350 0h-100v45q-18 -25 -32 -35q-26 -18 -60 -18q-61 0 -99 44q-32 38 -32 118q0 75 49 118q41 36 121 36h47v73q0 61 -51 61q-22 0 -35 -15q-16 -17 -16 -49h-106q0 69 45 114q43 43 111 43q74 0 112 -39q46 -46 46 -124v-372zM244 155v78h-35q-38 0 -55 -16
q-21 -19 -21 -59q0 -73 55 -73q24 0 40 19t16 51zM335 646q0 -23 -16 -39t-39 -16q-22 0 -38.5 16.5t-16.5 38.5q0 23 16 39t39 16t39 -16t16 -39zM165 646q0 -23 -16 -39t-39 -16q-22 0 -38.5 16.5t-16.5 38.5q0 23 16 39t39 16t39 -16t16 -39z" />
    <glyph glyph-name="ccedilla.ss01" horiz-adv-x="384" 
d="M356 155q-5 -83 -46 -124q-39 -39 -112 -39q-85 0 -125 56q-37 50 -37 216q0 164 37 216q40 55 125 55q71 0 111 -37q41 -40 47 -125h-105q-2 34 -14 49q-13 19 -39 19q-27 0 -41 -22q-15 -26 -15 -155t15 -156q13 -21 41 -21q26 0 39 18q12 15 14 50h105zM253 -128
q0 -42 -29.5 -70t-78.5 -28v61q18 0 29 11t11 26q0 16 -11.5 27t-28.5 11v60q49 0 78.5 -28t29.5 -70z" />
    <glyph glyph-name="edieresis.ss01" horiz-adv-x="394" 
d="M359 233h-217q0 -102 16 -125q14 -21 41 -21q24 0 40 21q13 16 13 47h105q-3 -76 -44 -121q-38 -42 -114 -42q-71 0 -114 43q-31 31 -40 86t-9 143t9 143t40 86q42 42 113 42q74 0 113 -42q8 -9 15 -19.5t11.5 -24.5t8 -24.5t6 -30t4 -29.5t2 -33.5t1 -31.5t0.5 -34.5
v-32.5zM253 311q0 90 -15 109q-16 21 -40 21t-40 -21q-16 -20 -16 -109h111zM338 646q0 -23 -16 -39t-39 -16t-39 16.5t-16 38.5q0 23 16 39t39 16t39 -16t16 -39zM168 646q0 -23 -16 -39t-39 -16t-39 16.5t-16 38.5q0 23 16 39t39 16t39 -16t16 -39z" />
    <glyph glyph-name="idieresis.ss01" horiz-adv-x="210" 
d="M158 0h-106v528h106v-528zM245 646q0 -22 -16.5 -38.5t-38.5 -16.5q-23 0 -39 16t-16 39t16 39t39 16t39 -16t16 -39zM75 646q0 -22 -16.5 -38.5t-38.5 -16.5q-23 0 -39 16t-16 39t16 39t39 16t39 -16t16 -39z" />
    <glyph glyph-name="odieresis.ss01" 
d="M360 264q0 -164 -37 -216q-40 -56 -125 -56t-125 56q-37 52 -37 216t37 216q40 55 125 55t125 -55q37 -52 37 -216zM254 264q0 129 -15 155q-14 22 -41 22t-41 -22q-15 -26 -15 -155q0 -130 15 -156q13 -21 41 -21q27 0 41 21q15 26 15 156zM338 646q0 -23 -16 -39
t-39 -16t-39 16.5t-16 38.5q0 23 16 39t39 16t39 -16t16 -39zM168 646q0 -23 -16 -39t-39 -16t-39 16.5t-16 38.5q0 23 16 39t39 16t39 -16t16 -39z" />
    <glyph glyph-name="divide.ss01" horiz-adv-x="457" 
d="M413 229h-369v101h369v-101zM299 463q0 -29 -20.5 -49.5t-49.5 -20.5t-50 21t-21 49q0 29 21 50t50 21q28 0 49 -21t21 -50zM299 95q0 -29 -20.5 -49.5t-49.5 -20.5t-50 21t-21 49q0 29 21 50t50 21q28 0 49 -21t21 -50z" />
    <glyph glyph-name="udieresis.ss01" horiz-adv-x="417" 
d="M365 0h-101v40q-17 -23 -36 -33q-25 -15 -53 -15q-61 0 -96 41q-30 34 -30 114v380h106v-379q0 -30 14.5 -45.5t37.5 -15.5t37.5 15.5t14.5 45.5v379h106v-527zM345 646q0 -23 -16 -39t-39 -16q-22 0 -38.5 16.5t-16.5 38.5q0 23 16 39t39 16t39 -16t16 -39zM175 646
q0 -23 -16 -39t-39 -16q-22 0 -38.5 16.5t-16.5 38.5q0 23 16 39t39 16t39 -16t16 -39z" />
    <glyph glyph-name="ydieresis.ss01" horiz-adv-x="382" 
d="M377 527l-148 -594q-18 -73 -65.5 -95.5t-131.5 -22.5v94q28 1 43 3.5t30 15t21 36.5l9 37l-131 526h117l70 -359l69 359h117zM333 646q0 -23 -16 -39t-39 -16q-22 0 -38.5 16.5t-16.5 38.5q0 23 16 39t39 16t39 -16t16 -39zM163 646q0 -23 -16 -39t-39 -16
q-22 0 -38.5 16.5t-16.5 38.5q0 23 16 39t39 16t39 -16t16 -39z" />
    <glyph glyph-name="Ydieresis.ss01" horiz-adv-x="389" 
d="M388 712l-138 -433v-279h-112v279l-138 433h124l70 -282l71 282h123zM166 819q0 -23 -16.5 -39t-39.5 -16t-39 16t-16 39t16.5 39t38.5 16q23 0 39.5 -16t16.5 -39zM336 819q0 -23 -16.5 -39t-39.5 -16t-39 16t-16 39t16.5 39t38.5 16q23 0 39.5 -16t16.5 -39z" />
    <glyph glyph-name="dotaccent.ss01" horiz-adv-x="399" 
d="M255 646q0 -22 -16.5 -38.5t-38.5 -16.5q-23 0 -39.5 16t-16.5 39t16.5 39t39.5 16t39 -16t16 -39z" />
    <glyph glyph-name="ogonek.ss01" 
d="M234 -226q-49 0 -78.5 28t-29.5 70t29.5 70t78.5 28v-60q-17 0 -28 -11t-11 -27t10.5 -26.5t28.5 -10.5v-61z" />
    <glyph glyph-name="ellipsis.ss01" horiz-adv-x="666" 
d="M620 67q0 -29 -21 -50t-50 -21t-49.5 21t-20.5 50t20.5 49.5t49.5 20.5t50 -20.5t21 -49.5zM188 67q0 -29 -21 -50t-50 -21t-49.5 21t-20.5 50t20.5 49.5t49.5 20.5t50 -20.5t21 -49.5zM404 67q0 -29 -21 -50t-50 -21t-49.5 21t-20.5 50t20.5 49.5t49.5 20.5t50 -20.5
t21 -49.5z" />
    <glyph glyph-name="uni2219.ss01" horiz-adv-x="280" 
d="M226 301q0 -35 -25.5 -60.5t-60.5 -25.5t-60.5 25.5t-25.5 60.5t25.5 60.5t60.5 25.5t60.5 -25.5t25.5 -60.5z" />
    <glyph glyph-name="uni2224.ss01" horiz-adv-x="280" 
d="M226 301q0 -35 -25.5 -60.5t-60.5 -25.5t-60.5 25.5t-25.5 60.5t25.5 60.5t60.5 25.5t60.5 -25.5t25.5 -60.5z" />
    <glyph glyph-name="logicaland.ss01" horiz-adv-x="280" 
d="M226 301q0 -35 -25.5 -60.5t-60.5 -25.5t-60.5 25.5t-25.5 60.5t25.5 60.5t60.5 25.5t60.5 -25.5t25.5 -60.5z" />
    <glyph glyph-name="dotmath.ss01" horiz-adv-x="280" 
d="M226 301q0 -35 -25.5 -60.5t-60.5 -25.5t-60.5 25.5t-25.5 60.5t25.5 60.5t60.5 25.5t60.5 -25.5t25.5 -60.5z" />
    <glyph glyph-name="fi.ss01" horiz-adv-x="463" 
d="M252 432h-73v-432h-106v432h-54v81h54v47q0 85 53 127q43 33 126 33v-95q-38 0 -55.5 -16.5t-17.5 -54.5v-41h73v-81zM411 0h-106v513h106v-513zM425 657q0 -28 -19.5 -47.5t-47.5 -19.5t-47.5 19.5t-19.5 47.5t19.5 47.5t47.5 19.5t47.5 -19.5t19.5 -47.5z" />
    <glyph glyph-name="diedotlc.ss01" horiz-adv-x="399" 
d="M253 646q0 -23 -16 -39t-39 -16q-22 0 -38.5 16.5t-16.5 38.5q0 23 16 39t39 16t39 -16t16 -39z" />
    <glyph glyph-name="diedotuc.ss01" horiz-adv-x="399" 
d="M287 818q0 -23 -16.5 -39.5t-39.5 -16.5t-39 16.5t-16 39.5q0 22 16 38.5t39 16.5t39.5 -16t16.5 -39z" />
    <glyph glyph-name="dieresislc.ss01" 
d="M338 646q0 -23 -16 -39t-39 -16t-39 16.5t-16 38.5q0 23 16 39t39 16t39 -16t16 -39zM168 646q0 -23 -16 -39t-39 -16t-39 16.5t-16 38.5q0 23 16 39t39 16t39 -16t16 -39z" />
    <glyph glyph-name="dieresisuc.ss01" horiz-adv-x="463" 
d="M202 819q0 -23 -16.5 -39t-39.5 -16t-39 16t-16 39t16.5 39t38.5 16q23 0 39.5 -16t16.5 -39zM372 819q0 -23 -16.5 -39t-39.5 -16t-39 16t-16 39t16.5 39t38.5 16q23 0 39.5 -16t16.5 -39z" />
    <glyph glyph-name="dotaccentlc.ss01" 
d="M253 646q0 -23 -16 -39t-39 -16q-22 0 -38.5 16.5t-16.5 38.5q0 23 16 39t39 16t39 -16t16 -39z" />
    <glyph glyph-name="dotaccentuc.ss01" horiz-adv-x="463" 
d="M287 818q0 -23 -16.5 -39.5t-39.5 -16.5t-39 16.5t-16 39.5q0 22 16 38.5t39 16.5t39.5 -16t16.5 -39z" />
    <glyph glyph-name="zero.tosf" horiz-adv-x="401" 
d="M359 152q0 -76 -44 -118q-43 -42 -114 -42q-72 0 -114 42q-45 42 -45 118v290q0 76 45 118q42 42 114 42q71 0 114 -42q44 -42 44 -118v-290zM253 148v298q0 30 -14.5 45.5t-37.5 15.5t-37.5 -15.5t-14.5 -45.5v-298q0 -30 14.5 -45.5t37.5 -15.5t37.5 15.5t14.5 45.5z
" />
    <glyph glyph-name="one.tosf" horiz-adv-x="401" 
d="M279 0h-106v474l-107 -86v120l107 86h106v-594z" />
    <glyph glyph-name="two.tosf" horiz-adv-x="401" 
d="M362 0h-324v90l175 235q24 32 30.5 56.5t6.5 63.5q0 30 -14 46t-37 16q-24 0 -38.5 -15.5t-14.5 -45.5v-41h-106v37q0 76 44 118q42 42 115 42q69 0 110 -38q47 -44 47 -123q0 -50 -13.5 -86.5t-46.5 -77.5l-135 -182h201v-95z" />
    <glyph glyph-name="three.tosf" horiz-adv-x="401" 
d="M354 85q0 -68 -8 -104t-39 -65q-42 -42 -113 -42q-73 0 -115 42q-45 42 -45 118v42h106v-45q0 -30 15 -46t39 -16t38 19q16 19 16 104q0 82 -16 103q-14 19 -39 19h-35v89h35q20 0 34 14q16 19 16 90q0 66 -14 84q-13 16 -35 16t-35.5 -14.5t-13.5 -42.5v-50h-106v43
q0 76 44 118q42 41 111 41t109 -40q46 -45 46 -148q0 -78 -18 -113q-15 -28 -39 -42q29 -22 41 -43q21 -39 21 -131z" />
    <glyph glyph-name="four.tosf" horiz-adv-x="401" 
d="M378 30h-52v-153h-106v153h-198v95l183 504h103l-177 -504h89v127h106v-127h52v-95z" />
    <glyph glyph-name="five.tosf" horiz-adv-x="401" 
d="M363 121q0 -59 -1.5 -86.5t-12.5 -61t-34 -55.5q-44 -44 -114 -44q-71 0 -113 42q-38 36 -43 88q-2 12 -2 37v27h106v-48q0 -16 6 -20q6 -42 46 -42q24 0 40 19q16 23 16 135q0 102 -15 125q-14 23 -41 23q-23 0 -37.5 -16.5t-14.5 -44.5v-15h-101v410h307v-96h-211v-190
q16 21 37 33q3 3 7 3q26 11 45 11q61 0 96 -43q21 -25 27.5 -69.5t6.5 -121.5z" />
    <glyph glyph-name="six.tosf" horiz-adv-x="401" 
d="M362 216q0 -119 -35 -167q-40 -57 -127 -57q-85 0 -125 57q-20 30 -27.5 66t-7.5 101q0 94 29 168l125 328h110l-117 -287q18 11 44 11q60 0 94 -44q20 -26 28.5 -63t8.5 -113zM255 217q0 93 -16 114q-15 18 -38 18q-25 0 -39 -18q-16 -23 -16 -114q0 -90 16 -112
q14 -18 39 -18t38 18q16 21 16 112z" />
    <glyph glyph-name="seven.tosf" horiz-adv-x="401" 
d="M370 506l-189 -624h-104l186 617h-126v-95h-103v190h336v-88z" />
    <glyph glyph-name="eight.tosf" horiz-adv-x="401" 
d="M362 201q0 -64 -9 -100.5t-38 -66.5q-44 -42 -114 -42t-114 42q-29 29 -38 65.5t-9 101.5q0 88 21 126q14 24 42 45q-26 20 -39 44q-19 39 -19 111q0 106 46 152q41 41 109 41q70 0 110 -41q47 -46 47 -152q0 -70 -20 -111q-13 -24 -39 -44q30 -20 42 -45q22 -40 22 -126
zM255 206q0 85 -16 105q-15 17 -38 17q-24 0 -38 -17q-17 -21 -17 -105q0 -80 17 -102q12 -17 38 -17q24 0 38 17q16 20 16 102zM250 522q0 72 -15 89q-14 14 -34 14q-21 0 -35 -14q-15 -18 -15 -89q0 -76 18 -93q11 -12 32 -12q20 0 32 12q17 17 17 93z" />
    <glyph glyph-name="nine.tosf" horiz-adv-x="401" 
d="M362 378q0 -90 -29 -168l-126 -328h-110l117 287q-16 -11 -43 -11q-61 0 -95 44q-20 26 -28 62.5t-8 113.5q0 119 35 167q38 57 126 57q85 0 125 -57q20 -30 28 -66.5t8 -100.5zM255 377q0 91 -16 112q-13 18 -38 18t-39 -18q-16 -22 -16 -112q0 -92 16 -114
q15 -18 39 -18q25 0 38 18q16 22 16 114z" />
    <glyph glyph-name="grave.uc" horiz-adv-x="463" 
d="M277 760h-74l-88 139h90z" />
    <glyph glyph-name="dieresis.uc" horiz-adv-x="463" 
d="M369 770h-100v100h100v-100zM194 770h-100v100h100v-100z" />
    <glyph glyph-name="macron.uc" horiz-adv-x="463" 
d="M354 776h-245v70h245v-70z" />
    <glyph glyph-name="acute.uc" horiz-adv-x="463" 
d="M347 899l-87 -139h-74l72 139h89z" />
    <glyph glyph-name="circumflex.uc" horiz-adv-x="463" 
d="M372 760h-81l-60 82l-59 -82h-81l99 139h83z" />
    <glyph glyph-name="caron.uc" horiz-adv-x="463" 
d="M372 897l-99 -140h-83l-99 140h81l59 -82l60 82h81z" />
    <glyph glyph-name="breve.uc" horiz-adv-x="463" 
d="M356 875q-2 -61 -37 -90t-88 -29t-87.5 29t-36.5 90h71q4 -46 53 -46q50 0 54 46h71z" />
    <glyph glyph-name="dotaccent.uc" horiz-adv-x="463" 
d="M281 770h-99v100h99v-100z" />
    <glyph glyph-name="ring.uc" horiz-adv-x="463" 
d="M336 858q0 -43 -30.5 -73.5t-74.5 -30.5q-43 0 -73.5 30.5t-30.5 73.5t30.5 73.5t73.5 30.5q44 0 74.5 -30.5t30.5 -73.5zM277 858q0 19 -13.5 32.5t-32.5 13.5t-32 -13.5t-13 -32.5t13 -32.5t32 -13.5t32.5 13.5t13.5 32.5z" />
    <glyph glyph-name="tilde.uc" horiz-adv-x="463" 
d="M378 814q-46 -46 -90 -46q-30 0 -61 17q-25 15 -44 15q-23 0 -46 -23l-46 46q47 47 89 47q33 0 62 -17q25 -15 44 -15q23 0 45 23z" />
    <glyph glyph-name="hungarumlaut.uc" horiz-adv-x="463" 
d="M256 900l-68 -140h-69l47 140h90zM404 900l-67 -140h-68l46 140h89z" />
    <glyph glyph-name="diedot.uc" horiz-adv-x="463" 
d="M263 770h-99v100h99v-100z" />
    <glyph glyph-name="Tcedilla" horiz-adv-x="393" 
d="M372 611h-120v-611h-112v611h-119v101h351v-101zM261 -40l-53 -154h-76l61 154h68z" />
    <glyph glyph-name="caroncomma" horiz-adv-x="500" 
d="M500 741l-36 -154h-67l24 154h79z" />
    <glyph glyph-name="commaaccent" 
d="M243 -40l-53 -154h-76l61 154h68z" />
    <glyph glyph-name="commaturn" horiz-adv-x="278" 
d="M168 587l53 154h76l-61 -154h-68z" />
    <glyph glyph-name="tcedilla" horiz-adv-x="274" 
d="M254 0q-87 0 -128 32q-53 42 -53 128v272h-54v81h54v149h106v-149h73v-81h-73v-266q0 -71 75 -71v-95zM202 -40l-53 -154h-76l61 154h68z" />
    <glyph glyph-name="commaaccent.ss01" 
d="M253 -128q0 -42 -29.5 -70t-78.5 -28v61q18 0 29 11t11 26q0 16 -11.5 27t-28.5 11v60q49 0 78.5 -28t29.5 -70z" />
    <glyph glyph-name="commaturn.ss01" 
d="M256 569q-49 0 -78.5 28t-29.5 70t29.5 70t78.5 28v-60q-17 0 -28 -11t-11 -27q0 -15 10.5 -26t28.5 -11v-61z" />
    <glyph glyph-name="caroncomma.ss01" horiz-adv-x="500" 
d="M491 611l-79 -56v193h79v-137z" />
    <glyph glyph-name="Tcedilla.ss01" horiz-adv-x="393" 
d="M372 611h-120v-611h-112v611h-119v101h351v-101zM251 -128q0 -42 -29.5 -70t-78.5 -28v61q18 0 29 11t11 26q0 16 -11.5 27t-28.5 11v60q49 0 78.5 -28t29.5 -70z" />
    <glyph glyph-name="tcedilla.ss01" horiz-adv-x="274" 
d="M254 0q-87 0 -128 32q-53 42 -53 128v272h-54v81h54v149h106v-149h73v-81h-73v-266q0 -71 75 -71v-95zM216 -128q0 -42 -29.5 -70t-78.5 -28v61q18 0 29 11t11 26q0 16 -11 27t-29 11v60q49 0 78.5 -28t29.5 -70z" />
    </font>
</defs>
</svg>
